Поиск

(Funk Soul, Disco) [CD] Enchantment - Enchantment - 1976 (2012 Remastered), FLAC (tracks+.cue), lossless

(Funk Soul, Disco) [CD] Enchantment - Enchantment - 1976 (2012 Remastered), FLAC (tracks+.cue), lossless
Треклист:
Enchantment / Enchantment
Жанр: Funk Soul, Disco
Носитель: CD
Страна-производитель диска (релиза): UK
Год издания: 1976
Издатель (лейбл): Big Break Records
Номер по каталогу: CDBBR 0122
Аудиокодек: FLAC (*.flac)
Тип рипа: tracks+.cue
Битрейт аудио: lossless
Продолжительность: 01:00:38
Источник (релизер): artmuss
Наличие сканов в содержимом раздачи: да
Треклист:
01. Come On And Ride 4:25
02. Gloria 5:38
03. Dance To The Music 4:04
04. Sunshine 4:53
05. Hold On 6:29
06. My Rose 4:39
07. Sexy Lady 3:05
08. Thank You Girl For Loving Me 3:58
Bonus Tracks
09. Come On And Ride (Single Version) 3:33
10. Hold On (Single Version) 2:34
11. Gloria (Single Version) 3:28
12. Dance To The Music (Single Version) 3:27
13. Sunshine (Single Version) 3:34
14. Hold On (12" Disco Version) 6:51
 
Лог создания рипа
Exact Audio Copy V1.0 beta 3 from 29. August 2011
EAC extraction logfile from 24. February 2013, 0:19
Enchantment / Enchantment
Used drive : hp CDDVDW SN-208BB Adapter: 0 ID: 1
Read mode : Secure
Utilize accurate stream : Yes
Defeat audio cache : Yes
Make use of C2 pointers : No
Read offset correction : 6
Overread into Lead-In and Lead-Out : No
Fill up missing offset samples with silence : Yes
Delete leading and trailing silent blocks : No
Null samples used in CRC calculations : Yes
Used interface : Native Win32 interface for Win NT & 2000
Gap handling : Appended to previous track
Used output format : User Defined Encoder
Selected bitrate : 256 kBit/s
Quality : High
Add ID3 tag : No
Command line compressor : C:\Program Files (x86)\Exact Audio Copy\Flac\flac.exe
Additional command line options : -8 -V -T "ARTIST=%artist%" -T "TITLE=%title%" -T "ALBUM=%albumtitle%" -T "DATE=%year%" -T "TRACKNUMBER=%tracknr%" -T "TOTALTRACKS=%numtracks%" -T "GENRE=%genre%" -T "ALBUMARTIST=%albumartist%" -T "ALBUM ARTIST=%albumartist%" -T "COMMENT=EAC Secure Mode, Test & Copy, AccurateRip, FLAC -8" %source%
TOC of the extracted CD
Track | Start | Length | Start sector | End sector
---------------------------------------------------------
1 | 0:00.00 | 4:24.63 | 0 | 19862
2 | 4:24.63 | 5:38.31 | 19863 | 45243
3 | 10:03.19 | 4:04.27 | 45244 | 63570
4 | 14:07.46 | 4:53.03 | 63571 | 85548
5 | 19:00.49 | 6:29.18 | 85549 | 114741
6 | 25:29.67 | 4:38.63 | 114742 | 135654
7 | 30:08.55 | 3:04.49 | 135655 | 149503
8 | 33:13.29 | 3:58.00 | 149504 | 167353
9 | 37:11.29 | 3:32.74 | 167354 | 183327
10 | 40:44.28 | 2:33.60 | 183328 | 194862
11 | 43:18.13 | 3:27.62 | 194863 | 210449
12 | 46:46.00 | 3:26.65 | 210450 | 225964
13 | 50:12.65 | 3:34.35 | 225965 | 242049
14 | 53:47.25 | 6:50.50 | 242050 | 272849
Track 1
Filename C:\Users\addis\Documents\AddisTheEthiopianGodFlac\01 - Come On And Ride .wav
Pre-gap length 0:00:02.00
Peak level 96.6 %
Extraction speed 2.3 X
Track quality 100.0 %
Test CRC 4286E88B
Copy CRC 4286E88B
Track not present in AccurateRip database
Copy OK
Track 2
Filename C:\Users\addis\Documents\AddisTheEthiopianGodFlac\02 - Gloria .wav
Pre-gap length 0:00:02.24
Peak level 96.6 %
Extraction speed 2.7 X
Track quality 100.0 %
Test CRC 68FB2310
Copy CRC 68FB2310
Track not present in AccurateRip database
Copy OK
Track 3
Filename C:\Users\addis\Documents\AddisTheEthiopianGodFlac\03 - Dance To The Music .wav
Pre-gap length 0:00:01.70
Peak level 96.6 %
Extraction speed 2.3 X
Track quality 99.9 %
Test CRC 45EE1D67
Copy CRC 45EE1D67
Track not present in AccurateRip database
Copy OK
Track 4
Filename C:\Users\addis\Documents\AddisTheEthiopianGodFlac\04 - Sunshine .wav
Pre-gap length 0:00:01.56
Peak level 96.6 %
Extraction speed 3.1 X
Track quality 100.0 %
Test CRC A15B4518
Copy CRC A15B4518
Track not present in AccurateRip database
Copy OK
Track 5
Filename C:\Users\addis\Documents\AddisTheEthiopianGodFlac\05 - Hold On .wav
Pre-gap length 0:00:01.48
Peak level 96.6 %
Extraction speed 3.5 X
Track quality 100.0 %
Test CRC E0A49021
Copy CRC E0A49021
Track not present in AccurateRip database
Copy OK
Track 6
Filename C:\Users\addis\Documents\AddisTheEthiopianGodFlac\06 - My Rose .wav
Pre-gap length 0:00:01.42
Peak level 96.6 %
Extraction speed 3.6 X
Track quality 100.0 %
Test CRC DAD2E239
Copy CRC DAD2E239
Track not present in AccurateRip database
Copy OK
Track 7
Filename C:\Users\addis\Documents\AddisTheEthiopianGodFlac\07 - Sexy Lady .wav
Pre-gap length 0:00:01.57
Peak level 96.6 %
Extraction speed 3.5 X
Track quality 100.0 %
Test CRC D454CB2C
Copy CRC D454CB2C
Track not present in AccurateRip database
Copy OK
Track 8
Filename C:\Users\addis\Documents\AddisTheEthiopianGodFlac\08 - Thank You Girl For Loving Me .wav
Pre-gap length 0:00:01.66
Peak level 96.6 %
Extraction speed 3.8 X
Track quality 100.0 %
Test CRC 0A1B914C
Copy CRC 0A1B914C
Track not present in AccurateRip database
Copy OK
Track 9
Filename C:\Users\addis\Documents\AddisTheEthiopianGodFlac\09 - Come On And Ride (Single Version) .wav
Pre-gap length 0:00:03.50
Peak level 96.6 %
Extraction speed 3.8 X
Track quality 100.0 %
Test CRC 00D19FDF
Copy CRC 00D19FDF
Track not present in AccurateRip database
Copy OK
Track 10
Filename C:\Users\addis\Documents\AddisTheEthiopianGodFlac\10 - Hold On (Single Version) .wav
Pre-gap length 0:00:01.07
Peak level 96.6 %
Extraction speed 3.7 X
Track quality 100.0 %
Test CRC C1B050BE
Copy CRC C1B050BE
Track not present in AccurateRip database
Copy OK
Track 11
Filename C:\Users\addis\Documents\AddisTheEthiopianGodFlac\11 - Gloria (Single Version) .wav
Pre-gap length 0:00:01.07
Peak level 96.6 %
Extraction speed 3.0 X
Track quality 99.9 %
Test CRC 05F91367
Copy CRC 05F91367
Track not present in AccurateRip database
Copy OK
Track 12
Filename C:\Users\addis\Documents\AddisTheEthiopianGodFlac\12 - Dance To The Music (Single Version) .wav
Pre-gap length 0:00:01.48
Peak level 96.6 %
Extraction speed 4.1 X
Track quality 100.0 %
Test CRC DFB469F1
Copy CRC DFB469F1
Track not present in AccurateRip database
Copy OK
Track 13
Filename C:\Users\addis\Documents\AddisTheEthiopianGodFlac\13 - Sunshine (Single Version) .wav
Pre-gap length 0:00:01.74
Peak level 96.6 %
Extraction speed 3.3 X
Track quality 99.9 %
Test CRC FAF10659
Copy CRC FAF10659
Track not present in AccurateRip database
Copy OK
Track 14
Filename C:\Users\addis\Documents\AddisTheEthiopianGodFlac\14 - Hold On (12' Disco Version) .wav
Pre-gap length 0:00:01.44
Peak level 96.6 %
Extraction speed 4.1 X
Track quality 99.9 %
Test CRC 682A6E97
Copy CRC 682A6E97
Track not present in AccurateRip database
Copy OK
None of the tracks are present in the AccurateRip database
No errors occurred
End of status report
==== Log checksum 29CD77BD1C5A01AD05A3124B28BDA9F1C799606D16BC8B60CDE103A68E6C4A45 ====
 
Содержание индексной карты (.CUE)
REM GENRE Soul
REM DATE 1976
REM DISCID B00E360E
REM COMMENT "ExactAudioCopy v1.0b3"
PERFORMER "Enchantment"
TITLE "Enchantment"
FILE "01 - Come On And Ride .wav" WAVE
TRACK 01 AUDIO
TITLE "Come On And Ride"
PERFORMER "Enchantment"
INDEX 01 00:00:00
TRACK 02 AUDIO
TITLE "Gloria"
PERFORMER "Enchantment"
INDEX 00 04:22:39
FILE "02 - Gloria .wav" WAVE
INDEX 01 00:00:00
TRACK 03 AUDIO
TITLE "Dance To The Music"
PERFORMER "Enchantment"
INDEX 00 05:36:36
FILE "03 - Dance To The Music .wav" WAVE
INDEX 01 00:00:00
TRACK 04 AUDIO
TITLE "Sunshine"
PERFORMER "Enchantment"
INDEX 00 04:02:46
FILE "04 - Sunshine .wav" WAVE
INDEX 01 00:00:00
TRACK 05 AUDIO
TITLE "Hold On"
PERFORMER "Enchantment"
INDEX 00 04:51:30
FILE "05 - Hold On .wav" WAVE
INDEX 01 00:00:00
TRACK 06 AUDIO
TITLE "My Rose"
PERFORMER "Enchantment"
INDEX 00 06:27:51
FILE "06 - My Rose .wav" WAVE
INDEX 01 00:00:00
TRACK 07 AUDIO
TITLE "Sexy Lady"
PERFORMER "Enchantment"
INDEX 00 04:37:06
FILE "07 - Sexy Lady .wav" WAVE
INDEX 01 00:00:00
TRACK 08 AUDIO
TITLE "Thank You Girl For Loving Me"
PERFORMER "Enchantment"
INDEX 00 03:02:58
FILE "08 - Thank You Girl For Loving Me .wav" WAVE
INDEX 01 00:00:00
TRACK 09 AUDIO
TITLE "Come On And Ride (Single Version)"
PERFORMER "Enchantment"
INDEX 00 03:54:25
FILE "09 - Come On And Ride (Single Version) .wav" WAVE
INDEX 01 00:00:00
TRACK 10 AUDIO
TITLE "Hold On (Single Version)"
PERFORMER "Enchantment"
INDEX 00 03:31:67
FILE "10 - Hold On (Single Version) .wav" WAVE
INDEX 01 00:00:00
TRACK 11 AUDIO
TITLE "Gloria (Single Version)"
PERFORMER "Enchantment"
INDEX 00 02:32:53
FILE "11 - Gloria (Single Version) .wav" WAVE
INDEX 01 00:00:00
TRACK 12 AUDIO
TITLE "Dance To The Music (Single Version)"
PERFORMER "Enchantment"
INDEX 00 03:26:14
FILE "12 - Dance To The Music (Single Version) .wav" WAVE
INDEX 01 00:00:00
TRACK 13 AUDIO
TITLE "Sunshine (Single Version)"
PERFORMER "Enchantment"
INDEX 00 03:24:66
FILE "13 - Sunshine (Single Version) .wav" WAVE
INDEX 01 00:00:00
TRACK 14 AUDIO
TITLE "Hold On (12' Disco Version)"
PERFORMER "Enchantment"
INDEX 00 03:32:66
FILE "14 - Hold On (12' Disco Version) .wav" WAVE
INDEX 01 00:00:00
 
DR Log
foobar2000 1.1.10 / Dynamic Range Meter 1.1.1
log date: 2016-12-22 16:35:20
--------------------------------------------------------------------------------
Analyzed: Enchantment / Enchantment
--------------------------------------------------------------------------------
DR Peak RMS Duration Track
--------------------------------------------------------------------------------
DR10 -0.30 dB -11.46 dB 4:25 ?-Come On And Ride
DR9 -0.30 dB -11.29 dB 5:38 ?-Gloria
DR10 -0.30 dB -11.76 dB 4:04 ?-Dance To The Music
DR9 -0.30 dB -11.70 dB 4:53 ?-Sunshine
DR10 -0.30 dB -11.64 dB 6:29 ?-Hold On
DR10 -0.30 dB -11.87 dB 4:39 ?-My Rose
DR10 -0.30 dB -11.52 dB 3:05 ?-Sexy Lady
DR10 -0.30 dB -11.10 dB 3:58 ?-Thank You Girl For Loving Me
DR10 -0.30 dB -11.82 dB 3:33 ?-Come On And Ride (Single Version)
DR10 -0.30 dB -11.80 dB 2:34 ?-Hold On (Single Version)
DR9 -0.30 dB -11.21 dB 3:28 ?-Gloria (Single Version)
DR11 -0.30 dB -12.83 dB 3:27 ?-Dance To The Music (Single Version)
DR10 -0.30 dB -12.38 dB 3:34 ?-Sunshine (Single Version)
DR9 -0.30 dB -10.02 dB 6:51 ?-Hold On (12' Disco Version)
--------------------------------------------------------------------------------
Number of tracks: 14
Official DR value: DR10
Samplerate: 44100 Hz
Channels: 2
Bits per sample: 16
Bitrate: 937 kbps
Codec: FLAC
================================================================================
 
Состав
Bass – Alvin Taylor, Chuck Rainey, Rodrick Chandler
Drums – Allan Schwartzberg, Tony Robinson
Guitar – Eddie Willis, Elliot Randall, Jerry Friedman, John Tropea
Keyboards – Michael Stokes, Paul Griffin, Willie Hollis
Percussion – Jack Brokenshaw, Shaunard Williams
Strings, Horns – Carl Austin, The Detroit Symphony Orchestra, John Trudell
Приватный:
Нет (DHT включён)
Размер:
388.62 Мб (407,499,565 байт) » файлов: 22
Участники:
0 раздают, 0 качают (0 участников всего)
Внешние участники:
1 раздают, 0 качают (1 участников всего) [ Обновить ]
No seeders - write a personal message to user M0p94ok. Нет сидеров - пишите личное сообщение пользователю M0p94ok.
12:29
86
Нет комментариев. Ваш будет первым!