Поиск

(Radical Jewish Culture, Jazz Punk, Free Jazz, Tzadik, Avant-Garde) Zakarya - The True Story Concerning Martin Behaim - 2008 (image+.cue), lossless

(Radical Jewish Culture, Jazz Punk, Free Jazz, Tzadik, Avant-Garde) Zakarya - The True Story Concerning Martin Behaim - 2008 (image+.cue), lossless
Треклист:
Zakarya - The True Story Concerning Martin Behaim
Жанр: Radical Jewish Culture, Free Jazz, Tzadik, Avant-Garde
Год выпуска диска: 2008
Производитель диска: USA
Тип рипа: image+.cue
Битрейт аудио: lossless
Продолжительность: 54:32
Трэклист:
1. Just Before
2. Rosa
3. Nakete Shtetl
4. Manual Labor
5. Ballade
6. The Golem Again
7. Lafko
8. The Thing in the Secret Room
9. Part 1
10. Part 2
11. Ed..?
12. Sailors & Captains
Доп. информация: Pascal Gully: Drums
Vincent Posty: Electric Bass
Yves Weyh: Accordion
Alexander Wimmer: Guitar, Electronics
 
скрытый текст
Exact Audio Copy V0.99 prebeta 4 from 23. January 2008
EAC extraction logfile from 7. April 2009, 12:04
Zakarya / The True Story Concerning Martin Behaim
Used drive : Optiarc DVD RW AD-7170S Adapter: 5 ID: 0
Read mode : Secure
Utilize accurate stream : Yes
Defeat audio cache : Yes
Make use of C2 pointers : No
Read offset correction : 48
Overread into Lead-In and Lead-Out : No
Fill up missing offset samples with silence : Yes
Delete leading and trailing silent blocks : No
Null samples used in CRC calculations : Yes
Used interface : Native Win32 interface for Win NT & 2000
Used output format : Internal WAV Routines
Sample format : 44.100 Hz; 16 Bit; Stereo
TOC of the extracted CD
Track | Start | Length | Start sector | End sector
---------------------------------------------------------
1 | 0:00.00 | 5:22.27 | 0 | 24176
2 | 5:22.27 | 3:17.69 | 24177 | 39020
3 | 8:40.21 | 5:14.46 | 39021 | 62616
4 | 13:54.67 | 4:58.37 | 62617 | 85003
5 | 18:53.29 | 5:34.65 | 85004 | 110118
6 | 24:28.19 | 3:12.54 | 110119 | 124572
7 | 27:40.73 | 6:18.05 | 124573 | 152927
8 | 33:59.03 | 3:36.10 | 152928 | 169137
9 | 37:35.13 | 1:45.55 | 169138 | 177067
10 | 39:20.68 | 5:39.08 | 177068 | 202500
11 | 45:00.01 | 4:52.21 | 202501 | 224421
12 | 49:52.22 | 4:39.24 | 224422 | 245370
Range status and errors
Selected range
Filename I:\New Jazz, Improv, Anantgarde\Zakarya - The True Story Concerning Martin Behaim\Zakarya - The True Story Concerning Martin Behaim.wav
Peak level 96.6 %
Range quality 100.0 %
Copy CRC B592A613
Copy OK
No errors occurred
End of status report
05:38
274
Нет комментариев. Ваш будет первым!