Поиск

(Contemporary jazz, Middle Eastern music) Rea Bar-Ness - Remember & Forget - 2006, FLAC (tracks+.cue), lossless

Треклист:
Rea Bar-Ness - Remember & Forget
Jazz - Made In Israel (Каталог раздач)
Жанр: Contemporary jazz, Middle Eastern music
Дата выпуска: 2006
Производитель диска, страна: self released
Страна исполнителя: Israel
Аудио кодек: FLAC
Тип рипа: (tracks + .cue)
Битрейт аудио: lossless
Включает: Full artwork
Продолжительность: 1:00:55
Источник: Моя коллекция
Риппер: Мой рип
Трэклист:
1. And if at all
2. Avazim hayinu
3. Intensity
4. Haj ahhmad
5. Shulka
6. Kineret
7. Tachlles
8. Linda
Об исполнителе:
http://reabarness.com/
Об альбоме:
Producer: Rea Bar-Ness {Rea Bar-Ness Music)
All Tracks written and arranged by Rea Bar-Ness
Recorded at "Hamon Studios" and "Zaza Studios", Tel-Aviv 2005
Mixing, by Tzvika Hirschler. and Yagil Baras, Jerusalem 2005
Mastering - Ariel Barazani "studio one", Jerusalem 2006
Состав:
Amos Hoffman - Guitar & Qud
Omri Mor - piano
Omer Avital - bass on tracks 1,4,5,8
Gilad Abro - bass on tracks 2,3,6,7
Avishai Cohen - trumpet
Asaf Yuria - tenor sax
Rea Bar-Ness - drums & percussion
Этот же альбом в mp3 (320), сканы в jpg
 
Несколько слов на английском - Dan Aran Tel Aviv 2006.
A new sound is coming out of Israel.
The fusion of cultures in the region is starting to show its influences within the music that is created here.
Rea bar ness is part of a group of young musicians, who in the past few years have been creating and experimenting with music that is truly Israeli. Elements from Arabic and middle eastern music, as well as from eastern European music are used in this art form, creating a sound that is unique, refreshing and an innovating addition to the jazz world.
In this record, rea shows his talent as a composer, as well as a diverse drummer, using his experience in playing Middle Eastern music, jazz and his background as a timpani player in symphony orchestras. Rea's sound is unmistakable; his powerful playing is a contrast to some of the lyrical melodies on this debut album.
 
CD scan
 
Back scan
 
EAC log
Exact Audio Copy V0.99 prebeta 4 from 23. January 2008
EAC extraction logfile from 29. March 2009, 19:55
Rea Bar-Ness / Forget
Used drive : PIONEER DVD-RW DVR-112D Adapter: 0 ID: 0
Read mode : Secure
Utilize accurate stream : Yes
Defeat audio cache : Yes
Make use of C2 pointers : No
Read offset correction : 48
Overread into Lead-In and Lead-Out : No
Fill up missing offset samples with silence : Yes
Delete leading and trailing silent blocks : No
Null samples used in CRC calculations : Yes
Used interface : Installed external ASPI interface
Gap handling : Appended to previous track
Used output format : User Defined Encoder
Selected bitrate : 320 kBit/s
Quality : High
Add ID3 tag : Yes
Command line compressor : C:\Program Files\Exact Audio Copy\Flac\flac.exe
Additional command line options : -V -8 -T "artist=%a" -T "title=%t" -T "album=%g" -T "date=%y" -T "tracknumber=%n" -T "genre=%m" %s
TOC of the extracted CD
Track | Start | Length | Start sector | End sector
---------------------------------------------------------
1 | 0:00.00 | 9:03.35 | 0 | 40759
2 | 9:03.35 | 4:50.47 | 40760 | 62556
3 | 13:54.07 | 7:38.27 | 62557 | 96933
4 | 21:32.34 | 8:39.43 | 96934 | 135901
5 | 30:12.02 | 8:41.11 | 135902 | 174987
6 | 38:53.13 | 6:47.16 | 174988 | 205528
7 | 45:40.29 | 8:14.64 | 205529 | 242642
8 | 53:55.18 | 7:00.48 | 242643 | 274190
Track 1
Filename D:\music\rip\Rea Bar-Ness - Forget (2006) {self released}\01 - And If At All ....wav
Pre-gap length 0:00:02.00
Peak level 94.4 %
Track quality 100.0 %
Test CRC 9DB55853
Copy CRC 9DB55853
Track not present in AccurateRip database
Copy OK
Track 2
Filename D:\music\rip\Rea Bar-Ness - Forget (2006) {self released}\02 - Avazim Hayinu.wav
Pre-gap length 0:00:02.33
Peak level 94.4 %
Track quality 100.0 %
Test CRC A09BEE87
Copy CRC A09BEE87
Track not present in AccurateRip database
Copy OK
Track 3
Filename D:\music\rip\Rea Bar-Ness - Forget (2006) {self released}\03 - Intensity.wav
Pre-gap length 0:00:02.40
Peak level 94.4 %
Track quality 100.0 %
Test CRC 27132C9B
Copy CRC 27132C9B
Track not present in AccurateRip database
Copy OK
Track 4
Filename D:\music\rip\Rea Bar-Ness - Forget (2006) {self released}\04 - Haj Ahmad.wav
Pre-gap length 0:00:02.00
Peak level 94.4 %
Track quality 100.0 %
Test CRC 11BF26E6
Copy CRC 11BF26E6
Track not present in AccurateRip database
Copy OK
Track 5
Filename D:\music\rip\Rea Bar-Ness - Forget (2006) {self released}\05 - Shuluka.wav
Pre-gap length 0:00:03.25
Peak level 94.4 %
Track quality 100.0 %
Test CRC F2EED319
Copy CRC F2EED319
Track not present in AccurateRip database
Copy OK
Track 6
Filename D:\music\rip\Rea Bar-Ness - Forget (2006) {self released}\06 - Kineret.wav
Pre-gap length 0:00:00.65
Peak level 94.4 %
Track quality 100.0 %
Test CRC AC71DD25
Copy CRC AC71DD25
Track not present in AccurateRip database
Copy OK
Track 7
Filename D:\music\rip\Rea Bar-Ness - Forget (2006) {self released}\07 - Tachlless.wav
Pre-gap length 0:00:02.00
Peak level 94.4 %
Track quality 100.0 %
Test CRC B74CEDA7
Copy CRC B74CEDA7
Track not present in AccurateRip database
Copy OK
Track 8
Filename D:\music\rip\Rea Bar-Ness - Forget (2006) {self released}\08 - Linda.wav
Pre-gap length 0:00:02.00
Peak level 94.5 %
Track quality 100.0 %
Test CRC AB75A4DF
Copy CRC AB75A4DF
Track not present in AccurateRip database
Copy OK
None of the tracks are present in the AccurateRip database
No errors occurred
End of status report
 
Tau analizer screenshoot
Я не сидирую все свои раздачи подолгу, только новые (до 3х первых сидов)
Предлагаю скачавшим максимально долго оставаться на раздаче - весь рейтинг будет ваш
Если нет сидов или раздача находится в архиве, попросите ПМ, и я вернусь
Download available for power users only.
05:38
228
Нет комментариев. Ваш будет первым!