Поиск

(Latin Jazz, Bossa Nova, Vocal Jazz) Rosalia De Souza - D'improvviso - 2009, WAVPack (image+.cue), lossless

(Latin Jazz, Bossa Nova, Vocal Jazz) Rosalia De Souza - D'improvviso - 2009, WAVPack (image+.cue), lossless
Треклист:
Rosalia De Souza - D'improvviso
Жанр: Latin Jazz, Bossa Nova, Vocal Jazz
Год выпуска диска: 2009
Аудио кодек: WAVPack
Тип рипа: image+.cue
Битрейт аудио: lossless
Продолжительность: 0:53:43
Трэклист:
01. Banzo (4:20)
02. Candomblé (4:25)
03. D'improvviso (3:08)
04. Carolina Carol Bela (3:10)
05. O Cantador (3:39)
06. Opiniao (3:39)
07. Sambinha (3:14)
08. Luiza Manequim (4:46)
09. Samba Longe (4:08)
10. Amanha (4:13)
11. Quem Quiser Encontrar O Amor (3:09)
12. 5 Dias De Carnaval (2:51)
13. Bossa 50 (4:27)
14. Ondina (4:33)
 
EAC log
Exact Audio Copy V0.99 prebeta 4 from 23. January 2008
EAC extraction logfile from 21. March 2009, 18:56
Rosalia De Souza / D'improvviso
Used drive : Optiarc DVD RW AD-7201S5 Adapter: 0 ID: 1
Read mode : Secure
Utilize accurate stream : Yes
Defeat audio cache : Yes
Make use of C2 pointers : No
Read offset correction : 48
Overread into Lead-In and Lead-Out : No
Fill up missing offset samples with silence : Yes
Delete leading and trailing silent blocks : No
Null samples used in CRC calculations : Yes
Used interface : Native Win32 interface for Win NT & 2000
Used output format : User Defined Encoder
Selected bitrate : 1024 kBit/s
Quality : High
Add ID3 tag : No
Command line compressor : C:\Program Files (x86)\Exact Audio Copy\Encoders\wavpack.exe
Additional command line options : -w "Artist=%a" -w "Title=%t" -w "Album=%g" -w "Year=%y" -w "Track=%n" -w "Genre=%m" -h %s %d
TOC of the extracted CD
Track | Start | Length | Start sector | End sector
---------------------------------------------------------
1 | 0:00.00 | 4:19.64 | 0 | 19488
2 | 4:19.64 | 4:25.30 | 19489 | 39393
3 | 8:45.19 | 3:08.07 | 39394 | 53500
4 | 11:53.26 | 3:10.19 | 53501 | 67769
5 | 15:03.45 | 3:39.31 | 67770 | 84225
6 | 18:43.01 | 3:39.17 | 84226 | 100667
7 | 22:22.18 | 3:14.26 | 100668 | 115243
8 | 25:36.44 | 4:45.53 | 115244 | 136671
9 | 30:22.22 | 4:08.00 | 136672 | 155271
10 | 34:30.22 | 4:13.09 | 155272 | 174255
11 | 38:43.31 | 3:08.56 | 174256 | 188411
12 | 41:52.12 | 2:51.14 | 188412 | 201250
13 | 44:43.26 | 4:27.01 | 201251 | 221276
14 | 49:10.27 | 4:33.04 | 221277 | 241755
Range status and errors
Selected range
Filename C:\Users\Gabriele\Desktop\Rosalia De Souza - D'improvviso(2009)[SDR].wav
Peak level 100.0 %
Range quality 100.0 %
Copy CRC 65AA7B34
Copy OK
No errors occurred
AccurateRip summary
Track 1 not present in database
Track 2 not present in database
Track 3 not present in database
Track 4 not present in database
Track 5 not present in database
Track 6 not present in database
Track 7 not present in database
Track 8 not present in database
Track 9 not present in database
Track 10 not present in database
Track 11 not present in database
Track 12 not present in database
Track 13 not present in database
Track 14 not present in database
None of the tracks are present in the AccurateRip database
End of status report
 
Audiocheker's log
Started at: четверг, 02. 04. 2009. - 23:21.03
1 file found
1 -===- G:\Downloads\Rosalia De Souza - D'improvviso (2009)\Rosalia De Souza - D'improvviso(2009)[SDR].wav
Conclusion: this track is CDDA with probability 100%
Finished at: четверг, 02. 04. 2009. - 23:36.11 (operation time: 0:15.07)
Доп. информация: Источник - ослосеть. Сканов нет. Релизер - S*D*R*U*S*O*. allmusic.com
Внимание! Торрент-файл перезалит без изменения содержимого в связи с просьбой администрации снять флаг «Приватная раздача»
Скачавшим ранее просьба перекачать торрент-файл, перехешировать и присоединиться к раздаче.
По всем вопросам пишите личное сообщение пользователю M0p94ok.
05:37
242
Нет комментариев. Ваш будет первым!