Поиск

(Modern Creative, Folk-Jazz) Chris Speed - Emit {Songlines} - 2000, FLAC (tracks+.cue), lossless

(Modern Creative, Folk-Jazz) Chris Speed - Emit {Songlines} - 2000, FLAC (tracks+.cue), lossless
Треклист:
Chris Speed
Emit


Жанр: Modern Creative, Folk-Jazz
Год выпуска диска: 2000
Производитель диска: Canada (Songlines Recordings)
Аудио кодек: FLAC
Тип рипа: tracks+.cue
Битрейт аудио: lossless
Продолжительность: 52:22
Chris Speed - clarinet, tenor saxophone
Cuong Vu - trumpet
Skuli Sverrisson - bass
Jim Black - drums, melodica
1. Constance and Georgia - 5:08
2. Suggestible - 6:24
3. Berançe (Beranche) - 7:41
4. Waltzing - 3:49
5. Kosmia - 5:59
6. Tangents - 6:38
7. Tralala - 3:00
8. Kompa - 6:13
9. Transporter - 7:09
Songs by Chris Speed
Produced by Chris Speed
Recorded by Jim Anderson at Avatar Studios, NYC on March 11th and 12th, 2000
2000, Songlines Recordings
SGL-1532-2
 
EAC extraction logfile from 29. March 2009, 16:01
Exact Audio Copy V0.99 prebeta 4 from 23. January 2008
EAC extraction logfile from 29. March 2009, 16:01
Chris Speed / Emit
Used drive : PLEXTOR DVDR PX-760A Adapter: 0 ID: 0
Read mode : Secure
Utilize accurate stream : Yes
Defeat audio cache : Yes
Make use of C2 pointers : No
Read offset correction : 30
Overread into Lead-In and Lead-Out : Yes
Fill up missing offset samples with silence : Yes
Delete leading and trailing silent blocks : No
Null samples used in CRC calculations : Yes
Used interface : Native Win32 interface for Win NT & 2000
Gap handling : Appended to previous track
Used output format : User Defined Encoder
Selected bitrate : 128 kBit/s
Quality : High
Add ID3 tag : No
Command line compressor : C:\Program Files\FLAC\flac.exe
Additional command line options : -8 -V -T "ARTIST=%a" -T "TITLE=%t" -T "ALBUM=%g" -T "DATE=%y" -T "TRACKNUMBER=%n" -T "GENRE=%m" -T "COMMENT=EAC FLAC -8" %s
TOC of the extracted CD
Track | Start | Length | Start sector | End sector
---------------------------------------------------------
1 | 0:00.43 | 5:11.63 | 43 | 23430
2 | 5:12.31 | 6:27.18 | 23431 | 52473
3 | 11:39.49 | 7:46.11 | 52474 | 87434
4 | 19:25.60 | 3:49.57 | 87435 | 104666
5 | 23:15.42 | 6:01.27 | 104667 | 131768
6 | 29:16.69 | 6:39.08 | 131769 | 161701
7 | 35:56.02 | 3:02.42 | 161702 | 175393
8 | 38:58.44 | 6:14.38 | 175394 | 203481
9 | 45:13.07 | 7:09.50 | 203482 | 235706
Track 1
Filename H:\Chris Speed - Emit (2000) [FLAC]\01 - Constance and Georgia.wav
Pre-gap length 0:00:02.43
Peak level 98.8 %
Track quality 100.0 %
Test CRC 27517DE5
Copy CRC 27517DE5
Track not present in AccurateRip database
Copy OK
Track 2
Filename H:\Chris Speed - Emit (2000) [FLAC]\02 - Suggestible.wav
Pre-gap length 0:00:02.72
Peak level 98.8 %
Track quality 100.0 %
Test CRC FB42D3C4
Copy CRC FB42D3C4
Track not present in AccurateRip database
Copy OK
Track 3
Filename H:\Chris Speed - Emit (2000) [FLAC]\03 - Berance (Beranche).wav
Pre-gap length 0:00:03.04
Peak level 98.9 %
Track quality 100.0 %
Test CRC 04586B93
Copy CRC 04586B93
Track not present in AccurateRip database
Copy OK
Track 4
Filename H:\Chris Speed - Emit (2000) [FLAC]\04 - Waltzing.wav
Pre-gap length 0:00:04.28
Peak level 98.8 %
Track quality 100.0 %
Test CRC A43CF24F
Copy CRC A43CF24F
Track not present in AccurateRip database
Copy OK
Track 5
Filename H:\Chris Speed - Emit (2000) [FLAC]\05 - Kosmia.wav
Pre-gap length 0:00:00.29
Peak level 98.8 %
Track quality 100.0 %
Test CRC F112F3BE
Copy CRC F112F3BE
Track not present in AccurateRip database
Copy OK
Track 6
Filename H:\Chris Speed - Emit (2000) [FLAC]\06 - Tangents.wav
Pre-gap length 0:00:01.62
Peak level 98.8 %
Track quality 99.9 %
Test CRC 7B46C810
Copy CRC 7B46C810
Track not present in AccurateRip database
Copy OK
Track 7
Filename H:\Chris Speed - Emit (2000) [FLAC]\07 - Tralala.wav
Pre-gap length 0:00:00.09
Peak level 51.9 %
Track quality 100.0 %
Test CRC 561976CF
Copy CRC 561976CF
Track not present in AccurateRip database
Copy OK
Track 8
Filename H:\Chris Speed - Emit (2000) [FLAC]\08 - Kompa.wav
Pre-gap length 0:00:01.50
Peak level 98.9 %
Track quality 100.0 %
Test CRC 6580514D
Copy CRC 6580514D
Track not present in AccurateRip database
Copy OK
Track 9
Filename H:\Chris Speed - Emit (2000) [FLAC]\09 - Transporter.wav
Pre-gap length 0:00:00.74
Peak level 98.8 %
Track quality 99.9 %
Test CRC AA74C78B
Copy CRC AA74C78B
Track not present in AccurateRip database
Copy OK
None of the tracks are present in the AccurateRip database
No errors occurred
End of status report
 
CUE
REM GENRE Jazz
REM DATE 2000
REM DISCID 720C4609
REM COMMENT "ExactAudioCopy v0.99pb4"
PERFORMER "Chris Speed"
TITLE "Emit"
FILE "01 - Constance and Georgia.wav" WAVE
TRACK 01 AUDIO
TITLE "Constance and Georgia"
PERFORMER "Chris Speed"
ISRC CAS230000009
PREGAP 00:00:43
INDEX 01 00:00:00
TRACK 02 AUDIO
TITLE "Suggestible"
PERFORMER "Chris Speed"
ISRC CAS230000010
INDEX 00 05:08:66
FILE "02 - Suggestible.wav" WAVE
INDEX 01 00:00:00
TRACK 03 AUDIO
TITLE "Berance (Beranche)"
PERFORMER "Chris Speed"
ISRC CAS230000011
INDEX 00 06:24:14
FILE "03 - Berance (Beranche).wav" WAVE
INDEX 01 00:00:00
TRACK 04 AUDIO
TITLE "Waltzing"
PERFORMER "Chris Speed"
ISRC CAS230000012
INDEX 00 07:41:58
FILE "04 - Waltzing.wav" WAVE
INDEX 01 00:00:00
TRACK 05 AUDIO
TITLE "Kosmia"
PERFORMER "Chris Speed"
ISRC CAS230000013
INDEX 00 03:49:28
FILE "05 - Kosmia.wav" WAVE
INDEX 01 00:00:00
TRACK 06 AUDIO
TITLE "Tangents"
PERFORMER "Chris Speed"
ISRC CAS230000014
INDEX 00 05:59:40
FILE "06 - Tangents.wav" WAVE
INDEX 01 00:00:00
TRACK 07 AUDIO
TITLE "Tralala"
PERFORMER "Chris Speed"
ISRC CAS230000015
INDEX 00 06:38:74
FILE "07 - Tralala.wav" WAVE
INDEX 01 00:00:00
TRACK 08 AUDIO
TITLE "Kompa"
PERFORMER "Chris Speed"
ISRC CAS230000016
INDEX 00 03:00:67
FILE "08 - Kompa.wav" WAVE
INDEX 01 00:00:00
TRACK 09 AUDIO
TITLE "Transporter"
PERFORMER "Chris Speed"
ISRC CAS230000017
INDEX 00 06:13:39
FILE "09 - Transporter.wav" WAVE
INDEX 01 00:00:00
Собственный рип с оригинального издания.
В комплекте полный набор сканов PNG/300dpi.
По всем вопросам пишите личное сообщение пользователю M0p94ok.
05:39
249
Нет комментариев. Ваш будет первым!