Поиск

(R'n'B) S.O.S. Band - Just The Way You Like It - 1984, FLAC (tracks+.cue), lossless

(R'n'B) S.O.S. Band - Just The Way You Like It - 1984, FLAC (tracks+.cue), lossless
Треклист:
S.O.S. Band - Just The Way You Like It
Жанр: R'n'B
Год выпуска диска: 1984
Аудио кодек: FLAC
Тип рипа: tracks+.cue
Битрейт аудио: lossless
Продолжительность: 0:45:18
Label:Tabu
Трэклист:
1.No One's Gonna Love You
2.Weekend Girl
3.Just The Way You Like It
4.Break Up
5.Feeling
6.I Don't Want Nobody Else
7.Body Break
Источник рипа: Найдено в сети. Released by cdonp.
 
CUE Sheet
REM GENRE R&B
REM DATE 1984
REM DISCID 4B0A9E07
REM COMMENT "ExactAudioCopy v0.99pb4"
PERFORMER "S.O.S. Band"
TITLE "Just The Way You Like It"
FILE "S.O.S. Band - Just The Way You Like It (1984) [FLAC]\01 - No One's Gonna Love You.wav" WAVE
TRACK 01 AUDIO
TITLE "No One's Gonna Love You"
PERFORMER "S.O.S. Band"
INDEX 01 00:00:00
FILE "S.O.S. Band - Just The Way You Like It (1984) [FLAC]\02 - Weekend Girl.wav" WAVE
TRACK 02 AUDIO
TITLE "Weekend Girl"
PERFORMER "S.O.S. Band"
INDEX 01 00:00:00
FILE "S.O.S. Band - Just The Way You Like It (1984) [FLAC]\03 - Just The Way You Like It.wav" WAVE
TRACK 03 AUDIO
TITLE "Just The Way You Like It"
PERFORMER "S.O.S. Band"
INDEX 01 00:00:00
FILE "S.O.S. Band - Just The Way You Like It (1984) [FLAC]\04 - Break Up.wav" WAVE
TRACK 04 AUDIO
TITLE "Break Up"
PERFORMER "S.O.S. Band"
INDEX 01 00:00:00
FILE "S.O.S. Band - Just The Way You Like It (1984) [FLAC]\05 - Feeling.wav" WAVE
TRACK 05 AUDIO
TITLE "Feeling"
PERFORMER "S.O.S. Band"
INDEX 01 00:00:00
FILE "S.O.S. Band - Just The Way You Like It (1984) [FLAC]\06 - I Don't Want Nobody Else.wav" WAVE
TRACK 06 AUDIO
TITLE "I Don't Want Nobody Else"
PERFORMER "S.O.S. Band"
INDEX 01 00:00:00
FILE "S.O.S. Band - Just The Way You Like It (1984) [FLAC]\07 - Body Break.wav" WAVE
TRACK 07 AUDIO
TITLE "Body Break"
PERFORMER "S.O.S. Band"
INDEX 01 00:00:00
 
Лог Audiockecker
AUDIOCHECKER v2.0 beta (build 457) - by Dester - opdester@freemail.hu
~~~~~~~~~~~~~~~~~~~~~~~~~~~~~~~~~~
-=== DO NOT EDIT THIS FILE! ===-
Path: ...\S.O.S. Band - Just The Way You Like It (1984) [FLAC]
1 -=- 01 - No One's Gonna Love You.flac -=- CDDA (100%)
2 -=- 02 - Weekend Girl.flac -=- CDDA (99%)
3 -=- 03 - Just The Way You Like It.flac -=- CDDA (100%)
4 -=- 04 - Break Up.flac -=- CDDA (100%)
5 -=- 05 - Feeling.flac -=- CDDA (100%)
6 -=- 06 - I Don't Want Nobody Else.flac -=- CDDA (100%)
7 -=- 07 - Body Break.flac -=- CDDA (100%)
Summary 99,86% CDDA
196195796
 
Отчёт EAC
Exact Audio Copy V0.99 prebeta 4 from 23. January 2008
EAC extraction logfile from 29. December 2008, 21:20
S.O.S. Band / Just The Way You Like It
Used drive : SAMSUNG CDRW/DVD SM-352F Adapter: 0 ID: 0
Read mode : Secure
Utilize accurate stream : Yes
Defeat audio cache : Yes
Make use of C2 pointers : No
Read offset correction : 6
Overread into Lead-In and Lead-Out : No
Fill up missing offset samples with silence : Yes
Delete leading and trailing silent blocks : No
Null samples used in CRC calculations : Yes
Used interface : Native Win32 interface for Win NT & 2000
Gap handling : Appended to previous track
Used output format : User Defined Encoder
Selected bitrate : 768 kBit/s
Quality : High
Add ID3 tag : No
Command line compressor : C:\Program Files\FLAC\flac.exe
Additional command line options : -6 -V -T "ARTIST=%a" -T "TITLE=%t" -T "ALBUM=%g" -T "DATE=%y" -T "TRACKNUMBER=%n" -T "GENRE=%m" -T "COMMENT=EAC FLAC -6" %s
TOC of the extracted CD
Track | Start | Length | Start sector | End sector
---------------------------------------------------------
1 | 0:00.00 | 7:03.15 | 0 | 31739
2 | 7:03.15 | 6:24.72 | 31740 | 60611
3 | 13:28.12 | 8:41.50 | 60612 | 99736
4 | 22:09.62 | 6:33.35 | 99737 | 129246
5 | 28:43.22 | 6:43.48 | 129247 | 159519
6 | 35:26.70 | 6:03.52 | 159520 | 186796
7 | 41:30.47 | 3:47.40 | 186797 | 203861
Track 1
Filename G:\1 EAC\S.O.S. Band - Just The Way You Like It (1984) [FLAC]\01 - No One's Gonna Love You.wav
Pre-gap length 0:00:02.00
Peak level 86.0 %
Track quality 100.0 %
Test CRC DA1A87E8
Copy CRC DA1A87E8
Track not present in AccurateRip database
Copy OK
Track 2
Filename G:\1 EAC\S.O.S. Band - Just The Way You Like It (1984) [FLAC]\02 - Weekend Girl.wav
Peak level 92.5 %
Track quality 100.0 %
Test CRC 61E7E72D
Copy CRC 61E7E72D
Track not present in AccurateRip database
Copy OK
Track 3
Filename G:\1 EAC\S.O.S. Band - Just The Way You Like It (1984) [FLAC]\03 - Just The Way You Like It.wav
Peak level 98.2 %
Track quality 99.9 %
Test CRC A26BB0CD
Copy CRC A26BB0CD
Track not present in AccurateRip database
Copy OK
Track 4
Filename G:\1 EAC\S.O.S. Band - Just The Way You Like It (1984) [FLAC]\04 - Break Up.wav
Peak level 94.9 %
Track quality 99.9 %
Test CRC 89B044E6
Copy CRC 89B044E6
Track not present in AccurateRip database
Copy OK
Track 5
Filename G:\1 EAC\S.O.S. Band - Just The Way You Like It (1984) [FLAC]\05 - Feeling.wav
Peak level 93.8 %
Track quality 100.0 %
Test CRC 3D07B7D3
Copy CRC 3D07B7D3
Track not present in AccurateRip database
Copy OK
Track 6
Filename G:\1 EAC\S.O.S. Band - Just The Way You Like It (1984) [FLAC]\06 - I Don't Want Nobody Else.wav
Peak level 85.4 %
Track quality 100.0 %
Test CRC 2794A06F
Copy CRC 2794A06F
Track not present in AccurateRip database
Copy OK
Track 7
Filename G:\1 EAC\S.O.S. Band - Just The Way You Like It (1984) [FLAC]\07 - Body Break.wav
Peak level 90.2 %
Track quality 100.0 %
Test CRC CF68A52E
Copy CRC CF68A52E
Track not present in AccurateRip database
Copy OK
None of the tracks are present in the AccurateRip database
No errors occurred
End of status report
Приватный:
Нет (DHT включён)
Размер:
293.85 Мб (308,119,698 байт) » файлов: 15
Участники:
0 раздают, 0 качают (0 участников всего)
Внешние участники:
1 раздают, 0 качают (1 участников всего) [ Обновить ]
Нет сидеров - пишите личное сообщение M0p94ok. Не нравятся торренты? Участники группы Pro-jazz Club могут заказать прямую ссылку на скачивание из облака.
No seeders - write a personal message to M0p94ok. Don't like torrents? Members of Pro-jazz Club group can order a direct download link from the cloud.
02:30
20
Нет комментариев. Ваш будет первым!