Поиск

(Jazz / Pop-Jazz / Neo Soul / Mainstream) Eric Gadd - The Right Way - 1997, APE (image+.cue), lossless

(Jazz / Pop-Jazz / Neo Soul / Mainstream) Eric Gadd - The Right Way - 1997, APE (image+.cue), lossless
Треклист:
Eric Gadd - The Right Way
Жанр: Jazz / Pop-Jazz / Neo Soul / Mainstream
Год выпуска диска: 1997
Производитель диска: Strawberry Music (Sweden)
Аудио кодек: APE
Тип рипа: image+.cue
Битрейт аудио: lossless
Продолжительность: 52:38
Official web-site: www.ericgadd.com
Трэклист:
1. My Personality (3:48)
2. Everybody's Buisness (3:58)
3. Summer Is Here (3:12)
4. The Right Way (3:51)
5. I Found Someone (3:22)
6. On My Way (3:32)
7. Till The Night Is Gone (3:49)
8. Romeo (3:47)
9. Keeper Of The Garden (4:04)
10. You're Mine (4:01)
11. Saint In The Parrish (3:04)
12. Come Over Here Sugar! (4:19)
13. Look At Me Now (3:25)
14. Someone Who Cares (4:26)
 
Отчёт EAC
Exact Audio Copy V0.99 prebeta 4 from 23. January 2008
Отчёт EAC об извлечении, выполненном 11. февраля 2010, 22:23
Eric Gadd / The Right Way
Дисковод: Optiarc DVD RW AD-7190A Adapter: 0 ID: 0
Режим чтения : Достоверность
Использование точного потока : Да
Отключение кэша аудио : Да
Использование указателей C2 : Нет
Коррекция смещения при чтении : 6
Способность читать области Lead-in и Lead-out : Нет
Заполнение пропущенных сэмплов тишиной : Да
Удаление блоков с тишиной в начале и конце : Нет
При вычислениях CRC использовались нулевые сэмплы : Да
Интерфейс : Встроенный Win32-интерфейс для Win NT/2000
Выходной формат : Внутренние WAV-операции
Формат сэмплов : 44.100 Гц; 16 бит; стерео
TOC извлечённого CD
Трек | Старт | Длительность | Начальный сектор | Конечный сектор
---------------------------------------------------------------------
1 | 0:00.00 | 3:48.57 | 0 | 17156
2 | 3:48.57 | 3:57.45 | 17157 | 34976
3 | 7:46.27 | 3:11.63 | 34977 | 49364
4 | 10:58.15 | 3:50.67 | 49365 | 66681
5 | 14:49.07 | 3:22.65 | 66682 | 81896
6 | 18:11.72 | 3:31.10 | 81897 | 97731
7 | 21:43.07 | 3:51.10 | 97732 | 115066
8 | 25:34.17 | 3:48.13 | 115067 | 132179
9 | 29:22.30 | 4:04.22 | 132180 | 150501
10 | 33:26.52 | 4:01.30 | 150502 | 168606
11 | 37:28.07 | 3:05.73 | 168607 | 182554
12 | 40:34.05 | 4:19.29 | 182555 | 202008
13 | 44:53.34 | 3:26.51 | 202009 | 217509
14 | 48:20.10 | 4:26.62 | 217510 | 237521
Характеристики диапазона извлечения и сообщения об ошибках
Выбранный диапазон
Имя файла F:\Аудио Lossless\Eric Gadd\Eric Gadd - The Right Way (1997)\Eric Gadd - The Right Way.wav
Пиковый уровень 99.9 %
Качество диапазона 100.0 %
CRC теста 8A57F0C7
CRC копии 8A57F0C7
Копирование... OK
Ошибок не произошло
AccurateRip: сводка
Трек 1 точное извлечение (доверие 49) [9D2B004C]
Трек 2 точное извлечение (доверие 49) [85504A9B]
Трек 3 точное извлечение (доверие 49) [7210E633]
Трек 4 точное извлечение (доверие 49) [442DF0FC]
Трек 5 точное извлечение (доверие 49) [8472A379]
Трек 6 точное извлечение (доверие 50) [E6D64D8A]
Трек 7 точное извлечение (доверие 50) [EEF71D05]
Трек 8 точное извлечение (доверие 50) [A280E849]
Трек 9 точное извлечение (доверие 50) [5FBFF2FD]
Трек 10 точное извлечение (доверие 50) [805EB32E]
Трек 11 точное извлечение (доверие 50) [7733EA61]
Трек 12 точное извлечение (доверие 50) [025AD952]
Трек 13 точное извлечение (доверие 49) [9DCB3664]
Трек 14 точное извлечение (доверие 49) [FD0558CC]
Все треки извлечены точно
Конец отчёта
Не стесняйтесь оставлять комментарии
Не забывайте говорить спасибо
Пожалуйста не уходите с раздачи
Приватный:
Нет (DHT включён)
Размер:
371.35 Мб (389,391,063 байт) » файлов: 18
Участники:
0 раздают, 0 качают (0 участников всего)
Внешние участники:
2 раздают, 1 качают (3 участников всего) [ Обновить ]
02:29
24
Нет комментариев. Ваш будет первым!