Поиск

(Funk) Johnny Guitar Watson 1977 A Real Mother For Ya (remastered 2005), FLAC (tracks+.cue), lossless

(Funk) Johnny Guitar Watson 1977 A Real Mother For Ya (remastered 2005), FLAC (tracks+.cue), lossless
Треклист:
Johnny Guitar Watson - A Real Mother For Ya (remastered 2005)
Жанр: Funk
Год выпуска альбома: 1977
Год выпуска диска: 2005
Производитель диска: USA (Shout Factory: SHFT 340592)
Аудио кодек: FLAC
Тип рипа: tracks+.cue
Битрейт аудио: lossless
Продолжительность: 42:17
Трэклист:
1. A Real Mother For Ya 5:02
2. Nothing Left To Be Desired 5:44
3. Your Love Is My Love 4:38
4. The Real Deal 4:54
5. Tarzan 4:58
6. I Wanna Thank You 6:07
7. Lover Jones 5:24
8. Kathaline (Previously Unreleased Bonus Track) 2:04
9. De John's Delight (Previously Unreleased Bonus Track) 3:08
Band:
Arranged By - Johnny Guitar Watson
Drums - Emry Thomas
Electric Piano [Fender Rhodes], Synthesizer, Guitar, Organ [Hammond], Voice [Voice Box], Vocals, Bass [Moog Bass] - Johnny Guitar Watson
Engineer - Kerry McNabb
Producer - Johnny Guitar Watson
Producer [Assistant] - Emry Thomas
Saxophone - Knud Jensen
Trombone - Tommy Robertson
Trumpet - Walt Fowler
Recorded at Paramount Recording Studios, Hollywood.
Доп. информация:
Жаль, что бонусы вставили из другой эры, 80-х, совершенно не идут к этому альбому.
Внутри сканы с диска 1996 года.
Thanks to EnsErmac for the rip.
 
Амплитуда диска
 
XLD Log
X Lossless Decoder version 20100117 (115.3)
XLD extraction logfile from 2010-01-22 15:56:54 -0500
Johnny "Guitar" Watson / A Real Mother For Ya [Bonus Tracks]
Used drive : MATSHITA DVD-R UJ-857E (revision ZF1E)
Use cdparanoia mode : YES (CDParanoia III 10.2 engine)
Disable audio cache : OK for the drive with cache less than 2750KB
Make use of C2 pointers : NO
Read offset correction : 102
Max retry count : 100
TOC of the extracted CD
Track | Start | Length | Start sector | End sector
---------------------------------------------------------
1 | 00:00:00 | 05:04:40 | 0 | 22839
2 | 05:04:40 | 05:46:40 | 22840 | 48829
3 | 10:51:05 | 04:39:60 | 48830 | 69814
4 | 15:30:65 | 04:56:05 | 69815 | 92019
5 | 20:26:70 | 05:00:20 | 92020 | 114539
6 | 25:27:15 | 06:08:72 | 114540 | 142211
7 | 31:36:12 | 05:29:53 | 142212 | 166939
8 | 37:05:65 | 02:03:60 | 166940 | 176224
9 | 39:09:50 | 03:07:45 | 176225 | 190294
Track 01
Filename : /XLD/01 - A Real Mother For Ya.flac
Pre-gap length : 00:02:00
CRC32 hash (test run) : 6065F9AD
CRC32 hash : 6065F9AD
CRC32 hash (skip zero) : 2719CB48
AccurateRip signature : 7D54C5D3
->Track not present in AccurateRip database.
Statistics
Read error : 0
Skipped (treated as error) : 0
Edge jitter error (maybe fixed) : 0
Atom jitter error (maybe fixed) : 0
Drift error (maybe fixed) : 0
Dropped bytes error (maybe fixed) : 0
Duplicated bytes error (maybe fixed) : 0
Inconsistency in error sectors : 0
Track 02
Filename : /XLD/02 - Nothing Left To Be Desired.flac
Pre-gap length : 00:02:23
CRC32 hash (test run) : FBC65CEE
CRC32 hash : FBC65CEE
CRC32 hash (skip zero) : A1BFD2B7
AccurateRip signature : FAABF0A7
->Accurately ripped! (confidence 2)
Statistics
Read error : 0
Skipped (treated as error) : 0
Edge jitter error (maybe fixed) : 0
Atom jitter error (maybe fixed) : 0
Drift error (maybe fixed) : 0
Dropped bytes error (maybe fixed) : 0
Duplicated bytes error (maybe fixed) : 0
Inconsistency in error sectors : 0
Track 03
Filename : /XLD/03 - Your Love Is My Love.flac
Pre-gap length : 00:01:43
CRC32 hash (test run) : 55BD1F3E
CRC32 hash : 55BD1F3E
CRC32 hash (skip zero) : 2EF9EB37
AccurateRip signature : 356FB26F
->Track not present in AccurateRip database.
Statistics
Read error : 0
Skipped (treated as error) : 0
Edge jitter error (maybe fixed) : 0
Atom jitter error (maybe fixed) : 0
Drift error (maybe fixed) : 0
Dropped bytes error (maybe fixed) : 0
Duplicated bytes error (maybe fixed) : 0
Inconsistency in error sectors : 0
Track 04
Filename : /XLD/04 - The Real Deal.flac
Pre-gap length : 00:01:08
CRC32 hash (test run) : 52DFEB78
CRC32 hash : 52DFEB78
CRC32 hash (skip zero) : 19231AC9
AccurateRip signature : 1C00153F
->Accurately ripped! (confidence 2)
Statistics
Read error : 0
Skipped (treated as error) : 0
Edge jitter error (maybe fixed) : 0
Atom jitter error (maybe fixed) : 0
Drift error (maybe fixed) : 0
Dropped bytes error (maybe fixed) : 0
Duplicated bytes error (maybe fixed) : 0
Inconsistency in error sectors : 0
Track 05
Filename : /XLD/05 - Tarzan.flac
Pre-gap length : 00:01:35
CRC32 hash (test run) : 4A1839B0
CRC32 hash : 4A1839B0
CRC32 hash (skip zero) : 55370866
AccurateRip signature : A4C70190
->Track not present in AccurateRip database.
Statistics
Read error : 0
Skipped (treated as error) : 0
Edge jitter error (maybe fixed) : 0
Atom jitter error (maybe fixed) : 0
Drift error (maybe fixed) : 0
Dropped bytes error (maybe fixed) : 0
Duplicated bytes error (maybe fixed) : 0
Inconsistency in error sectors : 0
Track 06
Filename : /XLD/06 - I Wanna Thank You.flac
Pre-gap length : 00:01:58
CRC32 hash (test run) : 816D3465
CRC32 hash : 816D3465
CRC32 hash (skip zero) : 08FD703E
AccurateRip signature : 6BED7CB1
->Accurately ripped! (confidence 2)
Statistics
Read error : 0
Skipped (treated as error) : 0
Edge jitter error (maybe fixed) : 0
Atom jitter error (maybe fixed) : 0
Drift error (maybe fixed) : 0
Dropped bytes error (maybe fixed) : 0
Duplicated bytes error (maybe fixed) : 0
Inconsistency in error sectors : 0
Track 07
Filename : /XLD/07 - Lover Jones.flac
Pre-gap length : 00:01:70
CRC32 hash (test run) : 9E05D0A0
CRC32 hash : 9E05D0A0
CRC32 hash (skip zero) : C2BA4915
AccurateRip signature : E66F368D
->Accurately ripped! (confidence 2)
Statistics
Read error : 0
Skipped (treated as error) : 0
Edge jitter error (maybe fixed) : 0
Atom jitter error (maybe fixed) : 0
Drift error (maybe fixed) : 0
Dropped bytes error (maybe fixed) : 0
Duplicated bytes error (maybe fixed) : 0
Inconsistency in error sectors : 0
Track 08
Filename : /XLD/08 - Kathaline.flac
Pre-gap length : 00:05:13
CRC32 hash (test run) : 6A0028B5
CRC32 hash : 6A0028B5
CRC32 hash (skip zero) : A20DDBA3
AccurateRip signature : 43F43F7B
->Track not present in AccurateRip database.
Statistics
Read error : 0
Skipped (treated as error) : 0
Edge jitter error (maybe fixed) : 0
Atom jitter error (maybe fixed) : 0
Drift error (maybe fixed) : 0
Dropped bytes error (maybe fixed) : 0
Duplicated bytes error (maybe fixed) : 0
Inconsistency in error sectors : 0
Track 09
Filename : /XLD/09 - De John's Delight.flac
Pre-gap length : 00:01:15
CRC32 hash (test run) : B984B893
CRC32 hash : B984B893
CRC32 hash (skip zero) : D9FEE339
AccurateRip signature : B1CF2BF4
->Track not present in AccurateRip database.
Statistics
Read error : 0
Skipped (treated as error) : 0
Edge jitter error (maybe fixed) : 0
Atom jitter error (maybe fixed) : 0
Drift error (maybe fixed) : 0
Dropped bytes error (maybe fixed) : 0
Duplicated bytes error (maybe fixed) : 0
Inconsistency in error sectors : 0
No errors occurred
End of status report
 
CUE
TITLE "A Real Mother For Ya [Bonus Tracks]"
PERFORMER "Johnny "Guitar" Watson"
CATALOG 0826663405927
REM GENRE "R&B"
REM DATE 1977
FILE "01 - A Real Mother For Ya.wav" WAVE
TRACK 01 AUDIO
TITLE "A Real Mother For Ya"
ISRC USSE90321541
INDEX 01 00:00:00
TRACK 02 AUDIO
TITLE "Nothing Left To Be Desired"
ISRC USSE90321542
INDEX 00 05:02:17
FILE "02 - Nothing Left To Be Desired.wav" WAVE
INDEX 01 00:00:00
TRACK 03 AUDIO
TITLE "Your Love Is My Love"
ISRC USSE90321543
INDEX 00 05:44:72
FILE "03 - Your Love Is My Love.wav" WAVE
INDEX 01 00:00:00
TRACK 04 AUDIO
TITLE "The Real Deal"
ISRC USSE90321544
INDEX 00 04:38:52
FILE "04 - The Real Deal.wav" WAVE
INDEX 01 00:00:00
TRACK 05 AUDIO
TITLE "Tarzan"
ISRC USSE90321545
INDEX 00 04:54:45
FILE "05 - Tarzan.wav" WAVE
INDEX 01 00:00:00
TRACK 06 AUDIO
TITLE "I Wanna Thank You"
ISRC USSE90321546
INDEX 00 04:58:37
FILE "06 - I Wanna Thank You.wav" WAVE
INDEX 01 00:00:00
TRACK 07 AUDIO
TITLE "Lover Jones"
ISRC USSE90321547
INDEX 00 06:07:02
FILE "07 - Lover Jones.wav" WAVE
INDEX 01 00:00:00
TRACK 08 AUDIO
TITLE "Kathaline"
ISRC USSE90321548
INDEX 00 05:24:40
FILE "08 - Kathaline.wav" WAVE
INDEX 01 00:00:00
TRACK 09 AUDIO
TITLE "De John's Delight"
ISRC USSE90321549
INDEX 00 02:02:45
FILE "09 - De John's Delight.wav" WAVE
INDEX 01 00:00:00
 
AccurateRip Log
[Verification date: 14.02.2010 2:21:01]
[Disc ID: 000f9ee5-0071819e-7709e909]
Track [ CRC ] Status
01 [7d54c5d3] (02/02) Accurately ripped as in pressing(s) #1
02 [faabf0a7] (03/03) Accurately ripped as in pressing(s) #1
03 [356fb26f] (02/02) Accurately ripped as in pressing(s) #1
04 [1c00153f] (03/03) Accurately ripped as in pressing(s) #1
05 [a4c70190] (02/02) Accurately ripped as in pressing(s) #1
06 [6bed7cb1] (03/03) Accurately ripped as in pressing(s) #1
07 [e66f368d] (03/03) Accurately ripped as in pressing(s) #1
08 [43f43f7b] (02/02) Accurately ripped as in pressing(s) #1
09 [b1cf2bf4] (02/02) Accurately ripped as in pressing(s) #1
Track [ CRC32 ] [W/O NULL]
-- [CC8036F8] [AA1AEC32]
01 [6065F9AD] [2719CB48]
02 [FBC65CEE] [A1BFD2B7]
03 [55BD1F3E] [2EF9EB37]
04 [52DFEB78] [19231AC9]
05 [4A1839B0] [55370866]
06 [816D3465] [08FD703E]
07 [9E05D0A0] [C2BA4915]
08 [6A0028B5] [A20DDBA3]
09 [B984B893] [D9FEE339]

Другие альбомы:
1976 Ain't That a Bitch (remastered 1996)
1977 A Real Mother For Ya (remastered 2005)
1981 The Very Best of JGW
2006 Music Hall In Concert DVD5
Приватный:
Нет (DHT включён)
Размер:
276.55 Мб (289,985,468 байт) » файлов: 17
Участники:
0 раздают, 0 качают (0 участников всего)
Внешние участники:
5 раздают, 1 качают (6 участников всего) [ Обновить ]
Нет сидеров - пишите личное сообщение M0p94ok. Не нравятся торренты? Участники группы Pro-jazz Club могут заказать прямую ссылку на скачивание из облака.
No seeders - write a personal message to M0p94ok. Don't like torrents? Members of Pro-jazz Club group can order a direct download link from the cloud.
02:30
26
Нет комментариев. Ваш будет первым!