Поиск

(French Funk) Sinclair - LIVE2002 (Live 2002 a l'Olympia), 2CD - 2003, WAVPack (image+.cue), lossless

(French Funk) Sinclair - LIVE2002 (Live 2002 a l'Olympia), 2CD - 2003, WAVPack (image+.cue), lossless
Треклист:
Sinclair - LIVE2002, 2CD
Жанр: Funk
Год выпуска диска: 2003
Производитель диска: Ministrong - EMI France
Аудио кодек: WAVPack
Тип рипа: image+.cue
Битрейт аудио: lossless
Продолжительность: 95:13
Трэклист:
Disque 1 - Soft
1. Intro 2002
2. Sur Le Vif
3. Le Fou
4. Supernova Superstar
5. L'Ame Legere
6. Quand La Musique Pleure
7. Dis Moi Que Tu
8. Un Jour
9. Montre Moi
10. Votre Image
11. L'Epreuve Du Temps
Disque 2 - Wet
1. Ca M'Fait Plus Mal
2. Si C'Est Bon Comme Ca
3. Quelques Minutes
4. A La Vitesse Du Soleil
5. Hurricane
6. Qu'Est-Ce Qui Me Pousse
7. Mon Idole
8. Si J'Etais En Manque
9. Ensemble
Доп. информация:
Матьe Блан-Франкар, aka Sinclair (не путать с Бобом) - французский фанк-исполнитель, композитор, аранжировщик, обладатель одной из премий Victoires de la Musique, его "Supernova Superstar" - "Лучший поп-альбом года" во Франции. Двойной альбом записан в парижском концертном зале Olympia 9-10 июля 2002 года. Рип с собственных дисков.
 
Отчёт EAC, CD1
Exact Audio Copy V0.99 prebeta 5 from 4. May 2009
Отчёт EAC об извлечении, выполненном 1. сентября 2010, 17:46
Sinclair / Live2002 - CD1 (Soft)
Дисковод: TSSTcorpDVD+-RW TS-H653F Adapter: 3 ID: 0
Режим чтения : Достоверность
Использование точного потока : Да
Отключение кэша аудио : Да
Использование указателей C2 : Нет
Коррекция смещения при чтении : 6
Способность читать области Lead-in и Lead-out : Нет
Заполнение пропущенных сэмплов тишиной : Да
Удаление блоков с тишиной в начале и конце : Нет
При вычислениях CRC использовались нулевые сэмплы : Да
Интерфейс : Встроенный Win32-интерфейс для Win NT/2000
Выходной формат : Пользовательский кодировщик
Выбранный битрейт : 1024 kBit/s
Качество : Высокий
Добавление ID3-тэга : Нет
Утилита сжатия : C:\Users\Default\Desktop\wavpack.exe
Дополнительные параметры : -w "Artist=%a" -w "Title=%t" -w "Album=%g" -w "Year=%y" -w "Track=%n" -w "Genre=%m" -h %s %d
TOC извлечённого CD
Трек | Старт | Длительность | Начальный сектор | Конечный сектор
---------------------------------------------------------------------
1 | 0:00.00 | 0:49.50 | 0 | 3724
2 | 0:49.50 | 3:46.55 | 3725 | 20729
3 | 4:36.30 | 2:33.62 | 20730 | 32266
4 | 7:10.17 | 6:55.45 | 32267 | 63436
5 | 14:05.62 | 3:58.70 | 63437 | 81356
6 | 18:04.57 | 3:33.60 | 81357 | 97391
7 | 21:38.42 | 4:50.35 | 97392 | 119176
8 | 26:29.02 | 4:19.43 | 119177 | 138644
9 | 30:48.45 | 4:04.12 | 138645 | 156956
10 | 34:52.57 | 3:59.15 | 156957 | 174896
11 | 38:51.72 | 4:03.15 | 174897 | 193136
12 | 45:27.12 | 28:30.63 | 204537 | 332849
Характеристики диапазона извлечения и сообщения об ошибках
Выбранный диапазон
Имя файла C:\Users\Администратор\Desktop\Sinclair - Live2002 - CD1 (Soft).wav
Пиковый уровень 100.0 %
Качество диапазона 99.9 %
CRC теста BA493460
CRC копии BA493460
Копирование... OK
Ошибок не произошло
AccurateRip: сводка
Трек 1 нет в базе данных
Трек 2 нет в базе данных
Трек 3 нет в базе данных
Трек 4 нет в базе данных
Трек 5 нет в базе данных
Трек 6 нет в базе данных
Трек 7 нет в базе данных
Трек 8 нет в базе данных
Трек 9 нет в базе данных
Трек 10 нет в базе данных
Трек 11 нет в базе данных
Ни одного трека нет в базе AccurateRip
Конец отчёта
 
Отчёт EAC, CD2
Exact Audio Copy V0.99 prebeta 5 from 4. May 2009
Отчёт EAC об извлечении, выполненном 1. сентября 2010, 18:17
Sinclair / Live2002 - CD2 (Wet)
Дисковод: TSSTcorpDVD+-RW TS-H653F Adapter: 3 ID: 0
Режим чтения : Достоверность
Использование точного потока : Да
Отключение кэша аудио : Да
Использование указателей C2 : Нет
Коррекция смещения при чтении : 6
Способность читать области Lead-in и Lead-out : Нет
Заполнение пропущенных сэмплов тишиной : Да
Удаление блоков с тишиной в начале и конце : Нет
При вычислениях CRC использовались нулевые сэмплы : Да
Интерфейс : Встроенный Win32-интерфейс для Win NT/2000
Выходной формат : Пользовательский кодировщик
Выбранный битрейт : 1024 kBit/s
Качество : Высокий
Добавление ID3-тэга : Нет
Утилита сжатия : C:\Users\Default\Desktop\wavpack.exe
Дополнительные параметры : -w "Artist=%a" -w "Title=%t" -w "Album=%g" -w "Year=%y" -w "Track=%n" -w "Genre=%m" -h %s %d
TOC извлечённого CD
Трек | Старт | Длительность | Начальный сектор | Конечный сектор
---------------------------------------------------------------------
1 | 0:00.00 | 5:20.67 | 0 | 24066
2 | 5:20.67 | 8:30.28 | 24067 | 62344
3 | 13:51.20 | 5:40.57 | 62345 | 87901
4 | 19:32.02 | 3:53.05 | 87902 | 105381
5 | 23:25.07 | 5:45.15 | 105382 | 131271
6 | 29:10.22 | 4:36.10 | 131272 | 151981
7 | 33:46.32 | 4:15.33 | 151982 | 171139
8 | 38:01.65 | 8:17.70 | 171140 | 208484
9 | 46:19.60 | 5:59.70 | 208485 | 235479
10 | 54:51.55 | 19:06.20 | 246880 | 332849
Характеристики диапазона извлечения и сообщения об ошибках
Выбранный диапазон
Имя файла C:\Users\Администратор\Desktop\Sinclair - Live2002 - CD2 (Wet).wav
Пиковый уровень 100.0 %
Качество диапазона 99.9 %
CRC теста C4DBBC94
CRC копии C4DBBC94
Копирование... OK
Ошибок не произошло
AccurateRip: сводка
Трек 1 нет в базе данных
Трек 2 нет в базе данных
Трек 3 нет в базе данных
Трек 4 нет в базе данных
Трек 5 нет в базе данных
Трек 6 нет в базе данных
Трек 7 нет в базе данных
Трек 8 нет в базе данных
Трек 9 нет в базе данных
Ни одного трека нет в базе AccurateRip
Конец отчёта
Приватный:
Нет (DHT включён)
Размер:
662.81 Мб (695,003,783 байт) » файлов: 14
Участники:
0 раздают, 0 качают (0 участников всего)
Внешние участники:
2 раздают, 1 качают (3 участников всего) [ Обновить ]
Нет сидеров - пишите личное сообщение M0p94ok. Не нравятся торренты? Участники группы Pro-jazz Club могут заказать прямую ссылку на скачивание из облака.
No seeders - write a personal message to M0p94ok. Don't like torrents? Members of Pro-jazz Club group can order a direct download link from the cloud.
02:31
28
Нет комментариев. Ваш будет первым!