Поиск

(R&B/Soul/Psychedelic Rock) [2CD] The Rascals - The Rascals: Anthology 1965-1972, FLAC (tracks+.cue), lossless

(R&B/Soul/Psychedelic Rock) [2CD] The Rascals - The Rascals: Anthology 1965-1972, FLAC (tracks+.cue), lossless
Треклист:
The Rascals / The Rascals: Anthology 1965-1972
Жанр: R&B/Soul/Psychedelic Rock
Носитель: CD
Страна-производитель диска (релиза): Germany
Год издания: 1992
Издатель (лейбл): Rhino Records
Номер по каталогу: 8122-71077-2
Страна исполнителя (группы): USA
Аудиокодек: FLAC (*.flac)
Тип рипа: tracks+.cue
Битрейт аудио: lossless
Продолжительность: 1:11:17+0:50:25
Источник (релизер): рип от hill0
Наличие сканов в содержимом раздачи: да
 
CD1 (1:11:17)
01 I Ain't Gonna Eat Out My Heart Anymore
02 Good Lovin'
03 Do You Feel It
04 Mustang Sally
05 Baby Let's Wait
06 In The Midnight Hour
07 You Better Run
08 What Is The Reason
09 I've Been Lonely Too Long
10 Come On Up
11 Too Many Fish In The Sea
12 Love Is A Beautiful Thing
13 Groovin'
14 A Girl Like You
15 Find Somebody
16 How Can I Be Sure
17 If You Knew
18 I'm So Happy Now
19 Easy Rollin'
20 Rainy Day
21 It's Wonderful
22 Silly Girl
23 Finale : Once Upon A Dream
24 A Beautiful Morning
 
Лог создания рипа
Exact Audio Copy V0.99 prebeta 5 from 4. May 2009
Archivo Log de extracciones desde 2. Septiembre 2010, 11:34
The Rascals / Anthology (disc 1)
Usar unidad : Optiarc DVD RW AD-7241S Adapter: 1 ID: 2
Modo de Lectura : Seguro
Utilizar Corriente Exacta : Sн
Descartar Audio cachй : Sн
Utilizar los punteros C2 : No
Correcciуn de Desplazamiento de Lectura : 48
Sobreleer tanto en Lead-In como en Lead-Out : No
Rellenar las muestras faltantes con silencios : Sн
Eliminar silencios inicial y final : No
Se han usado muestras nulas en los cбlculos CRC : Sн
Interfaz usada : Interfaz propio de Win32 para Windowns NT y 2000
Gestiуn de Gaps : Aсadido a la pista previa
Formato de Salida utilizado : Compresor definido por el usuario
Bitrate seleccionado : 1024 kBit/s
Calidad : Alta
Aсadir Etiqueta ID3 : No
Compresor de linea de comandos : C:\Archivos de programa\Exact Audio Copy\Flac\flac.exe
Opciones adicionales en lнnea de comandos : -0 -T "artist=%a" -T "title=%t" -T "album=%g" -T "date=%y" -T "tracknumber=%n" -T "genre=%m" %s
TOC del CD extraido
Pista | Inicio | Duraciуn | Sector inicial | Sector final
-------------------------------------------------------------
1 | 0:00.00 | 2:47.55 | 0 | 12579
2 | 2:47.55 | 2:32.73 | 12580 | 24052
3 | 5:20.53 | 3:24.60 | 24053 | 39412
4 | 8:45.38 | 3:22.40 | 39413 | 54602
5 | 12:08.03 | 3:24.27 | 54603 | 69929
6 | 15:32.30 | 4:05.43 | 69930 | 88347
7 | 19:37.73 | 2:28.70 | 88348 | 99517
8 | 22:06.68 | 2:26.50 | 99518 | 110517
9 | 24:33.43 | 2:07.60 | 110518 | 120102
10 | 26:41.28 | 2:45.05 | 120103 | 132482
11 | 29:26.33 | 2:19.22 | 132483 | 142929
12 | 31:45.55 | 2:34.23 | 142930 | 154502
13 | 34:20.03 | 2:31.05 | 154503 | 165832
14 | 36:51.08 | 2:48.40 | 165833 | 178472
15 | 39:39.48 | 3:42.67 | 178473 | 195189
16 | 43:22.40 | 2:55.25 | 195190 | 208339
17 | 46:17.65 | 3:07.38 | 208340 | 222402
18 | 49:25.28 | 2:50.35 | 222403 | 235187
19 | 52:15.63 | 2:55.25 | 235188 | 248337
20 | 55:11.13 | 3:29.15 | 248338 | 264027
21 | 58:40.28 | 3:24.35 | 264028 | 279362
22 | 62:04.63 | 2:44.17 | 279363 | 291679
23 | 64:49.05 | 3:53.50 | 291680 | 309204
24 | 68:42.55 | 2:34.45 | 309205 | 320799
Pista 1
Nombre de Archivo O:\The Rascals -Anthology\The Rascals\Anthology (disc 1)\01 I Ain't Gonna Eat Out My Heart Anymore .wav
Longitud Pre-gap 0:00:02.00
Nivel Pico 100.0 %
Calidad de Pista 100.0 %
Copiar CRC A6F1214F
Pista no presente en la base de datos AccurateRip
Copia OK
Pista 2
Nombre de Archivo O:\The Rascals -Anthology\The Rascals\Anthology (disc 1)\02 Good Lovin' .wav
Longitud Pre-gap 0:00:01.65
Nivel Pico 97.2 %
Calidad de Pista 100.0 %
Copiar CRC 103D2342
Pista no presente en la base de datos AccurateRip
Copia OK
Pista 3
Nombre de Archivo O:\The Rascals -Anthology\The Rascals\Anthology (disc 1)\03 Do You Feel It .wav
Longitud Pre-gap 0:00:01.68
Nivel Pico 89.4 %
Calidad de Pista 100.0 %
Copiar CRC 5A62802F
Pista no presente en la base de datos AccurateRip
Copia OK
Pista 4
Nombre de Archivo O:\The Rascals -Anthology\The Rascals\Anthology (disc 1)\04 Mustang Sally .wav
Longitud Pre-gap 0:00:02.08
Nivel Pico 96.3 %
Calidad de Pista 100.0 %
Copiar CRC D6D9D688
Pista no presente en la base de datos AccurateRip
Copia OK
Pista 5
Nombre de Archivo O:\The Rascals -Anthology\The Rascals\Anthology (disc 1)\05 Baby Let's Wait .wav
Longitud Pre-gap 0:00:01.13
Nivel Pico 77.5 %
Calidad de Pista 100.0 %
Copiar CRC F3DE95AF
Pista no presente en la base de datos AccurateRip
Copia OK
Pista 6
Nombre de Archivo O:\The Rascals -Anthology\The Rascals\Anthology (disc 1)\06 In the Midnight Hour .wav
Longitud Pre-gap 0:00:02.10
Nivel Pico 99.6 %
Calidad de Pista 100.0 %
Copiar CRC 96962CB8
Pista no presente en la base de datos AccurateRip
Copia OK
Pista 7
Nombre de Archivo O:\The Rascals -Anthology\The Rascals\Anthology (disc 1)\07 You Better Run .wav
Longitud Pre-gap 0:00:02.18
Nivel Pico 96.0 %
Calidad de Pista 100.0 %
Copiar CRC C4509FC7
Pista no presente en la base de datos AccurateRip
Copia OK
Pista 8
Nombre de Archivo O:\The Rascals -Anthology\The Rascals\Anthology (disc 1)\08 What Is the Reason .wav
Longitud Pre-gap 0:00:01.45
Nivel Pico 94.8 %
Calidad de Pista 100.0 %
Copiar CRC 60AAF699
Pista no presente en la base de datos AccurateRip
Copia OK
Pista 9
Nombre de Archivo O:\The Rascals -Anthology\The Rascals\Anthology (disc 1)\09 I've Been Lonely Too Long .wav
Longitud Pre-gap 0:00:02.05
Nivel Pico 95.0 %
Calidad de Pista 100.0 %
Copiar CRC 6433FA5B
Pista no presente en la base de datos AccurateRip
Copia OK
Pista 10
Nombre de Archivo O:\The Rascals -Anthology\The Rascals\Anthology (disc 1)\10 Come on Up .wav
Longitud Pre-gap 0:00:02.23
Nivel Pico 93.9 %
Calidad de Pista 100.0 %
Copiar CRC 5E7D9F67
Pista no presente en la base de datos AccurateRip
Copia OK
Pista 11
Nombre de Archivo O:\The Rascals -Anthology\The Rascals\Anthology (disc 1)\11 Too Many Fish in the Sea .wav
Longitud Pre-gap 0:00:01.50
Nivel Pico 99.9 %
Calidad de Pista 100.0 %
Copiar CRC 9C6B8742
Pista no presente en la base de datos AccurateRip
Copia OK
Pista 12
Nombre de Archivo O:\The Rascals -Anthology\The Rascals\Anthology (disc 1)\12 Love Is a Beautiful Thing .wav
Longitud Pre-gap 0:00:01.12
Nivel Pico 100.0 %
Calidad de Pista 100.0 %
Copiar CRC 5390ACD6
Pista no presente en la base de datos AccurateRip
Copia OK
Pista 13
Nombre de Archivo O:\The Rascals -Anthology\The Rascals\Anthology (disc 1)\13 Groovin' .wav
Longitud Pre-gap 0:00:01.48
Nivel Pico 84.1 %
Calidad de Pista 99.9 %
Copiar CRC 1007146C
Pista no presente en la base de datos AccurateRip
Copia OK
Pista 14
Nombre de Archivo O:\The Rascals -Anthology\The Rascals\Anthology (disc 1)\14 A Girl Like You .wav
Longitud Pre-gap 0:00:02.23
Nivel Pico 90.9 %
Calidad de Pista 100.0 %
Copiar CRC C0429BD7
Pista no presente en la base de datos AccurateRip
Copia OK
Pista 15
Nombre de Archivo O:\The Rascals -Anthology\The Rascals\Anthology (disc 1)\15 Find Somebody .wav
Longitud Pre-gap 0:00:01.38
Nivel Pico 85.2 %
Calidad de Pista 100.0 %
Copiar CRC D0525287
Pista no presente en la base de datos AccurateRip
Copia OK
Pista 16
Nombre de Archivo O:\The Rascals -Anthology\The Rascals\Anthology (disc 1)\16 How Can I Be Sure .wav
Longitud Pre-gap 0:00:02.25
Nivel Pico 100.0 %
Calidad de Pista 99.9 %
Copiar CRC AAB4F0DF
Pista no presente en la base de datos AccurateRip
Copia OK
Pista 17
Nombre de Archivo O:\The Rascals -Anthology\The Rascals\Anthology (disc 1)\17 If You Knew .wav
Longitud Pre-gap 0:00:02.12
Nivel Pico 84.9 %
Calidad de Pista 100.0 %
Copiar CRC 072E5B67
Pista no presente en la base de datos AccurateRip
Copia OK
Pista 18
Nombre de Archivo O:\The Rascals -Anthology\The Rascals\Anthology (disc 1)\18 I'm So Happy Now .wav
Longitud Pre-gap 0:00:01.53
Nivel Pico 100.0 %
Calidad de Pista 100.0 %
Copiar CRC 021027AD
Pista no presente en la base de datos AccurateRip
Copia OK
Pista 19
Nombre de Archivo O:\The Rascals -Anthology\The Rascals\Anthology (disc 1)\19 Easy Rollin' .wav
Longitud Pre-gap 0:00:02.20
Nivel Pico 85.6 %
Calidad de Pista 99.9 %
Copiar CRC 3057AEFC
Pista no presente en la base de datos AccurateRip
Copia OK
Pista 20
Nombre de Archivo O:\The Rascals -Anthology\The Rascals\Anthology (disc 1)\20 Rainy Day .wav
Longitud Pre-gap 0:00:02.23
Nivel Pico 89.7 %
Calidad de Pista 99.9 %
Copiar CRC 30F4C83B
Pista no presente en la base de datos AccurateRip
Copia OK
Pista 21
Nombre de Archivo O:\The Rascals -Anthology\The Rascals\Anthology (disc 1)\21 It's Wonderful .wav
Longitud Pre-gap 0:00:02.23
Nivel Pico 98.0 %
Calidad de Pista 100.0 %
Copiar CRC F0DFAA25
Pista no presente en la base de datos AccurateRip
Copia OK
Pista 22
Nombre de Archivo O:\The Rascals -Anthology\The Rascals\Anthology (disc 1)\22 Silly Girl .wav
Longitud Pre-gap 0:00:02.45
Nivel Pico 81.8 %
Calidad de Pista 100.0 %
Copiar CRC A19D8A6D
Pista no presente en la base de datos AccurateRip
Copia OK
Pista 23
Nombre de Archivo O:\The Rascals -Anthology\The Rascals\Anthology (disc 1)\23 Finale~Once Upon a Dream .wav
Longitud Pre-gap 0:00:01.70
Nivel Pico 95.2 %
Calidad de Pista 100.0 %
Copiar CRC F96A7B06
Pista no presente en la base de datos AccurateRip
Copia OK
Pista 24
Nombre de Archivo O:\The Rascals -Anthology\The Rascals\Anthology (disc 1)\24 A Beautiful Morning .wav
Longitud Pre-gap 0:00:01.45
Nivel Pico 86.2 %
Calidad de Pista 100.0 %
Copiar CRC 650541D1
Pista no presente en la base de datos AccurateRip
Copia OK
Ninguna de las pistas estб presente en la base de datos AccurateRip
Sin Errores
Final del Informe
 
Содержание индексной карты (.CUE)
;
;--[ Created by Medieval CUE Splitter! ]--
;
;-----------[ www.medieval.it ]-----------
;
REM GENRE "Top 40"
REM DATE 1992
REM DISCID 5710B518
REM COMMENT "ExactAudioCopy v0.99pb5"
TITLE "Anthology (Disc 1)"
PERFORMER "The Rascals"
FILE "01 I Ain't Gonna Eat Out My Heart Anymore.flac" WAVE
TRACK 01 AUDIO
TITLE "I Ain't Gonna Eat Out My Heart Anymore"
PERFORMER "The Rascals"
INDEX 01 00:00:00
FILE "02 Good Lovin'.flac" WAVE
TRACK 02 AUDIO
TITLE "Good Lovin'"
PERFORMER "The Rascals"
INDEX 00 00:00:00
INDEX 01 00:01:65
FILE "03 Do You Feel It.flac" WAVE
TRACK 03 AUDIO
TITLE "Do You Feel It"
PERFORMER "The Rascals"
INDEX 00 00:00:00
INDEX 01 00:01:68
FILE "04 Mustang Sally.flac" WAVE
TRACK 04 AUDIO
TITLE "Mustang Sally"
PERFORMER "The Rascals"
INDEX 00 00:00:00
INDEX 01 00:02:08
FILE "05 Baby Let's Wait.flac" WAVE
TRACK 05 AUDIO
TITLE "Baby Let's Wait"
PERFORMER "The Rascals"
INDEX 00 00:00:00
INDEX 01 00:01:13
FILE "06 In The Midnight Hour.flac" WAVE
TRACK 06 AUDIO
TITLE "In The Midnight Hour"
PERFORMER "The Rascals"
INDEX 00 00:00:00
INDEX 01 00:02:10
FILE "07 You Better Run.flac" WAVE
TRACK 07 AUDIO
TITLE "You Better Run"
PERFORMER "The Rascals"
INDEX 00 00:00:00
INDEX 01 00:02:18
FILE "08 What Is The Reason.flac" WAVE
TRACK 08 AUDIO
TITLE "What Is The Reason"
PERFORMER "The Rascals"
INDEX 00 00:00:00
INDEX 01 00:01:45
FILE "09 I've Been Lonely Too Long.flac" WAVE
TRACK 09 AUDIO
TITLE "I've Been Lonely Too Long"
PERFORMER "The Rascals"
INDEX 00 00:00:00
INDEX 01 00:02:05
FILE "10 Come On Up.flac" WAVE
TRACK 10 AUDIO
TITLE "Come On Up"
PERFORMER "The Rascals"
INDEX 00 00:00:00
INDEX 01 00:02:23
FILE "11 Too Many Fish In The Sea.flac" WAVE
TRACK 11 AUDIO
TITLE "Too Many Fish In The Sea"
PERFORMER "The Rascals"
INDEX 00 00:00:00
INDEX 01 00:01:50
FILE "12 Love Is A Beautiful Thing.flac" WAVE
TRACK 12 AUDIO
TITLE "Love Is A Beautiful Thing"
PERFORMER "The Rascals"
INDEX 00 00:00:00
INDEX 01 00:01:12
FILE "13 Groovin'.flac" WAVE
TRACK 13 AUDIO
TITLE Groovin'
PERFORMER "The Rascals"
INDEX 00 00:00:00
INDEX 01 00:01:48
FILE "14 A Girl Like You.flac" WAVE
TRACK 14 AUDIO
TITLE "A Girl Like You"
PERFORMER "The Rascals"
INDEX 00 00:00:00
INDEX 01 00:02:23
FILE "15 Find Somebody.flac" WAVE
TRACK 15 AUDIO
TITLE "Find Somebody"
PERFORMER "The Rascals"
INDEX 00 00:00:00
INDEX 01 00:01:38
FILE "16 How Can I Be Sure.flac" WAVE
TRACK 16 AUDIO
TITLE "How Can I Be Sure"
PERFORMER "The Rascals"
INDEX 00 00:00:00
INDEX 01 00:02:25
FILE "17 If You Knew.flac" WAVE
TRACK 17 AUDIO
TITLE "If You Knew"
PERFORMER "The Rascals"
INDEX 00 00:00:00
INDEX 01 00:02:12
FILE "18 I'm So Happy Now.flac" WAVE
TRACK 18 AUDIO
TITLE "I'm So Happy Now"
PERFORMER "The Rascals"
INDEX 00 00:00:00
INDEX 01 00:01:53
FILE "19 Easy Rollin'.flac" WAVE
TRACK 19 AUDIO
TITLE "Easy Rollin'"
PERFORMER "The Rascals"
INDEX 00 00:00:00
INDEX 01 00:02:20
FILE "20 Rainy Day.flac" WAVE
TRACK 20 AUDIO
TITLE "Rainy Day"
PERFORMER "The Rascals"
INDEX 00 00:00:00
INDEX 01 00:02:23
FILE "21 It's Wonderful.flac" WAVE
TRACK 21 AUDIO
TITLE "It's Wonderful"
PERFORMER "The Rascals"
INDEX 00 00:00:00
INDEX 01 00:02:23
FILE "22 Silly Girl.flac" WAVE
TRACK 22 AUDIO
TITLE "Silly Girl"
PERFORMER "The Rascals"
INDEX 00 00:00:00
INDEX 01 00:02:45
FILE "23 Finale - Once Upon A Dream.flac" WAVE
TRACK 23 AUDIO
TITLE "Finale~Once Upon A Dream"
PERFORMER "The Rascals"
INDEX 00 00:00:00
INDEX 01 00:01:70
FILE "24 A Beautiful Morning.flac" WAVE
TRACK 24 AUDIO
TITLE "A Beautiful Morning"
PERFORMER "The Rascals"
INDEX 00 00:00:00
INDEX 01 00:01:45
 
CD2 (0:50:25)
01 People Got To Be Free
02 Island Of Love
03 Look Around
04 A Ray Of Hope
05 Heaven
06 See
07 I'd Like To Take You Home
08 Temptation's 'Bout To Get Me
09 Nubia
10 Real Thing
11 Carry Me Back
12 Right On
13 Ready For Love
14 I Believe
15 Glory Glory
 
Лог создания рипа
Exact Audio Copy V0.99 prebeta 5 from 4. May 2009
Archivo Log de extracciones desde 2. Septiembre 2010, 12:04
The Rascals / Anthology (disc 2)
Usar unidad : Optiarc DVD RW AD-7241S Adapter: 1 ID: 2
Modo de Lectura : Seguro
Utilizar Corriente Exacta : Sн
Descartar Audio cachй : Sн
Utilizar los punteros C2 : No
Correcciуn de Desplazamiento de Lectura : 48
Sobreleer tanto en Lead-In como en Lead-Out : No
Rellenar las muestras faltantes con silencios : Sн
Eliminar silencios inicial y final : No
Se han usado muestras nulas en los cбlculos CRC : Sн
Interfaz usada : Interfaz propio de Win32 para Windowns NT y 2000
Gestiуn de Gaps : Aсadido a la pista previa
Formato de Salida utilizado : Compresor definido por el usuario
Bitrate seleccionado : 1024 kBit/s
Calidad : Alta
Aсadir Etiqueta ID3 : No
Compresor de linea de comandos : C:\Archivos de programa\Exact Audio Copy\Flac\flac.exe
Opciones adicionales en lнnea de comandos : -0 -T "artist=%a" -T "title=%t" -T "album=%g" -T "date=%y" -T "tracknumber=%n" -T "genre=%m" %s
TOC del CD extraido
Pista | Inicio | Duraciуn | Sector inicial | Sector final
-------------------------------------------------------------
1 | 0:00.00 | 3:02.20 | 0 | 13669
2 | 3:02.20 | 2:23.40 | 13670 | 24434
3 | 5:25.60 | 3:02.72 | 24435 | 38156
4 | 8:28.57 | 3:43.45 | 38157 | 54926
5 | 12:12.27 | 3:24.30 | 54927 | 70256
6 | 15:36.57 | 4:48.38 | 70257 | 91894
7 | 20:25.20 | 2:37.50 | 91895 | 103719
8 | 23:02.70 | 3:31.35 | 103720 | 119579
9 | 26:34.30 | 3:44.37 | 119580 | 136416
10 | 30:18.67 | 2:45.53 | 136417 | 148844
11 | 33:04.45 | 2:52.60 | 148845 | 161804
12 | 35:57.30 | 3:48.60 | 161805 | 178964
13 | 39:46.15 | 3:09.07 | 178965 | 193146
14 | 42:55.22 | 3:58.48 | 193147 | 211044
15 | 46:53.70 | 3:30.60 | 211045 | 226854
Pista 1
Nombre de Archivo O:\The Rascals -Anthology\The Rascals\Anthology (disc 2)\01 People Got to Be Free .wav
Longitud Pre-gap 0:00:02.00
Nivel Pico 100.0 %
Calidad de Pista 99.9 %
Copiar CRC B377BA37
Pista no presente en la base de datos AccurateRip
Copia OK
Pista 2
Nombre de Archivo O:\The Rascals -Anthology\The Rascals\Anthology (disc 2)\02 Island of Love .wav
Longitud Pre-gap 0:00:02.45
Nivel Pico 95.7 %
Calidad de Pista 100.0 %
Copiar CRC B67E9F6C
Pista no presente en la base de datos AccurateRip
Copia OK
Pista 3
Nombre de Archivo O:\The Rascals -Anthology\The Rascals\Anthology (disc 2)\03 Look Around .wav
Longitud Pre-gap 0:00:01.03
Nivel Pico 87.1 %
Calidad de Pista 99.9 %
Copiar CRC 00E5A266
Pista no presente en la base de datos AccurateRip
Copia OK
Pista 4
Nombre de Archivo O:\The Rascals -Anthology\The Rascals\Anthology (disc 2)\04 A Ray of Hope .wav
Longitud Pre-gap 0:00:01.40
Nivel Pico 84.4 %
Calidad de Pista 100.0 %
Copiar CRC 4B48B3C1
Pista no presente en la base de datos AccurateRip
Copia OK
Pista 5
Nombre de Archivo O:\The Rascals -Anthology\The Rascals\Anthology (disc 2)\05 Heaven .wav
Longitud Pre-gap 0:00:01.40
Nivel Pico 92.4 %
Calidad de Pista 100.0 %
Copiar CRC 6A473528
Pista no presente en la base de datos AccurateRip
Copia OK
Pista 6
Nombre de Archivo O:\The Rascals -Anthology\The Rascals\Anthology (disc 2)\06 See .wav
Longitud Pre-gap 0:00:02.10
Nivel Pico 100.0 %
Calidad de Pista 100.0 %
Copiar CRC 45F65EF0
Pista no presente en la base de datos AccurateRip
Copia OK
Pista 7
Nombre de Archivo O:\The Rascals -Anthology\The Rascals\Anthology (disc 2)\07 I'd Like to Take You Home .wav
Longitud Pre-gap 0:00:04.18
Nivel Pico 100.0 %
Calidad de Pista 100.0 %
Copiar CRC C583EEDA
Pista no presente en la base de datos AccurateRip
Copia OK
Pista 8
Nombre de Archivo O:\The Rascals -Anthology\The Rascals\Anthology (disc 2)\08 Temptation's 'Bout to Get Me .wav
Longitud Pre-gap 0:00:01.38
Nivel Pico 100.0 %
Calidad de Pista 100.0 %
Copiar CRC B63C856D
Pista no presente en la base de datos AccurateRip
Copia OK
Pista 9
Nombre de Archivo O:\The Rascals -Anthology\The Rascals\Anthology (disc 2)\09 Nubia .wav
Longitud Pre-gap 0:00:02.05
Nivel Pico 99.8 %
Calidad de Pista 100.0 %
Copiar CRC 22E1F245
Pista no presente en la base de datos AccurateRip
Copia OK
Pista 10
Nombre de Archivo O:\The Rascals -Anthology\The Rascals\Anthology (disc 2)\10 Real Thing .wav
Longitud Pre-gap 0:00:01.40
Nivel Pico 85.1 %
Calidad de Pista 99.9 %
Copiar CRC E494FDA0
Pista no presente en la base de datos AccurateRip
Copia OK
Pista 11
Nombre de Archivo O:\The Rascals -Anthology\The Rascals\Anthology (disc 2)\11 Carry Me Back .wav
Longitud Pre-gap 0:00:02.63
Nivel Pico 85.1 %
Calidad de Pista 100.0 %
Copiar CRC DC17C5B9
Pista no presente en la base de datos AccurateRip
Copia OK
Pista 12
Nombre de Archivo O:\The Rascals -Anthology\The Rascals\Anthology (disc 2)\12 Right On .wav
Longitud Pre-gap 0:00:03.28
Nivel Pico 100.0 %
Calidad de Pista 99.9 %
Copiar CRC E479B1BC
Pista no presente en la base de datos AccurateRip
Copia OK
Pista 13
Nombre de Archivo O:\The Rascals -Anthology\The Rascals\Anthology (disc 2)\13 Ready for Love .wav
Longitud Pre-gap 0:00:01.73
Nivel Pico 99.9 %
Calidad de Pista 100.0 %
Copiar CRC 41876703
Pista no presente en la base de datos AccurateRip
Copia OK
Pista 14
Nombre de Archivo O:\The Rascals -Anthology\The Rascals\Anthology (disc 2)\14 I Believe .wav
Longitud Pre-gap 0:00:02.52
Nivel Pico 100.0 %
Calidad de Pista 100.0 %
Copiar CRC 1EB949D3
Pista no presente en la base de datos AccurateRip
Copia OK
Pista 15
Nombre de Archivo O:\The Rascals -Anthology\The Rascals\Anthology (disc 2)\15 Glory Glory .wav
Longitud Pre-gap 0:00:03.28
Nivel Pico 98.4 %
Calidad de Pista 100.0 %
Copiar CRC C0B3D9B7
Pista no presente en la base de datos AccurateRip
Copia OK
Ninguna de las pistas estб presente en la base de datos AccurateRip
Sin Errores
Final del Informe
 
Содержание индексной карты (.CUE)
;
;--[ Created by Medieval CUE Splitter! ]--
;
;-----------[ www.medieval.it ]-----------
;
REM GENRE "Top 40"
REM DATE 1992
REM DISCID E20BD00F
REM COMMENT "ExactAudioCopy v0.99pb5"
TITLE "Anthology (Disc 2)"
PERFORMER "The Rascals"
FILE "01 People Got To Be Free.flac" WAVE
TRACK 01 AUDIO
TITLE "People Got To Be Free"
PERFORMER "The Rascals"
INDEX 01 00:00:00
FILE "02 Island Of Love.flac" WAVE
TRACK 02 AUDIO
TITLE "Island Of Love"
PERFORMER "The Rascals"
INDEX 00 00:00:00
INDEX 01 00:02:45
FILE "03 Look Around.flac" WAVE
TRACK 03 AUDIO
TITLE "Look Around"
PERFORMER "The Rascals"
INDEX 00 00:00:00
INDEX 01 00:01:03
FILE "04 A Ray Of Hope.flac" WAVE
TRACK 04 AUDIO
TITLE "A Ray Of Hope"
PERFORMER "The Rascals"
INDEX 00 00:00:00
INDEX 01 00:01:40
FILE "05 Heaven.flac" WAVE
TRACK 05 AUDIO
TITLE Heaven
PERFORMER "The Rascals"
INDEX 00 00:00:00
INDEX 01 00:01:40
FILE "06 See.flac" WAVE
TRACK 06 AUDIO
TITLE See
PERFORMER "The Rascals"
INDEX 00 00:00:00
INDEX 01 00:02:10
FILE "07 I'd Like To Take You Home.flac" WAVE
TRACK 07 AUDIO
TITLE "I'd Like To Take You Home"
PERFORMER "The Rascals"
INDEX 00 00:00:00
INDEX 01 00:04:18
FILE "08 Temptation's 'Bout To Get Me.flac" WAVE
TRACK 08 AUDIO
TITLE "Temptation's 'Bout To Get Me"
PERFORMER "The Rascals"
INDEX 00 00:00:00
INDEX 01 00:01:38
FILE "09 Nubia.flac" WAVE
TRACK 09 AUDIO
TITLE Nubia
PERFORMER "The Rascals"
INDEX 00 00:00:00
INDEX 01 00:02:05
FILE "10 Real Thing.flac" WAVE
TRACK 10 AUDIO
TITLE "Real Thing"
PERFORMER "The Rascals"
INDEX 00 00:00:00
INDEX 01 00:01:40
FILE "11 Carry Me Back.flac" WAVE
TRACK 11 AUDIO
TITLE "Carry Me Back"
PERFORMER "The Rascals"
INDEX 00 00:00:00
INDEX 01 00:02:63
FILE "12 Right On.flac" WAVE
TRACK 12 AUDIO
TITLE "Right On"
PERFORMER "The Rascals"
INDEX 00 00:00:00
INDEX 01 00:03:28
FILE "13 Ready For Love.flac" WAVE
TRACK 13 AUDIO
TITLE "Ready For Love"
PERFORMER "The Rascals"
INDEX 00 00:00:00
INDEX 01 00:01:73
FILE "14 I Believe.flac" WAVE
TRACK 14 AUDIO
TITLE "I Believe"
PERFORMER "The Rascals"
INDEX 00 00:00:00
INDEX 01 00:02:52
FILE "15 Glory Glory.flac" WAVE
TRACK 15 AUDIO
TITLE "Glory Glory"
PERFORMER "The Rascals"
INDEX 00 00:00:00
INDEX 01 00:03:28
Приватный:
Нет (DHT включён)
Размер:
858.11 Мб (899,795,184 байт) » файлов: 78
Участники:
0 раздают, 0 качают (0 участников всего)
Внешние участники:
3 раздают, 1 качают (4 участников всего) [ Обновить ]
No seeders - write a personal message to user M0p94ok. Нет сидеров - пишите личное сообщение пользователю M0p94ok.
10:39
98
Нет комментариев. Ваш будет первым!