Поиск

(Soul, Gulf Coast Soul) [CD] The Suffers - The Suffers - 2016, FLAC (image+.cue), lossless

(Soul, Gulf Coast Soul) [CD] The Suffers - The Suffers - 2016, FLAC (image+.cue), lossless
Треклист:
The Suffers / The Suffers
Жанр: Soul, Gulf Coast Soul
Носитель: CD
Страна-производитель диска (релиза): US
Год издания: 2016
Издатель (лейбл): self released
Номер по каталогу: нет
Страна исполнителя (группы): US
Аудиокодек: FLAC (*.flac)
Тип рипа: image+.cue
Битрейт аудио: lossless
Продолжительность: 43:56.027
Источник (релизер): свой диск
Наличие сканов в содержимом раздачи: да
Треклист:
1. Make Some Room
2. Dutch
3. Midtown
4. Slow It Down
5. Gwan
6. Better
7. Good Day
8. Stay
9. Giver
10. Peanuts
 
Лог создания рипа
Exact Audio Copy V1.1 from 23. June 2015
Отчёт EAC об извлечении, выполненном 28. апреля 2016, 21:55
The Suffers / The Suffers
Дисковод: Optiarc DVD RW AD-7260S Adapter: 1 ID: 0
Режим чтения : Достоверность
Использование точного потока : Да
Отключение кэша аудио : Да
Использование указателей C2 : Нет
Коррекция смещения при чтении : 48
Способность читать области Lead-in и Lead-out : Нет
Заполнение пропущенных сэмплов тишиной : Да
Удаление блоков с тишиной в начале и конце : Нет
При вычислениях CRC использовались нулевые сэмплы : Да
Интерфейс : Встроенный Win32-интерфейс для Win NT/2000
Выходной формат : Пользовательский кодировщик
Выбранный битрейт : 768 kBit/s
Качество : Высокий
Добавление ID3-тега : Нет
Утилита сжатия : H:\Programs\Exact Audio Copy\FLAC\FLAC.EXE
Дополнительные параметры : -6 -V -T "ARTIST=%artist%" -T "TITLE=%title%" -T "ALBUM=%albumtitle%" -T "DATE=%year%" -T "TRACKNUMBER=%tracknr%" -T "GENRE=%genre%" -T "COMMENT=%comment%" -T "BAND=%albuminterpret%" -T "ALBUMARTIST=%albuminterpret%" -T "COMPOSER=%composer%" %haslyrics%--tag-from-file=LYRICS="%lyricsfile%"%haslyrics% -T "DISCNUMBER=%cdnumber%" -T "TOTALDISCS=%totalcds%" -T "TOTALTRACKS=%numtracks%" %hascover%--picture="%coverfile%"%hascover% %source% -o %dest%
TOC извлечённого CD
Трек | Старт | Длительность | Начальный сектор | Конечный сектор
---------------------------------------------------------------------
1 | 0:00.00 | 4:34.21 | 0 | 20570
2 | 4:34.21 | 3:22.55 | 20571 | 35775
3 | 7:57.01 | 4:41.20 | 35776 | 56870
4 | 12:38.21 | 3:09.29 | 56871 | 71074
5 | 15:47.50 | 3:52.06 | 71075 | 88480
6 | 19:39.56 | 5:14.66 | 88481 | 112096
7 | 24:54.47 | 4:12.01 | 112097 | 130997
8 | 29:06.48 | 3:37.15 | 130998 | 147287
9 | 32:43.63 | 7:10.36 | 147288 | 179573
10 | 39:54.24 | 4:01.53 | 179574 | 197701
Характеристики диапазона извлечения и сообщения об ошибках
Выбранный диапазон
Имя файла H:\EAC\The Suffers - The Suffers.wav
Пиковый уровень 95.4 %
Скорость извлечения 3.7 X
Качество диапазона 100.0 %
CRC теста 4701B93B
CRC копии 4701B93B
Копирование... OK
Ошибок не произошло
AccurateRip: сводка
Трек 1 : извлечено точно (доверие 3) [2C6EBEB4] (AR v2)
Трек 2 : извлечено точно (доверие 3) [6E565140] (AR v2)
Трек 3 : извлечено точно (доверие 3) [D9447237] (AR v2)
Трек 4 : извлечено точно (доверие 3) [3A3E7068] (AR v2)
Трек 5 : извлечено точно (доверие 3) [6145B225] (AR v2)
Трек 6 : извлечено точно (доверие 3) [17B6EF07] (AR v2)
Трек 7 : извлечено точно (доверие 3) [523F665A] (AR v2)
Трек 8 : извлечено точно (доверие 3) [6310CB65] (AR v2)
Трек 9 : извлечено точно (доверие 3) [F5A3BAD3] (AR v2)
Трек 10 : извлечено точно (доверие 3) [2A148716] (AR v2)
Все треки извлечены точно
Конец отчёта
---- CUETools DB Plugin V2.1.6
[CTDB TOCID: Tx1XkvZraCjIfskR87RNBzp5H4I-] found
Submit result: Tx1XkvZraCjIfskR87RNBzp5H4I- has been confirmed
Track | CTDB Status
1 | (9/9) Accurately ripped
2 | (9/9) Accurately ripped
3 | (9/9) Accurately ripped
4 | (9/9) Accurately ripped
5 | (9/9) Accurately ripped
6 | (9/9) Accurately ripped
7 | (9/9) Accurately ripped
8 | (9/9) Accurately ripped
9 | (9/9) Accurately ripped
10 | (9/9) Accurately ripped
==== Контрольная сумма отчёта 23B1B7F33B56783A522AB70B1FAE121D562A0D10F4A26A1DBDED3F5147F0BABD ====
Доп. информация: ПОКУПАЙТЕ ОРИГИНАЛЬНУЮ ПРОДУКЦИЮ! МАТЕРИАЛ ДЛЯ ОЗНАКОМЛЕНИЯ!
 
Об исполнителе (группе)
 
Об альбоме (сборнике)
"Just before The Suffers' members begin performing, you'll see 20 arms stretched in the air Superman-style, followed by 10 voices. The first counts off, 1 to 10, then shouts long and hard at full lung capacity. That's just the warmup.
What you get from this Houston band is soul, straight from horn to heart. I've witnessed The Suffers' magnificence on a tiny stage in a D.C. nightclub, on a big stage at the Newport Folk Festival, and behind my Tiny Desk. What happens on the band's first album is something that rarely happens on debuts: This band is on fire when it's in front of an audience, sure, but the intensity of its shows is also captured in the studio.
The Suffers' sound is steeped in what the band calls "Gulf Coast Soul," as well as elements of ska, Southern hip-hop, classic soul, rock 'n' roll and especially reggae. In fact, the group's name comes from a line in a famous late-'70s reggae film called Rockers. What helps set The Suffers apart from most is the band's sweet style of playing: No one is vying to show off, and everyone serves the song. It helps that singer Kam Franklin is at center stage — powerful and lovable and, like her band, careful not to overdo it. She seems to understand that there's power in holding back or waiting for the perfect moment to let go. "Midtown" is a good example; the whole band at the end of "Better" is another.
There will be many new artists to discover in 2016, with lots of debuts. I suggest you start with The Suffers."
www.npr.org, Bob Boilen
Приватный:
Нет (DHT включён)
Размер:
337.00 Мб (353,367,075 байт) » файлов: 11
Участники:
0 раздают, 0 качают (0 участников всего)
Внешние участники:
2 раздают, 1 качают (3 участников всего) [ Обновить ]
Есть вопросы - пишите личное сообщение пользователю M0p94ok.
10:38
63
Нет комментариев. Ваш будет первым!