Поиск

(jazz, funk, soul) [CD] Ben Sidran - I Lead A Life - 1972 (2007), FLAC (image+.cue), lossless

(jazz, funk, soul) [CD] Ben Sidran - I Lead A Life - 1972 (2007), FLAC (image+.cue), lossless
Треклист:
Ben Sidran / I Lead A Life
Жанр: jazz, funk, soul
Носитель: CD
Страна-производитель диска (релиза): Japan
Год издания: 1972 (2007)
Издатель (лейбл): Geffen Records
Номер по каталогу: UICY-6937
Страна исполнителя (группы): USA
Аудиокодек: FLAC (*.flac)
Тип рипа: image+.cue
Битрейт аудио: lossless
Продолжительность: 00:43:57
Источник (релизер): собственный рип
Наличие сканов в содержимом раздачи: да
Треклист:
1 Chances Are
2 Lust
3 It Don't Pay To Worry Like That
4 Eliyahu
5 When A Woman Say She Ready
6 I Lead A Life
7 The Devil Comes To Las Vegas
8 Talking About Money
9 Slippery Hip
10 Back Down On State Street
 
Лог создания рипа
Exact Audio Copy V1.1 from 23. June 2015
Отчёт EAC об извлечении, выполненном 10. мая 2016, 10:32
Ben Sidran / I Lead A Life
Дисковод: ASUS DRW-24B3ST Adapter: 0 ID: 0
Режим чтения : Достоверность
Использование точного потока : Да
Отключение кэша аудио : Да
Использование указателей C2 : Нет
Коррекция смещения при чтении : 6
Способность читать области Lead-in и Lead-out : Нет
Заполнение пропущенных сэмплов тишиной : Да
Удаление блоков с тишиной в начале и конце : Нет
При вычислениях CRC использовались нулевые сэмплы : Да
Интерфейс : Установленный внешний ASPI-интерфейс
Выходной формат : Пользовательский кодировщик
Выбранный битрейт : 1024 kBit/s
Качество : Высокий
Добавление ID3-тега : Нет
Утилита сжатия : C:\Program Files (x86)\Exact Audio Copy\FLAC\FLAC.EXE
Дополнительные параметры : -6 -V -T "ARTIST=%artist%" -T "TITLE=%title%" -T "ALBUM=%albumtitle%" -T "DATE=%year%" -T "TRACKNUMBER=%tracknr%" -T "GENRE=%genre%" -T "COMMENT=%comment%" -T "BAND=%albuminterpret%" -T "ALBUMARTIST=%albuminterpret%" -T "COMPOSER=%composer%" %haslyrics%--tag-from-file=LYRICS="%lyricsfile%"%haslyrics% -T "DISCNUMBER=%cdnumber%" -T "TOTALDISCS=%totalcds%" -T "TOTALTRACKS=%numtracks%" %hascover%--picture="%coverfile%"%hascover% %source% -o %dest%
TOC извлечённого CD
Трек | Старт | Длительность | Начальный сектор | Конечный сектор
---------------------------------------------------------------------
1 | 0:00.00 | 3:24.00 | 0 | 15299
2 | 3:24.00 | 3:45.42 | 15300 | 32216
3 | 7:09.42 | 3:30.48 | 32217 | 48014
4 | 10:40.15 | 3:05.52 | 48015 | 61941
5 | 13:45.67 | 8:07.28 | 61942 | 98494
6 | 21:53.20 | 2:37.67 | 98495 | 110336
7 | 24:31.12 | 5:43.13 | 110337 | 136074
8 | 30:14.25 | 3:37.67 | 136075 | 152416
9 | 33:52.17 | 3:42.23 | 152417 | 169089
10 | 37:34.40 | 6:22.65 | 169090 | 197804
Характеристики диапазона извлечения и сообщения об ошибках
Выбранный диапазон
Имя файла C:\Torrents - my\Ben Sidran - 1972 - I Lead A Life\Ben Sidran - I Lead A Life.wav
Пиковый уровень 97.7 %
Скорость извлечения 7.8 X
Качество диапазона 99.9 %
CRC теста 222F2D05
CRC копии 222F2D05
Копирование... OK
Ошибок не произошло
Конец отчёта
==== Контрольная сумма отчёта F1ABC6FBF4B63E6786B2E1B7A4B99200E31B245A7360433CEDA6207BFCC0E1E8 ====
Доп. информация: http://bensidran.com/
Приватный:
Нет (DHT включён)
Размер:
323.52 Мб (339,230,866 байт) » файлов: 13
Участники:
0 раздают, 0 качают (0 участников всего)
Внешние участники:
1 раздают, 0 качают (1 участников всего) [ Обновить ]
Есть вопросы - пишите личное сообщение пользователю M0p94ok.
10:39
72
Нет комментариев. Ваш будет первым!