Поиск

(Soul) [CD] Terisa Griffin - Songbird - 1999, FLAC (tracks+.cue), lossless

(Soul) [CD] Terisa Griffin - Songbird - 1999, FLAC (tracks+.cue), lossless
Треклист:
Terisa Griffin - Songbird Жанр: Soul
Носитель: CD
Год издания: 1999
Издатель (лейбл): Griffin Productions
Номер по каталогу: N/A
Аудиокодек: FLAC (*.flac)
Тип рипа: tracks+.cue
Битрейт аудио: lossless
Продолжительность: 24:57
Rip by JET 1
Наличие сканов в содержимом раздачи: да
Треклист:
01. (Still) I Can't Stop Loving You (Radio Version) (4:09)
02. (Still) I Can't Stop Loving You (Extended Version) (4:53)
03. I Pray (4:27)
04. I Love You (I Do) (4:03)
05. Song For You (7:25)
 
 
Лог создания рипа
Exact Audio Copy V1.0 beta 3 from 29. August 2011
EAC extraction logfile from 21. April 2016, 18:07
Terisa Griffin / Songbird
Used drive : GENERIC CDRCB05 Adapter: 4 ID: 0
Read mode : Secure
Utilize accurate stream : Yes
Defeat audio cache : Yes
Make use of C2 pointers : No
Read offset correction : 102
Overread into Lead-In and Lead-Out : No
Fill up missing offset samples with silence : Yes
Delete leading and trailing silent blocks : No
Null samples used in CRC calculations : Yes
Used interface : Native Win32 interface for Win NT & 2000
Gap handling : Appended to previous track
Used output format : User Defined Encoder
Selected bitrate : 1024 kBit/s
Quality : High
Add ID3 tag : No
Command line compressor : C:\Program Files\FLAC\flac.exe
Additional command line options : -8 -V -T "ARTIST=%artist%" -T "TITLE=%title%" -T "ALBUM=%albumtitle%" -T "DATE=%year%" -T "TRACKNUMBER=%tracknr%" -T "GENRE=%genre%" -T "PERFORMER=%albuminterpret%" -T "COMPOSER=%composer%" %haslyrics%--tag-from-file=LYRICS="%lyricsfile%"%haslyrics% -T "ALBUMARTIST=%albumartist%" -T "DISCNUMBER=%cdnumber%" -T "TOTALDISCS=%totalcds%" -T "TOTALTRACKS=%numtracks%" -T "COMMENT=%comment%" %source% -o %dest%
TOC of the extracted CD
Track | Start | Length | Start sector | End sector
---------------------------------------------------------
1 | 0:00.00 | 4:09.37 | 0 | 18711
2 | 4:09.37 | 4:52.44 | 18712 | 40655
3 | 9:02.06 | 4:26.40 | 40656 | 60645
4 | 13:28.46 | 4:03.04 | 60646 | 78874
5 | 17:31.50 | 7:25.31 | 78875 | 112280
Track 1
Filename F:\POSTSSSSS\Terisa Griffin - Songbird [CDS] (1999)\01 - i cant stop loving you (radio version).wav
Pre-gap length 0:00:02.00
Peak level 100.0 %
Extraction speed 2.5 X
Track quality 100.0 %
Test CRC E78AD45A
Copy CRC E78AD45A
Track not present in AccurateRip database
Copy OK
Track 2
Filename F:\POSTSSSSS\Terisa Griffin - Songbird [CDS] (1999)\02 - i cant stop loving you (extended version).wav
Pre-gap length 0:00:02.57
Peak level 100.0 %
Extraction speed 2.6 X
Track quality 100.0 %
Test CRC 719830EC
Copy CRC 719830EC
Track not present in AccurateRip database
Copy OK
Track 3
Filename F:\POSTSSSSS\Terisa Griffin - Songbird [CDS] (1999)\03 - i pray.wav
Pre-gap length 0:00:02.57
Peak level 100.0 %
Extraction speed 2.7 X
Track quality 100.0 %
Test CRC 2D2568E5
Copy CRC 2D2568E5
Track not present in AccurateRip database
Copy OK
Track 4
Filename F:\POSTSSSSS\Terisa Griffin - Songbird [CDS] (1999)\04 - i love you (i do).wav
Pre-gap length 0:00:02.57
Peak level 100.0 %
Extraction speed 3.2 X
Track quality 100.0 %
Test CRC 65E1EB67
Copy CRC 65E1EB67
Track not present in AccurateRip database
Copy OK
Track 5
Filename F:\POSTSSSSS\Terisa Griffin - Songbird [CDS] (1999)\05 - song for you.wav
Pre-gap length 0:00:02.57
Peak level 99.9 %
Extraction speed 3.7 X
Track quality 100.0 %
Test CRC 017214E0
Copy CRC 017214E0
Track not present in AccurateRip database
Copy OK
None of the tracks are present in the AccurateRip database
No errors occurred
End of status report
==== Log checksum 2C63187876EC10CD51C7B339C6571A7E6E13D2A912D9916A2DC6BB36C4C63D26 ====
 
Содержание индексной карты (.CUE)
REM GENRE R&B
REM DATE 1999
REM DISCID 2905D905
REM COMMENT "ExactAudioCopy v1.0b3"
PERFORMER "Terisa Griffin"
TITLE "Songbird"
FILE "01. (Still) I Can't Stop Loving You (Radio Version).flac" WAVE
TRACK 01 AUDIO
TITLE "(Still) I Can't Stop Loving You (Radio Version)"
PERFORMER "Terisa Griffin"
INDEX 01 00:00:00
TRACK 02 AUDIO
TITLE "(Still) I Can't Stop Loving You (Extended Version)"
PERFORMER "Terisa Griffin"
INDEX 00 04:06:55
FILE "02. (Still) I Can't Stop Loving You (Extended Version).flac" WAVE
INDEX 01 00:00:00
TRACK 03 AUDIO
TITLE "I Pray"
PERFORMER "Terisa Griffin"
INDEX 00 04:49:62
FILE "03. I Pray.flac" WAVE
INDEX 01 00:00:00
TRACK 04 AUDIO
TITLE "I Love You (I Do)"
PERFORMER "Terisa Griffin"
INDEX 00 04:23:58
FILE "04. I Love You (I Do).flac" WAVE
INDEX 01 00:00:00
TRACK 05 AUDIO
TITLE "Song For You"
PERFORMER "Terisa Griffin"
INDEX 00 04:00:22
FILE "05. Song For You.flac" WAVE
INDEX 01 00:00:00
Приватный:
Нет (DHT включён)
Размер:
228.86 Мб (239,972,774 байт) » файлов: 16
Участники:
0 раздают, 0 качают (0 участников всего)
Внешние участники:
1 раздают, 0 качают (1 участников всего) [ Обновить ]
Есть вопросы - пишите личное сообщение пользователю M0p94ok.
10:40
69
Нет комментариев. Ваш будет первым!