Поиск

(R&B/Soul) Marvin Gaye - What's Going On (Deluxe Edition Japan SHM-CD) - 2009, FLAC (tracks+.cue), lossless

(R&B/Soul) Marvin Gaye - What's Going On (Deluxe Edition Japan SHM-CD) - 2009, FLAC (tracks+.cue), lossless
Треклист:
Marvin Gaye - What's Going On (Deluxe Edition Japan SHM-CD)
Жанр: R&B/Soul
Год выпуска диска: 2009
Производитель диска: Japan
Аудио кодек: FLAC
Тип рипа: tracks+.cue
Битрейт аудио: lossless
Трэклист:
Disc 1
"What's Going On" – 3:53
"What's Happening Brother" – 2:43
"Flyin' High (In the Friendly Sky)" – 3:49
"Save the Children" – 4:03
"God Is Love" – 1:41
"Mercy Mercy Me (The Ecology)" – 3:16
"Right On" – 7:31
"Wholy Holy" – 3:08
"Inner City Blues (Make Me Wanna Holler)" – 5:26
"What's Going On" (Detroit Mix) – 4:08
"What's Happening Brother" (Detroit Mix) – 2:43
"Flyin' High (In the Friendly Sky)" (Detroit Mix) – 3:49
"Save the Children" (Detroit Mix) – 4:02
"God Is Love" (Detroit Mix) – 1:47
"Mercy Mercy Me (The Ecology)" (Detroit Mix) – 3:08
"Right On" (Detroit Mix) – 7:32
"Wholy Holy" (Detroit Mix) – 3:08
"Inner City Blues (Make Me Wanna Holler)" (Detroit Mix) – 5:46
"What's Going On" (Rhythm 'n' Strings Mix) - 3:50
Disc 2
Sixties Medley (Live At The Kennedy Center) - 13:23
"That's The Way Love Is"
"You"
"I Heard It Through The Grapevine"
"Little Darling (I Need You)"
"You’re All I Need To Get By"
"Ain’t Nothing Like The Real Thing"
"Your Precious Love"
"Pride And Joy"
"Stubborn Kind Of Fellow"
"Right On" (Live At The Kennedy Center) - 7:33
"Wholy Holy" (Live At The Kennedy Center) - 3:32
"Inner City Blues (Make Me Wanna Holler)" (Live At The Kennedy Center) - 9:06
"What's Going On" (Live At The Kennedy Center) - 5:42
"What's Happening Brother" (Live At The Kennedy Center) - 2:54
"Flyin' High (In The Friendly Sky) (Live At The Kennedy Center) - 3:51
"Save The Children" (Live At The Kennedy Center) - 4:22
"God Is Love" (Live At The Kennedy Center) - 1:43
"Stage Dialogue" (Live At The Kennedy Center) - 2:34
"Inner City Blues (Make Me Wanna Holler) (Reprise)" (Live At The Kennedy Center) - 5:12
"What's Going On (Reprise)" (Live At The Kennedy Center) - 4:07
"What's Going On" (Single Version) - 3:56
"God Is Love" (Single Version) - 2:56
"Sad Tomorrows" - 2:27
"Head Title (AKA "Distant Lover")" - 4:07
 
CD1: XLD Log
X Lossless Decoder version 20100323 (116.7)
XLD extraction logfile from 2010-04-15 18:29:05 +0600
Marvin Gaye / What's Going On (disc 1)
Used drive : OPTIARC DVD RW AD-5670S (revision 2AHH)
Use cdparanoia mode : YES (CDParanoia III 10.2 engine)
Disable audio cache : OK for the drive with cache less than 2750KB
Make use of C2 pointers : NO
Read offset correction : 48
Max retry count : 100
TOC of the extracted CD
Track | Start | Length | Start sector | End sector
---------------------------------------------------------
1 | 00:00:00 | 03:53:10 | 0 | 17484
2 | 03:53:10 | 02:43:52 | 17485 | 29761
3 | 06:36:62 | 03:49:43 | 29762 | 46979
4 | 10:26:30 | 04:03:02 | 46980 | 65206
5 | 14:29:32 | 01:41:60 | 65207 | 72841
6 | 16:11:17 | 03:16:35 | 72842 | 87576
7 | 19:27:52 | 07:32:00 | 87577 | 121476
8 | 26:59:52 | 03:07:68 | 121477 | 135569
9 | 30:07:45 | 05:38:42 | 135570 | 160961
10 | 35:46:12 | 04:07:65 | 160962 | 179551
11 | 39:54:02 | 02:43:15 | 179552 | 191791
12 | 42:37:17 | 03:48:53 | 191792 | 208944
13 | 46:25:70 | 04:01:50 | 208945 | 227069
14 | 50:27:45 | 01:46:57 | 227070 | 235076
15 | 52:14:27 | 03:07:55 | 235077 | 249156
16 | 55:22:07 | 07:31:55 | 249157 | 283036
17 | 62:53:62 | 03:07:50 | 283037 | 297111
18 | 66:01:37 | 05:45:45 | 297112 | 323031
19 | 71:47:07 | 03:50:38 | 323032 | 340319
List of alternate offset correction values
# | Absolute | Relative | Confidence
------------------------------------------
1 | 712 | 664 | 9
2 | 54 | 6 | 2
Track 01
Filename : /Users/gubarenko/Desktop/Marvin Gaye - What's Going On (disc 1)/01 - What's Going On.flac
Pre-gap length : 00:02:00
CRC32 hash (test run) : D53D7FBA
CRC32 hash : D53D7FBA
CRC32 hash (skip zero) : FA9CE77F
AccurateRip signature : 47C8BDDB
->Accurately ripped! (confidence 11)
Statistics
Read error : 0
Skipped (treated as error) : 0
Edge jitter error (maybe fixed) : 0
Atom jitter error (maybe fixed) : 0
Drift error (maybe fixed) : 0
Dropped bytes error (maybe fixed) : 0
Duplicated bytes error (maybe fixed) : 0
Inconsistency in error sectors : 0
Track 02
Filename : /Users/gubarenko/Desktop/Marvin Gaye - What's Going On (disc 1)/02 - What's Happening Brother.flac
Pre-gap length : 00:00:13
CRC32 hash (test run) : 588A8769
CRC32 hash : 588A8769
CRC32 hash (skip zero) : 03A8A4D5
AccurateRip signature : AE4C9590
->Accurately ripped! (confidence 11)
Statistics
Read error : 0
Skipped (treated as error) : 0
Edge jitter error (maybe fixed) : 0
Atom jitter error (maybe fixed) : 0
Drift error (maybe fixed) : 0
Dropped bytes error (maybe fixed) : 0
Duplicated bytes error (maybe fixed) : 0
Inconsistency in error sectors : 0
Track 03
Filename : /Users/gubarenko/Desktop/Marvin Gaye - What's Going On (disc 1)/03 - Flyin' High (in the Friendly Sky).flac
Pre-gap length : 00:00:05
CRC32 hash (test run) : AAA08EE0
CRC32 hash : AAA08EE0
CRC32 hash (skip zero) : B079FBD6
AccurateRip signature : 96637DCB
->Accurately ripped! (confidence 11)
Statistics
Read error : 0
Skipped (treated as error) : 0
Edge jitter error (maybe fixed) : 0
Atom jitter error (maybe fixed) : 0
Drift error (maybe fixed) : 0
Dropped bytes error (maybe fixed) : 0
Duplicated bytes error (maybe fixed) : 0
Inconsistency in error sectors : 0
Track 04
Filename : /Users/gubarenko/Desktop/Marvin Gaye - What's Going On (disc 1)/04 - Save the Children.flac
Pre-gap length : 00:00:03
CRC32 hash (test run) : CF2DFD1A
CRC32 hash : CF2DFD1A
CRC32 hash (skip zero) : EEDF0611
AccurateRip signature : CE32DBAE
->Accurately ripped! (confidence 11)
Statistics
Read error : 0
Skipped (treated as error) : 0
Edge jitter error (maybe fixed) : 0
Atom jitter error (maybe fixed) : 0
Drift error (maybe fixed) : 0
Dropped bytes error (maybe fixed) : 0
Duplicated bytes error (maybe fixed) : 0
Inconsistency in error sectors : 0
Track 05
Filename : /Users/gubarenko/Desktop/Marvin Gaye - What's Going On (disc 1)/05 - God Is Love.flac
Pre-gap length : 00:00:02
CRC32 hash (test run) : 30032A64
CRC32 hash : 30032A64
CRC32 hash (skip zero) : 2387C112
AccurateRip signature : EA6D2FA9
->Accurately ripped! (confidence 11)
Statistics
Read error : 0
Skipped (treated as error) : 0
Edge jitter error (maybe fixed) : 0
Atom jitter error (maybe fixed) : 0
Drift error (maybe fixed) : 0
Dropped bytes error (maybe fixed) : 0
Duplicated bytes error (maybe fixed) : 0
Inconsistency in error sectors : 0
Track 06
Filename : /Users/gubarenko/Desktop/Marvin Gaye - What's Going On (disc 1)/06 - Mercy Mercy Me (The Ecology).flac
Pre-gap length : 00:00:02
CRC32 hash (test run) : 7035C723
CRC32 hash : 7035C723
CRC32 hash (skip zero) : 040BA5C6
AccurateRip signature : CD6CC870
->Accurately ripped! (confidence 11)
Statistics
Read error : 0
Skipped (treated as error) : 0
Edge jitter error (maybe fixed) : 0
Atom jitter error (maybe fixed) : 0
Drift error (maybe fixed) : 0
Dropped bytes error (maybe fixed) : 0
Duplicated bytes error (maybe fixed) : 0
Inconsistency in error sectors : 0
Track 07
Filename : /Users/gubarenko/Desktop/Marvin Gaye - What's Going On (disc 1)/07 - Right On.flac
Pre-gap length : 00:03:22
CRC32 hash (test run) : CD3C540A
CRC32 hash : CD3C540A
CRC32 hash (skip zero) : 9B3CB2F9
AccurateRip signature : 38A396CF
->Accurately ripped! (confidence 11)
Statistics
Read error : 0
Skipped (treated as error) : 0
Edge jitter error (maybe fixed) : 0
Atom jitter error (maybe fixed) : 0
Drift error (maybe fixed) : 0
Dropped bytes error (maybe fixed) : 0
Duplicated bytes error (maybe fixed) : 0
Inconsistency in error sectors : 0
Track 08
Filename : /Users/gubarenko/Desktop/Marvin Gaye - What's Going On (disc 1)/08 - Wholy Holy.flac
Pre-gap length : 00:00:07
CRC32 hash (test run) : F0C7B385
CRC32 hash : F0C7B385
CRC32 hash (skip zero) : 204608F3
AccurateRip signature : 281BC3DD
->Accurately ripped! (confidence 11)
Statistics
Read error : 0
Skipped (treated as error) : 0
Edge jitter error (maybe fixed) : 0
Atom jitter error (maybe fixed) : 0
Drift error (maybe fixed) : 0
Dropped bytes error (maybe fixed) : 0
Duplicated bytes error (maybe fixed) : 0
Inconsistency in error sectors : 0
Track 09
Filename : /Users/gubarenko/Desktop/Marvin Gaye - What's Going On (disc 1)/09 - Inner City Blues (Make Me Wanna Holler).flac
Pre-gap length : 00:00:03
CRC32 hash (test run) : E0E74E3E
CRC32 hash : E0E74E3E
CRC32 hash (skip zero) : 1F878DCB
AccurateRip signature : 4FAD2A60
->Accurately ripped! (confidence 11)
Statistics
Read error : 0
Skipped (treated as error) : 0
Edge jitter error (maybe fixed) : 0
Atom jitter error (maybe fixed) : 0
Drift error (maybe fixed) : 0
Dropped bytes error (maybe fixed) : 0
Duplicated bytes error (maybe fixed) : 0
Inconsistency in error sectors : 0
Track 10
Filename : /Users/gubarenko/Desktop/Marvin Gaye - What's Going On (disc 1)/10 - What's Going On (original Detroit mix).flac
Pre-gap length : 00:11:65
CRC32 hash (test run) : CBB23E08
CRC32 hash : CBB23E08
CRC32 hash (skip zero) : E0897640
AccurateRip signature : 683C61FD
->Accurately ripped! (confidence 11)
Statistics
Read error : 0
Skipped (treated as error) : 0
Edge jitter error (maybe fixed) : 0
Atom jitter error (maybe fixed) : 0
Drift error (maybe fixed) : 0
Dropped bytes error (maybe fixed) : 0
Duplicated bytes error (maybe fixed) : 0
Inconsistency in error sectors : 0
Track 11
Filename : /Users/gubarenko/Desktop/Marvin Gaye - What's Going On (disc 1)/11 - What's Happening Brother (original Detroit mix).flac
Pre-gap length : 00:00:02
CRC32 hash (test run) : 31F147F4
CRC32 hash : 31F147F4
CRC32 hash (skip zero) : 7E035E4D
AccurateRip signature : 3EA6775A
->Accurately ripped! (confidence 11)
Statistics
Read error : 0
Skipped (treated as error) : 0
Edge jitter error (maybe fixed) : 0
Atom jitter error (maybe fixed) : 0
Drift error (maybe fixed) : 0
Dropped bytes error (maybe fixed) : 0
Duplicated bytes error (maybe fixed) : 0
Inconsistency in error sectors : 0
Track 12
Filename : /Users/gubarenko/Desktop/Marvin Gaye - What's Going On (disc 1)/12 - Flyin' High (in the Friendly Sky) (original Detroit mix).flac
Pre-gap length : 00:00:10
CRC32 hash (test run) : 1AEFD8AC
CRC32 hash : 1AEFD8AC
CRC32 hash (skip zero) : 3522D47A
AccurateRip signature : 9C58ABCC
->Accurately ripped! (confidence 11)
Statistics
Read error : 0
Skipped (treated as error) : 0
Edge jitter error (maybe fixed) : 0
Atom jitter error (maybe fixed) : 0
Drift error (maybe fixed) : 0
Dropped bytes error (maybe fixed) : 0
Duplicated bytes error (maybe fixed) : 0
Inconsistency in error sectors : 0
Track 13
Filename : /Users/gubarenko/Desktop/Marvin Gaye - What's Going On (disc 1)/13 - Save the Children (original Detroit mix).flac
Pre-gap length : 00:00:05
CRC32 hash (test run) : 8AEDF387
CRC32 hash : 8AEDF387
CRC32 hash (skip zero) : 5BFC829E
AccurateRip signature : 8A4B8980
->Accurately ripped! (confidence 11)
Statistics
Read error : 0
Skipped (treated as error) : 0
Edge jitter error (maybe fixed) : 0
Atom jitter error (maybe fixed) : 0
Drift error (maybe fixed) : 0
Dropped bytes error (maybe fixed) : 0
Duplicated bytes error (maybe fixed) : 0
Inconsistency in error sectors : 0
Track 14
Filename : /Users/gubarenko/Desktop/Marvin Gaye - What's Going On (disc 1)/14 - God Is Love (original Detroit mix).flac
Pre-gap length : 00:00:03
CRC32 hash (test run) : 8C97B68D
CRC32 hash : 8C97B68D
CRC32 hash (skip zero) : 6F3DCCA7
AccurateRip signature : ADA03AA2
->Accurately ripped! (confidence 11)
Statistics
Read error : 0
Skipped (treated as error) : 0
Edge jitter error (maybe fixed) : 0
Atom jitter error (maybe fixed) : 0
Drift error (maybe fixed) : 0
Dropped bytes error (maybe fixed) : 0
Duplicated bytes error (maybe fixed) : 0
Inconsistency in error sectors : 0
Track 15
Filename : /Users/gubarenko/Desktop/Marvin Gaye - What's Going On (disc 1)/15 - Mercy Mercy Me (The Ecology) (original Detroit mix).flac
Pre-gap length : 00:00:02
CRC32 hash (test run) : 280B25B6
CRC32 hash : 280B25B6
CRC32 hash (skip zero) : 7A1780F8
AccurateRip signature : 37ABBD10
->Accurately ripped! (confidence 11)
Statistics
Read error : 0
Skipped (treated as error) : 0
Edge jitter error (maybe fixed) : 0
Atom jitter error (maybe fixed) : 0
Drift error (maybe fixed) : 0
Dropped bytes error (maybe fixed) : 0
Duplicated bytes error (maybe fixed) : 0
Inconsistency in error sectors : 0
Track 16
Filename : /Users/gubarenko/Desktop/Marvin Gaye - What's Going On (disc 1)/16 - Right On (original Detroit mix).flac
Pre-gap length : 00:03:07
CRC32 hash (test run) : 9DAC7719
CRC32 hash : 9DAC7719
CRC32 hash (skip zero) : 5AF864B0
AccurateRip signature : 0BA68CFE
->Accurately ripped! (confidence 11)
Statistics
Read error : 0
Skipped (treated as error) : 0
Edge jitter error (maybe fixed) : 0
Atom jitter error (maybe fixed) : 0
Drift error (maybe fixed) : 0
Dropped bytes error (maybe fixed) : 0
Duplicated bytes error (maybe fixed) : 0
Inconsistency in error sectors : 0
Track 17
Filename : /Users/gubarenko/Desktop/Marvin Gaye - What's Going On (disc 1)/17 - Wholy Holy (original Detroit mix).flac
Pre-gap length : 00:00:05
CRC32 hash (test run) : 132D8A4F
CRC32 hash : 132D8A4F
CRC32 hash (skip zero) : 6367CAAF
AccurateRip signature : 30D5AA93
->Accurately ripped! (confidence 11)
Statistics
Read error : 0
Skipped (treated as error) : 0
Edge jitter error (maybe fixed) : 0
Atom jitter error (maybe fixed) : 0
Drift error (maybe fixed) : 0
Dropped bytes error (maybe fixed) : 0
Duplicated bytes error (maybe fixed) : 0
Inconsistency in error sectors : 0
Track 18
Filename : /Users/gubarenko/Desktop/Marvin Gaye - What's Going On (disc 1)/18 - Inner City Blues (Make Me Wanna Holler) (original Detroit mix).flac
Pre-gap length : 00:00:05
CRC32 hash (test run) : 08391EA5
CRC32 hash : 08391EA5
CRC32 hash (skip zero) : 11B21BA8
AccurateRip signature : D9431627
->Accurately ripped! (confidence 11)
Statistics
Read error : 0
Skipped (treated as error) : 0
Edge jitter error (maybe fixed) : 0
Atom jitter error (maybe fixed) : 0
Drift error (maybe fixed) : 0
Dropped bytes error (maybe fixed) : 0
Duplicated bytes error (maybe fixed) : 0
Inconsistency in error sectors : 0
Track 19
Filename : /Users/gubarenko/Desktop/Marvin Gaye - What's Going On (disc 1)/19 - What's Going On (Rhythm & Strings mix).flac
Pre-gap length : 00:12:10
CRC32 hash (test run) : A791454F
CRC32 hash : A791454F
CRC32 hash (skip zero) : 07ACC10D
AccurateRip signature : B875A319
->Accurately ripped! (confidence 11)
Statistics
Read error : 0
Skipped (treated as error) : 0
Edge jitter error (maybe fixed) : 0
Atom jitter error (maybe fixed) : 0
Drift error (maybe fixed) : 0
Dropped bytes error (maybe fixed) : 0
Duplicated bytes error (maybe fixed) : 0
Inconsistency in error sectors : 0
No errors occurred
End of status report
 
CD1: CUE
TITLE "What's Going On (disc 1)"
PERFORMER "Marvin Gaye"
CATALOG 0044001340529
REM DATE "2001-02-27"
FILE "01 - What's Going On.wav" WAVE
TRACK 01 AUDIO
TITLE "What's Going On"
ISRC USMO17100041
INDEX 01 00:00:00
TRACK 02 AUDIO
TITLE "What's Happening Brother"
ISRC USMO17100042
INDEX 00 03:52:72
FILE "02 - What's Happening Brother.wav" WAVE
INDEX 01 00:00:00
TRACK 03 AUDIO
TITLE "Flyin' High (in the Friendly Sky)"
ISRC USMO17100043
INDEX 00 02:43:47
FILE "03 - Flyin' High (in the Friendly Sky).wav" WAVE
INDEX 01 00:00:00
TRACK 04 AUDIO
TITLE "Save the Children"
ISRC USMO17100044
INDEX 00 03:49:40
FILE "04 - Save the Children.wav" WAVE
INDEX 01 00:00:00
TRACK 05 AUDIO
TITLE "God Is Love"
ISRC USMO17100045
INDEX 00 04:03:00
FILE "05 - God Is Love.wav" WAVE
INDEX 01 00:00:00
TRACK 06 AUDIO
TITLE "Mercy Mercy Me (The Ecology)"
ISRC USMO17100047
INDEX 00 01:41:58
FILE "06 - Mercy Mercy Me (The Ecology).wav" WAVE
INDEX 01 00:00:00
TRACK 07 AUDIO
TITLE "Right On"
ISRC USMO17100047
INDEX 00 03:13:13
FILE "07 - Right On.wav" WAVE
INDEX 01 00:00:00
TRACK 08 AUDIO
TITLE "Wholy Holy"
ISRC USMO17100048
INDEX 00 07:31:68
FILE "08 - Wholy Holy.wav" WAVE
INDEX 01 00:00:00
TRACK 09 AUDIO
TITLE "Inner City Blues (Make Me Wanna Holler)"
ISRC USMO10110000
INDEX 00 03:07:65
FILE "09 - Inner City Blues (Make Me Wanna Holler).wav" WAVE
INDEX 01 00:00:00
TRACK 10 AUDIO
TITLE "What's Going On (original Detroit mix)"
ISRC USMO10110000
INDEX 00 05:26:52
FILE "10 - What's Going On (original Detroit mix).wav" WAVE
INDEX 01 00:00:00
TRACK 11 AUDIO
TITLE "What's Happening Brother (original Detroit mix)"
ISRC USMO10110001
INDEX 00 04:07:63
FILE "11 - What's Happening Brother (original Detroit mix).wav" WAVE
INDEX 01 00:00:00
TRACK 12 AUDIO
TITLE "Flyin' High (in the Friendly Sky) (original Detroit mix)"
ISRC USMO10110002
INDEX 00 02:43:05
FILE "12 - Flyin' High (in the Friendly Sky) (original Detroit mix).wav" WAVE
INDEX 01 00:00:00
TRACK 13 AUDIO
TITLE "Save the Children (original Detroit mix)"
ISRC USMO10110003
INDEX 00 03:48:48
FILE "13 - Save the Children (original Detroit mix).wav" WAVE
INDEX 01 00:00:00
TRACK 14 AUDIO
TITLE "God Is Love (original Detroit mix)"
ISRC USMO10110004
INDEX 00 04:01:47
FILE "14 - God Is Love (original Detroit mix).wav" WAVE
INDEX 01 00:00:00
TRACK 15 AUDIO
TITLE "Mercy Mercy Me (The Ecology) (original Detroit mix)"
ISRC USMO10110006
INDEX 00 01:46:55
FILE "15 - Mercy Mercy Me (The Ecology) (original Detroit mix).wav" WAVE
INDEX 01 00:00:00
TRACK 16 AUDIO
TITLE "Right On (original Detroit mix)"
ISRC USMO10110006
INDEX 00 03:04:48
FILE "16 - Right On (original Detroit mix).wav" WAVE
INDEX 01 00:00:00
TRACK 17 AUDIO
TITLE "Wholy Holy (original Detroit mix)"
ISRC USMO10110007
INDEX 00 07:31:50
FILE "17 - Wholy Holy (original Detroit mix).wav" WAVE
INDEX 01 00:00:00
TRACK 18 AUDIO
TITLE "Inner City Blues (Make Me Wanna Holler) (original Detroit mix)"
ISRC USMO10110009
INDEX 00 03:07:45
FILE "18 - Inner City Blues (Make Me Wanna Holler) (original Detroit mix).wav" WAVE
INDEX 01 00:00:00
TRACK 19 AUDIO
TITLE "What's Going On (Rhythm & Strings mix)"
ISRC USMO10110009
INDEX 00 05:33:35
FILE "19 - What's Going On (Rhythm & Strings mix).wav" WAVE
INDEX 01 00:00:00
 
CD2: XLD Log
X Lossless Decoder version 20100323 (116.7)
XLD extraction logfile from 2010-04-16 17:29:59 +0600
Marvin Gaye / What's Going On [Deluxe Edition] #2
Used drive : OPTIARC DVD RW AD-5670S (revision 2AHH)
Use cdparanoia mode : YES (CDParanoia III 10.2 engine)
Disable audio cache : OK for the drive with cache less than 2750KB
Make use of C2 pointers : NO
Read offset correction : 48
Max retry count : 100
TOC of the extracted CD
Track | Start | Length | Start sector | End sector
---------------------------------------------------------
1 | 00:00:00 | 13:23:37 | 0 | 60261
2 | 13:23:37 | 07:33:70 | 60262 | 94306
3 | 20:57:32 | 03:31:50 | 94307 | 110181
4 | 24:29:07 | 09:05:73 | 110182 | 151129
5 | 33:35:05 | 05:42:05 | 151130 | 176784
6 | 39:17:10 | 02:54:50 | 176785 | 189884
7 | 42:11:60 | 03:51:47 | 189885 | 207256
8 | 46:03:32 | 04:22:15 | 207257 | 226921
9 | 50:25:47 | 01:43:35 | 226922 | 234681
10 | 52:09:07 | 02:34:43 | 234682 | 246274
11 | 54:43:50 | 05:12:35 | 246275 | 269709
12 | 59:56:10 | 04:07:32 | 269710 | 288266
13 | 64:03:42 | 03:56:60 | 288267 | 306026
14 | 68:00:27 | 02:53:38 | 306027 | 319039
15 | 70:53:65 | 02:27:10 | 319040 | 330074
16 | 73:21:00 | 04:07:70 | 330075 | 348669
List of alternate offset correction values
# | Absolute | Relative | Confidence
------------------------------------------
1 | -616 | -664 | 14
2 | -610 | -658 | 2
Track 01
Filename : /Users/gubarenko/Desktop/Marvin Gaye - What's Going On [Deluxe Edition] #2/01 - Sixties Medley (Live).flac
Pre-gap length : 00:02:00
CRC32 hash (test run) : C82F6A89
CRC32 hash : C82F6A89
CRC32 hash (skip zero) : 61FA8BAB
AccurateRip signature : 9EA683DE
->Accurately ripped! (confidence 3)
Statistics
Read error : 0
Skipped (treated as error) : 0
Edge jitter error (maybe fixed) : 0
Atom jitter error (maybe fixed) : 0
Drift error (maybe fixed) : 0
Dropped bytes error (maybe fixed) : 0
Duplicated bytes error (maybe fixed) : 0
Inconsistency in error sectors : 0
Track 02
Filename : /Users/gubarenko/Desktop/Marvin Gaye - What's Going On [Deluxe Edition] #2/02 - Right On (Live).flac
CRC32 hash (test run) : 99DD0E09
CRC32 hash : 99DD0E09
CRC32 hash (skip zero) : 6F65B921
AccurateRip signature : F967DCAF
->Accurately ripped! (confidence 3)
Statistics
Read error : 0
Skipped (treated as error) : 0
Edge jitter error (maybe fixed) : 0
Atom jitter error (maybe fixed) : 0
Drift error (maybe fixed) : 0
Dropped bytes error (maybe fixed) : 0
Duplicated bytes error (maybe fixed) : 0
Inconsistency in error sectors : 0
Track 03
Filename : /Users/gubarenko/Desktop/Marvin Gaye - What's Going On [Deluxe Edition] #2/03 - Wholy Holy (Live).flac
CRC32 hash (test run) : 5BCBFC20
CRC32 hash : 5BCBFC20
CRC32 hash (skip zero) : 86216250
AccurateRip signature : E40205A5
->Accurately ripped! (confidence 3)
Statistics
Read error : 0
Skipped (treated as error) : 0
Edge jitter error (maybe fixed) : 0
Atom jitter error (maybe fixed) : 0
Drift error (maybe fixed) : 0
Dropped bytes error (maybe fixed) : 0
Duplicated bytes error (maybe fixed) : 0
Inconsistency in error sectors : 0
Track 04
Filename : /Users/gubarenko/Desktop/Marvin Gaye - What's Going On [Deluxe Edition] #2/04 - Inner City Blues (Make Me Wanna Holler) (Live).flac
CRC32 hash (test run) : CE2F44A1
CRC32 hash : CE2F44A1
CRC32 hash (skip zero) : D082E4AC
AccurateRip signature : 03BE7BCF
->Accurately ripped! (confidence 3)
Statistics
Read error : 0
Skipped (treated as error) : 0
Edge jitter error (maybe fixed) : 0
Atom jitter error (maybe fixed) : 0
Drift error (maybe fixed) : 0
Dropped bytes error (maybe fixed) : 0
Duplicated bytes error (maybe fixed) : 0
Inconsistency in error sectors : 0
Track 05
Filename : /Users/gubarenko/Desktop/Marvin Gaye - What's Going On [Deluxe Edition] #2/05 - What's Going On (Live).flac
CRC32 hash (test run) : 3CBBD690
CRC32 hash : 3CBBD690
CRC32 hash (skip zero) : 981E7650
AccurateRip signature : A2739130
->Accurately ripped! (confidence 3)
Statistics
Read error : 0
Skipped (treated as error) : 0
Edge jitter error (maybe fixed) : 0
Atom jitter error (maybe fixed) : 0
Drift error (maybe fixed) : 0
Dropped bytes error (maybe fixed) : 0
Duplicated bytes error (maybe fixed) : 0
Inconsistency in error sectors : 0
Track 06
Filename : /Users/gubarenko/Desktop/Marvin Gaye - What's Going On [Deluxe Edition] #2/06 - What's Happening Brother (Live).flac
CRC32 hash (test run) : 74275FD1
CRC32 hash : 74275FD1
CRC32 hash (skip zero) : 9AD1640A
AccurateRip signature : 26993C1D
->Accurately ripped! (confidence 3)
Statistics
Read error : 0
Skipped (treated as error) : 0
Edge jitter error (maybe fixed) : 0
Atom jitter error (maybe fixed) : 0
Drift error (maybe fixed) : 0
Dropped bytes error (maybe fixed) : 0
Duplicated bytes error (maybe fixed) : 0
Inconsistency in error sectors : 0
Track 07
Filename : /Users/gubarenko/Desktop/Marvin Gaye - What's Going On [Deluxe Edition] #2/07 - Flyin' High (In The Friendly Sky) (Live).flac
CRC32 hash (test run) : BE58C9DA
CRC32 hash : BE58C9DA
CRC32 hash (skip zero) : 79E861D1
AccurateRip signature : E3DCF27D
->Accurately ripped! (confidence 3)
Statistics
Read error : 0
Skipped (treated as error) : 0
Edge jitter error (maybe fixed) : 0
Atom jitter error (maybe fixed) : 0
Drift error (maybe fixed) : 0
Dropped bytes error (maybe fixed) : 0
Duplicated bytes error (maybe fixed) : 0
Inconsistency in error sectors : 0
Track 08
Filename : /Users/gubarenko/Desktop/Marvin Gaye - What's Going On [Deluxe Edition] #2/08 - Save The Children (Live).flac
CRC32 hash (test run) : C4FDB36D
CRC32 hash : C4FDB36D
CRC32 hash (skip zero) : 1766C362
AccurateRip signature : 8B3F77A3
->Accurately ripped! (confidence 3)
Statistics
Read error : 0
Skipped (treated as error) : 0
Edge jitter error (maybe fixed) : 0
Atom jitter error (maybe fixed) : 0
Drift error (maybe fixed) : 0
Dropped bytes error (maybe fixed) : 0
Duplicated bytes error (maybe fixed) : 0
Inconsistency in error sectors : 0
Track 09
Filename : /Users/gubarenko/Desktop/Marvin Gaye - What's Going On [Deluxe Edition] #2/09 - God Is Love (Live).flac
CRC32 hash (test run) : F19C10E5
CRC32 hash : F19C10E5
CRC32 hash (skip zero) : 233D600B
AccurateRip signature : 0FEB2F6B
->Accurately ripped! (confidence 3)
Statistics
Read error : 0
Skipped (treated as error) : 0
Edge jitter error (maybe fixed) : 0
Atom jitter error (maybe fixed) : 0
Drift error (maybe fixed) : 0
Dropped bytes error (maybe fixed) : 0
Duplicated bytes error (maybe fixed) : 0
Inconsistency in error sectors : 0
Track 10
Filename : /Users/gubarenko/Desktop/Marvin Gaye - What's Going On [Deluxe Edition] #2/10 - Stage Dialogue (Live).flac
CRC32 hash (test run) : 54664F43
CRC32 hash : 54664F43
CRC32 hash (skip zero) : 24651548
AccurateRip signature : B4A237BA
->Accurately ripped! (confidence 3)
Statistics
Read error : 0
Skipped (treated as error) : 0
Edge jitter error (maybe fixed) : 0
Atom jitter error (maybe fixed) : 0
Drift error (maybe fixed) : 0
Dropped bytes error (maybe fixed) : 0
Duplicated bytes error (maybe fixed) : 0
Inconsistency in error sectors : 0
Track 11
Filename : /Users/gubarenko/Desktop/Marvin Gaye - What's Going On [Deluxe Edition] #2/11 - Inner City Blues (Make Me Wanna Holler) [Reprise] (Live).flac
CRC32 hash (test run) : 4D4DE633
CRC32 hash : 4D4DE633
CRC32 hash (skip zero) : DB782C49
AccurateRip signature : A0338A0A
->Accurately ripped! (confidence 3)
Statistics
Read error : 0
Skipped (treated as error) : 0
Edge jitter error (maybe fixed) : 0
Atom jitter error (maybe fixed) : 0
Drift error (maybe fixed) : 0
Dropped bytes error (maybe fixed) : 0
Duplicated bytes error (maybe fixed) : 0
Inconsistency in error sectors : 0
Track 12
Filename : /Users/gubarenko/Desktop/Marvin Gaye - What's Going On [Deluxe Edition] #2/12 - What's Going On [Reprise] (Live).flac
CRC32 hash (test run) : B667378C
CRC32 hash : B667378C
CRC32 hash (skip zero) : 2FF58498
AccurateRip signature : 39549767
->Accurately ripped! (confidence 3)
Statistics
Read error : 0
Skipped (treated as error) : 0
Edge jitter error (maybe fixed) : 0
Atom jitter error (maybe fixed) : 0
Drift error (maybe fixed) : 0
Dropped bytes error (maybe fixed) : 0
Duplicated bytes error (maybe fixed) : 0
Inconsistency in error sectors : 0
Track 13
Filename : /Users/gubarenko/Desktop/Marvin Gaye - What's Going On [Deluxe Edition] #2/13 - What's Going On [Original Single Version].flac
Pre-gap length : 00:05:67
CRC32 hash (test run) : 4C6D19A2
CRC32 hash : 4C6D19A2
CRC32 hash (skip zero) : 131891A0
AccurateRip signature : 591DDEBD
->Accurately ripped! (confidence 3)
Statistics
Read error : 0
Skipped (treated as error) : 0
Edge jitter error (maybe fixed) : 0
Atom jitter error (maybe fixed) : 0
Drift error (maybe fixed) : 0
Dropped bytes error (maybe fixed) : 0
Duplicated bytes error (maybe fixed) : 0
Inconsistency in error sectors : 0
Track 14
Filename : /Users/gubarenko/Desktop/Marvin Gaye - What's Going On [Deluxe Edition] #2/14 - God Is Love [Original Single Version].flac
Pre-gap length : 00:02:72
CRC32 hash (test run) : 9DA50B39
CRC32 hash : 9DA50B39
CRC32 hash (skip zero) : 981FD612
AccurateRip signature : AD24F627
->Accurately ripped! (confidence 3)
Statistics
Read error : 0
Skipped (treated as error) : 0
Edge jitter error (maybe fixed) : 0
Atom jitter error (maybe fixed) : 0
Drift error (maybe fixed) : 0
Dropped bytes error (maybe fixed) : 0
Duplicated bytes error (maybe fixed) : 0
Inconsistency in error sectors : 0
Track 15
Filename : /Users/gubarenko/Desktop/Marvin Gaye - What's Going On [Deluxe Edition] #2/15 - Sad Tomorrows [Original Single Version].flac
Pre-gap length : 00:05:48
CRC32 hash (test run) : D57B798D
CRC32 hash : D57B798D
CRC32 hash (skip zero) : 93F14A39
AccurateRip signature : 24B63265
->Accurately ripped! (confidence 3)
Statistics
Read error : 0
Skipped (treated as error) : 0
Edge jitter error (maybe fixed) : 0
Atom jitter error (maybe fixed) : 0
Drift error (maybe fixed) : 0
Dropped bytes error (maybe fixed) : 0
Duplicated bytes error (maybe fixed) : 0
Inconsistency in error sectors : 0
Track 16
Filename : /Users/gubarenko/Desktop/Marvin Gaye - What's Going On [Deluxe Edition] #2/16 - ''Head Title'' aka Distant Lover (Outtake).flac
Pre-gap length : 00:04:38
CRC32 hash (test run) : 1808ADA8
CRC32 hash : 1808ADA8
CRC32 hash (skip zero) : 1A0F7326
AccurateRip signature : D6AE9898
->Accurately ripped! (confidence 3)
Statistics
Read error : 0
Skipped (treated as error) : 0
Edge jitter error (maybe fixed) : 0
Atom jitter error (maybe fixed) : 0
Drift error (maybe fixed) : 0
Dropped bytes error (maybe fixed) : 0
Duplicated bytes error (maybe fixed) : 0
Inconsistency in error sectors : 0
No errors occurred
End of status report
 
CD2: CUE
TITLE "What's Going On [Deluxe Edition] #2"
PERFORMER "Marvin Gaye"
CATALOG 0044001340628
REM GENRE "Soul"
REM DATE 1971
FILE "01 - Sixties Medley (Live).wav" WAVE
TRACK 01 AUDIO
TITLE "Sixties Medley (Live)"
ISRC USMO10110010
INDEX 01 00:00:00
FILE "02 - Right On (Live).wav" WAVE
TRACK 02 AUDIO
TITLE "Right On (Live)"
ISRC USMO10110011
INDEX 01 00:00:00
FILE "03 - Wholy Holy (Live).wav" WAVE
TRACK 03 AUDIO
TITLE "Wholy Holy (Live)"
ISRC USMO10110012
INDEX 01 00:00:00
FILE "04 - Inner City Blues (Make Me Wanna Holler) (Live).wav" WAVE
TRACK 04 AUDIO
TITLE "Inner City Blues (Make Me Wanna Holler) (Live)"
ISRC USMO10110013
INDEX 01 00:00:00
FILE "05 - What's Going On (Live).wav" WAVE
TRACK 05 AUDIO
TITLE "What's Going On (Live)"
ISRC USMO10110014
INDEX 01 00:00:00
FILE "06 - What's Happening Brother (Live).wav" WAVE
TRACK 06 AUDIO
TITLE "What's Happening Brother (Live)"
ISRC USMO10110015
INDEX 01 00:00:00
FILE "07 - Flyin' High (In The Friendly Sky) (Live).wav" WAVE
TRACK 07 AUDIO
TITLE "Flyin' High (In The Friendly Sky) (Live)"
ISRC USMO10110016
INDEX 01 00:00:00
FILE "08 - Save The Children (Live).wav" WAVE
TRACK 08 AUDIO
TITLE "Save The Children (Live)"
ISRC USMO10110017
INDEX 01 00:00:00
FILE "09 - God Is Love (Live).wav" WAVE
TRACK 09 AUDIO
TITLE "God Is Love (Live)"
ISRC USMO10110018
INDEX 01 00:00:00
FILE "10 - Stage Dialogue (Live).wav" WAVE
TRACK 10 AUDIO
TITLE "Stage Dialogue (Live)"
ISRC USMO10110019
INDEX 01 00:00:00
FILE "11 - Inner City Blues (Make Me Wanna Holler) [Reprise] (Live).wav" WAVE
TRACK 11 AUDIO
TITLE "Inner City Blues (Make Me Wanna Holler) [Reprise] (Live)"
ISRC USMO10001124
INDEX 01 00:00:00
FILE "12 - What's Going On [Reprise] (Live).wav" WAVE
TRACK 12 AUDIO
TITLE "What's Going On [Reprise] (Live)"
ISRC USMO10110022
INDEX 01 00:00:00
TRACK 13 AUDIO
TITLE "What's Going On [Original Single Version]"
ISRC USMO10110022
INDEX 00 04:01:40
FILE "13 - What's Going On [Original Single Version].wav" WAVE
INDEX 01 00:00:00
TRACK 14 AUDIO
TITLE "God Is Love [Original Single Version]"
ISRC USMO19582704
INDEX 00 03:53:63
FILE "14 - God Is Love [Original Single Version].wav" WAVE
INDEX 01 00:00:00
TRACK 15 AUDIO
TITLE "Sad Tomorrows [Original Single Version]"
ISRC USMO10110021
INDEX 00 02:47:65
FILE "15 - Sad Tomorrows [Original Single Version].wav" WAVE
INDEX 01 00:00:00
TRACK 16 AUDIO
TITLE "''Head Title'' aka Distant Lover (Outtake)"
ISRC USMO10110021
INDEX 00 02:22:47
FILE "16 - ''Head Title'' aka Distant Lover (Outtake).wav" WAVE
INDEX 01 00:00:00
 
UICY-94036/7
Диск куплен тут.
 
Marvin Gaye SHM-CD Cardboard Sleeve Reissues (Universal)
UICY-94022: The Soulful Moods Of Marvin Gaye
UICY-94023: That Stubborn Kinda Fellow
UICY-94024: Recorded Live On Stage
UICY-94025: Whem I'm Alone I Cry
UICY-94026: Hello Broadway
UICY-94027: How Sweet It Is To Be Loved By You
UICY-94028: A Tribute To Great Nat 'King' Cole
UICY-94029: Moods Of Marvin Gaye
UICY-94030: At The Copa
UICY-94031: I Heard It Through The Grapevine
UICY-94032: M.P.G.
UICY-94033: That's The Way Love Is
UICY-94034: Greatest Hits, Vol. I & Vol. II
UICY-94035: Super Hits
UICY-94036/7: What's Going On (Deluxe Edition)
UICY-94038: Trouble Man
UICY-94039/40: Let's Get It On (Deluxe Edition)
UICY-94041: Live!
UICY-94042/3: I Want You (Deluxe Edition)
UICY-94044: Greatest Hits
UICY-94045: Live At London Palladium
UICY-94046/7: Here My Dear (Deluxe Edition)
UICY-94124: In Our Lifetime
UICY-94125: Vulnerable
UICY-94126: Every Motown Hit Of Marvin Gaye
UICY-94127: Motown Remembers
UICY-94128/9: Musical Testament 1964-1984
UICY-94161: Together (with Mary Wells)
UICY-94162: Take Two (with Kim Weston)
UICY-94163: United (with Tammi Terrell)
UICY-94164: You're All I Need (with Tammi Terrell)
UICY-94165: Easy (with Tammi Terrell)
UICY-94168: Diana & Marvin (with Diana Ross)
* мои раздачи, чужие, скоро будет
* mine, others, soon
Приватный:
Да (DHT отключён)
Размер:
1.48 Гб (1,586,777,756 байт) » файлов: 62
Участники:
0 раздают, 0 качают (0 участников всего)
Внешние участники:
12 раздают, 4 качают (16 участников всего) [ Обновить ]
Никого нет на раздаче - пишите личное сообщение M0p94ok
No seeders - write personal message to M0p94ok
04:21
16
Нет комментариев. Ваш будет первым!