Поиск

(Funk / Soul) Average White Band - Aftershock - 1989, FLAC (tracks+.cue), lossless

(Funk / Soul) Average White Band - Aftershock - 1989, FLAC (tracks+.cue), lossless
Треклист:
Average White Band - Aftershock
Жанр: Funk / Soul
Год выпуска диска: 1989
Производитель диска: US
Аудио кодек: FLAC
Тип рипа: tracks+.cue
Битрейт аудио: lossless
Продолжительность: 38:18
Трэклист:
1. "The spirit of love"
2. "Sticky situation"
3. "Aftershock"
4. "Love at first sight"
5. "I'll get over you"
6. "Later we'll be greater"
7. "Let's go all the way"
8. "We're in too deep"
9. "Stocky Sachoo-A-Shun
 
eac
Exact Audio Copy V0.99 prebeta 4 from 23. January 2008
EAC extraction logfile from 2. January 2009, 10:35
Average White Band / Aftershock
Used drive : ASUS DRW-2014L1T Adapter: 1 ID: 0
Read mode : Secure
Utilize accurate stream : Yes
Defeat audio cache : Yes
Make use of C2 pointers : No
Read offset correction : 6
Overread into Lead-In and Lead-Out : No
Fill up missing offset samples with silence : Yes
Delete leading and trailing silent blocks : No
Null samples used in CRC calculations : Yes
Used interface : Native Win32 interface for Win NT & 2000
Gap handling : Appended to previous track
Used output format : User Defined Encoder
Selected bitrate : 768 kBit/s
Quality : High
Add ID3 tag : No
Command line compressor : C:\Program Files\FLAC\flac.exe
Additional command line options : -V -8 -T "artist=%a" -T "title=%t" -T "album=%g" -T "date=%y" -T "tracknumber=%n" -T "genre=%m" %s
TOC of the extracted CD
Track | Start | Length | Start sector | End sector
---------------------------------------------------------
1 | 0:00.32 | 4:15.20 | 32 | 19176
2 | 4:15.52 | 4:41.53 | 19177 | 40304
3 | 8:57.30 | 4:14.42 | 40305 | 59396
4 | 13:11.72 | 4:51.68 | 59397 | 81289
5 | 18:03.65 | 4:36.65 | 81290 | 102054
6 | 22:40.55 | 3:59.05 | 102055 | 119984
7 | 26:39.60 | 5:57.37 | 119985 | 146796
8 | 32:37.22 | 3:58.03 | 146797 | 164649
9 | 36:35.25 | 1:43.15 | 164650 | 172389
Track 1
Filename C:\Documents and Settings\Administrator\My Documents\Eigene Musik\Upload\Average White Band - Aftershock\01 - The Spirit Of Love.wav
Pre-gap length 0:00:02.32
Peak level 93.9 %
Track quality 100.0 %
Test CRC E3EBF65D
Copy CRC E3EBF65D
Track not present in AccurateRip database
Copy OK
Track 2
Filename C:\Documents and Settings\Administrator\My Documents\Eigene Musik\Upload\Average White Band - Aftershock\02 - Sticky Situation.wav
Pre-gap length 0:00:00.25
Peak level 100.0 %
Track quality 100.0 %
Test CRC FCC7AC7F
Copy CRC FCC7AC7F
Track not present in AccurateRip database
Copy OK
Track 3
Filename C:\Documents and Settings\Administrator\My Documents\Eigene Musik\Upload\Average White Band - Aftershock\03 - Aftershock.wav
Pre-gap length 0:00:01.08
Peak level 89.6 %
Track quality 100.0 %
Test CRC F17894AA
Copy CRC F17894AA
Track not present in AccurateRip database
Copy OK
Track 4
Filename C:\Documents and Settings\Administrator\My Documents\Eigene Musik\Upload\Average White Band - Aftershock\04 - Love At First Sight.wav
Pre-gap length 0:00:03.28
Peak level 97.6 %
Track quality 99.9 %
Test CRC D46DEE4B
Copy CRC D46DEE4B
Track not present in AccurateRip database
Copy OK
Track 5
Filename C:\Documents and Settings\Administrator\My Documents\Eigene Musik\Upload\Average White Band - Aftershock\05 - I'll Get Over You.wav
Pre-gap length 0:00:02.25
Peak level 100.0 %
Track quality 100.0 %
Test CRC DEF25B5F
Copy CRC DEF25B5F
Track not present in AccurateRip database
Copy OK
Track 6
Filename C:\Documents and Settings\Administrator\My Documents\Eigene Musik\Upload\Average White Band - Aftershock\06 - Later We'll Be Greater.wav
Pre-gap length 0:00:02.25
Peak level 92.4 %
Track quality 99.9 %
Test CRC 65841793
Copy CRC 65841793
Track not present in AccurateRip database
Copy OK
Track 7
Filename C:\Documents and Settings\Administrator\My Documents\Eigene Musik\Upload\Average White Band - Aftershock\07 - Let's Go All The Way.wav
Pre-gap length 0:00:04.25
Peak level 85.2 %
Track quality 100.0 %
Test CRC 4A1A2139
Copy CRC 4A1A2139
Track not present in AccurateRip database
Copy OK
Track 8
Filename C:\Documents and Settings\Administrator\My Documents\Eigene Musik\Upload\Average White Band - Aftershock\08 - We're In Too Deep.wav
Pre-gap length 0:00:00.67
Peak level 90.4 %
Track quality 100.0 %
Test CRC 52117A34
Copy CRC 52117A34
Track not present in AccurateRip database
Copy OK
Track 9
Filename C:\Documents and Settings\Administrator\My Documents\Eigene Musik\Upload\Average White Band - Aftershock\09 - Stocky Sachoo-A-Shun.wav
Pre-gap length 0:00:02.13
Peak level 85.9 %
Track quality 100.0 %
Test CRC 55620CD2
Copy CRC 55620CD2
Track not present in AccurateRip database
Copy OK
None of the tracks are present in the AccurateRip database
No errors occurred
End of status report
 
cue
REM GENRE R&B
REM DATE 1989
REM DISCID 8108FA09
REM COMMENT "ExactAudioCopy v0.99pb4"
PERFORMER "Average White Band"
TITLE "Aftershock"
FILE "01 - The Spirit Of Love.wav" WAVE
TRACK 01 AUDIO
TITLE "The Spirit Of Love"
PERFORMER "Average White Band"
PREGAP 00:00:32
INDEX 01 00:00:00
TRACK 02 AUDIO
TITLE "Sticky Situation"
PERFORMER "Average White Band"
INDEX 00 04:14:70
FILE "02 - Sticky Situation.wav" WAVE
INDEX 01 00:00:00
TRACK 03 AUDIO
TITLE "Aftershock"
PERFORMER "Average White Band"
INDEX 00 04:40:45
FILE "03 - Aftershock.wav" WAVE
INDEX 01 00:00:00
TRACK 04 AUDIO
TITLE "Love At First Sight"
PERFORMER "Average White Band"
INDEX 00 04:11:14
FILE "04 - Love At First Sight.wav" WAVE
INDEX 01 00:00:00
TRACK 05 AUDIO
TITLE "I'll Get Over You"
PERFORMER "Average White Band"
INDEX 00 04:49:43
FILE "05 - I'll Get Over You.wav" WAVE
INDEX 01 00:00:00
TRACK 06 AUDIO
TITLE "Later We'll Be Greater"
PERFORMER "Average White Band"
INDEX 00 04:34:40
FILE "06 - Later We'll Be Greater.wav" WAVE
INDEX 01 00:00:00
TRACK 07 AUDIO
TITLE "Let's Go All The Way"
PERFORMER "Average White Band"
INDEX 00 03:54:55
FILE "07 - Let's Go All The Way.wav" WAVE
INDEX 01 00:00:00
TRACK 08 AUDIO
TITLE "We're In Too Deep"
PERFORMER "Average White Band"
INDEX 00 05:56:45
FILE "08 - We're In Too Deep.wav" WAVE
INDEX 01 00:00:00
TRACK 09 AUDIO
TITLE "Stocky Sachoo-A-Shun"
PERFORMER "Average White Band"
INDEX 00 03:55:65
FILE "09 - Stocky Sachoo-A-Shun.wav" WAVE
INDEX 01 00:00:00
Uploaded by frunen What.cd
Приватный:
Нет (DHT включён)
Размер:
244.59 Мб (256,469,653 байт) » файлов: 12
Участники:
0 раздают, 0 качают (0 участников всего)
Внешние участники:
1 раздают, 0 качают (1 участников всего) [ Обновить ]
Никого нет на раздаче - пишите личное сообщение M0p94ok
No seeders - write personal message to M0p94ok
04:19
19
Нет комментариев. Ваш будет первым!