Поиск

(funky soul, R&B) V.A. - Mellow Mellow: Original 1970s Smooth Grooves & Chilled Breaks - 2000, FLAC (tracks+.cue), lossless

(funky soul, R&B) V.A. - Mellow Mellow: Original 1970s Smooth Grooves & Chilled Breaks - 2000, FLAC (tracks+.cue), lossless
Треклист:
V.A. - Mellow Mellow: Original 1970s Smooth Grooves & Chilled Breaks
Жанр: funky soul, R&B
Год выпуска диска: 2000
Производитель диска: Harmless
Аудио кодек: FLAC
Тип рипа: tracks+.cue
Битрейт аудио: lossless
Продолжительность: 1:05:13
Трэклист:
1 Lowrell - Mellow Mellow, Right On
2 Barry White - Playing Your Game, Baby
3 Quincy Jones - Summer in the City
4 RAMP - Daylight
5 Sylvia Striplin - You Can't Turn Me Away
6 The Fatback Band - Feed Me Your Love
7 Al Green - I'm Glad You're Mine
8 RAMP - Everybody Loves the Sunshine
9 Curtis Mayfield - Tripping Out
10 Kool and The Gang - Summer Madness
11 Isaac Hayes - Ike's Mood 1
12 The Bar-Kays - Open Your Heart
 
EAC
X Lossless Decoder version 20080926 (93.3)
XLD extraction logfile from 2009-01-17 17:16:50 +0100
Various Artists / Mellow Mellow
Used drive : MATSHITA DVD-R UJ-85J (revision FCQA)
Use cdparanoia mode : YES (CDParanoia III 10.2 engine)
Disable audio cache : OK for the drive with cache less than 2750KB
Make use of C2 pointers : NO
Read offset correction : 102
Max retry count : 100
TOC of the extracted CD
Track | Start | Length | Start sector | End sector
---------------------------------------------------------
1 | 00:00:00 | 07:46:20 | 0 | 34969
2 | 07:46:20 | 07:06:55 | 34970 | 66974
3 | 14:53:00 | 04:21:27 | 66975 | 86576
4 | 19:14:27 | 04:11:63 | 86577 | 105464
5 | 23:26:15 | 05:31:30 | 105465 | 130319
6 | 28:57:45 | 03:50:02 | 130320 | 147571
7 | 32:47:47 | 02:52:70 | 147572 | 160541
8 | 35:40:42 | 03:43:08 | 160542 | 177274
9 | 39:23:50 | 06:57:37 | 177275 | 208586
10 | 46:21:12 | 08:02:73 | 208587 | 244809
11 | 54:24:10 | 06:34:10 | 244810 | 274369
12 | 60:58:20 | 04:14:25 | 274370 | 293444
List of alternate offset correction values
# | Absolute | Relative | Confidence
------------------------------------------
1 | 832 | 730 | 2
Track 01
Filename : /Users/macadmin/Desktop/flac/01 Various Artists - Mellow Mellow Right On.flac
CRC32 hash (test run) : 5E6EDA53
CRC32 hash : 5E6EDA53
CRC32 hash (skip zero) : 9866ABCF
AccurateRip signature : 45507C14
->Accurately ripped! (confidence 2)
(matched with the different offset correction value;
calculated using an additional offset of 730;
the signature after correction is: 49450C72)
Statistics
Read error : 0
Skipped (treated as error) : 0
Edge jitter error (maybe fixed) : 0
Atom jitter error (maybe fixed) : 0
Drift error (maybe fixed) : 0
Dropped bytes error (maybe fixed) : 0
Duplicated bytes error (maybe fixed) : 0
Inconsistency in error sectors : 0
Track 02
Filename : /Users/macadmin/Desktop/flac/02 Various Artists - Playing Your Game, Baby.flac
CRC32 hash (test run) : 281799FF
CRC32 hash : 281799FF
CRC32 hash (skip zero) : 16BD2D59
AccurateRip signature : EC8CE97F
->Accurately ripped! (confidence 2)
(matched with the different offset correction value;
calculated using an additional offset of 730;
the signature after correction is: F32880C5)
Statistics
Read error : 0
Skipped (treated as error) : 0
Edge jitter error (maybe fixed) : 1
Atom jitter error (maybe fixed) : 1
Drift error (maybe fixed) : 0
Dropped bytes error (maybe fixed) : 0
Duplicated bytes error (maybe fixed) : 0
Inconsistency in error sectors : 0
Track 03
Filename : /Users/macadmin/Desktop/flac/03 Various Artists - Summer In The City.flac
CRC32 hash (test run) : 419CBA20
CRC32 hash : 419CBA20
CRC32 hash (skip zero) : E86164F0
AccurateRip signature : 16A662CE
->Accurately ripped! (confidence 2)
(matched with the different offset correction value;
calculated using an additional offset of 730;
the signature after correction is: 5DF07046)
Statistics
Read error : 0
Skipped (treated as error) : 0
Edge jitter error (maybe fixed) : 0
Atom jitter error (maybe fixed) : 0
Drift error (maybe fixed) : 0
Dropped bytes error (maybe fixed) : 0
Duplicated bytes error (maybe fixed) : 0
Inconsistency in error sectors : 0
Track 04
Filename : /Users/macadmin/Desktop/flac/04 Various Artists - Daylight.flac
CRC32 hash (test run) : 621448CC
CRC32 hash : 621448CC
CRC32 hash (skip zero) : E7F1C32D
AccurateRip signature : 62D32FF3
->Accurately ripped! (confidence 2)
(matched with the different offset correction value;
calculated using an additional offset of 730;
the signature after correction is: B03A5787)
Statistics
Read error : 0
Skipped (treated as error) : 0
Edge jitter error (maybe fixed) : 0
Atom jitter error (maybe fixed) : 0
Drift error (maybe fixed) : 0
Dropped bytes error (maybe fixed) : 0
Duplicated bytes error (maybe fixed) : 0
Inconsistency in error sectors : 0
Track 05
Filename : /Users/macadmin/Desktop/flac/05 Various Artists - You Can't Turn Me Away.flac
CRC32 hash (test run) : C202E6C1
CRC32 hash : C202E6C1
CRC32 hash (skip zero) : A790876B
AccurateRip signature : 43B22155
->Accurately ripped! (confidence 2)
(matched with the different offset correction value;
calculated using an additional offset of 730;
the signature after correction is: 60B20601)
Statistics
Read error : 0
Skipped (treated as error) : 0
Edge jitter error (maybe fixed) : 0
Atom jitter error (maybe fixed) : 0
Drift error (maybe fixed) : 0
Dropped bytes error (maybe fixed) : 0
Duplicated bytes error (maybe fixed) : 0
Inconsistency in error sectors : 0
Track 06
Filename : /Users/macadmin/Desktop/flac/06 Various Artists - Feed Me Your Love.flac
CRC32 hash (test run) : 148B0EED
CRC32 hash : 148B0EED
CRC32 hash (skip zero) : A29E0898
AccurateRip signature : EB484DA4
->Accurately ripped! (confidence 2)
(matched with the different offset correction value;
calculated using an additional offset of 730;
the signature after correction is: 3529FDF4)
Statistics
Read error : 0
Skipped (treated as error) : 0
Edge jitter error (maybe fixed) : 0
Atom jitter error (maybe fixed) : 0
Drift error (maybe fixed) : 0
Dropped bytes error (maybe fixed) : 0
Duplicated bytes error (maybe fixed) : 0
Inconsistency in error sectors : 0
Track 07
Filename : /Users/macadmin/Desktop/flac/07 Various Artists - I'm Glad You're Mine.flac
CRC32 hash (test run) : 503ECFCB
CRC32 hash : 503ECFCB
CRC32 hash (skip zero) : B7356B86
AccurateRip signature : D368F9CF
->Accurately ripped! (confidence 2)
(matched with the different offset correction value;
calculated using an additional offset of 730;
the signature after correction is: AE78BB11)
Statistics
Read error : 0
Skipped (treated as error) : 0
Edge jitter error (maybe fixed) : 0
Atom jitter error (maybe fixed) : 0
Drift error (maybe fixed) : 0
Dropped bytes error (maybe fixed) : 0
Duplicated bytes error (maybe fixed) : 0
Inconsistency in error sectors : 0
Track 08
Filename : /Users/macadmin/Desktop/flac/08 Various Artists - Everybody Loves The Sunshine.flac
CRC32 hash (test run) : 00DEDE83
CRC32 hash : 00DEDE83
CRC32 hash (skip zero) : BE540BBC
AccurateRip signature : 37D7CFDE
->Accurately ripped! (confidence 2)
(matched with the different offset correction value;
calculated using an additional offset of 730;
the signature after correction is: 538629F2)
Statistics
Read error : 0
Skipped (treated as error) : 0
Edge jitter error (maybe fixed) : 0
Atom jitter error (maybe fixed) : 0
Drift error (maybe fixed) : 0
Dropped bytes error (maybe fixed) : 0
Duplicated bytes error (maybe fixed) : 0
Inconsistency in error sectors : 0
Track 09
Filename : /Users/macadmin/Desktop/flac/09 Various Artists - Tripping Out.flac
CRC32 hash (test run) : 164034AC
CRC32 hash : 164034AC
CRC32 hash (skip zero) : 36DFF843
AccurateRip signature : BE399A80
->Accurately ripped! (confidence 2)
(matched with the different offset correction value;
calculated using an additional offset of 730;
the signature after correction is: 3907A19C)
Statistics
Read error : 0
Skipped (treated as error) : 0
Edge jitter error (maybe fixed) : 0
Atom jitter error (maybe fixed) : 0
Drift error (maybe fixed) : 0
Dropped bytes error (maybe fixed) : 0
Duplicated bytes error (maybe fixed) : 0
Inconsistency in error sectors : 0
Track 10
Filename : /Users/macadmin/Desktop/flac/10 Various Artists - Summer Madness.flac
CRC32 hash (test run) : FC377ACE
CRC32 hash : FC377ACE
CRC32 hash (skip zero) : FF56288C
AccurateRip signature : 7501B62B
->Accurately ripped! (confidence 2)
(matched with the different offset correction value;
calculated using an additional offset of 730;
the signature after correction is: 6C2DDD69)
Statistics
Read error : 0
Skipped (treated as error) : 0
Edge jitter error (maybe fixed) : 0
Atom jitter error (maybe fixed) : 0
Drift error (maybe fixed) : 0
Dropped bytes error (maybe fixed) : 0
Duplicated bytes error (maybe fixed) : 0
Inconsistency in error sectors : 0
Track 11
Filename : /Users/macadmin/Desktop/flac/11 Various Artists - Ike's Mood 1.flac
CRC32 hash (test run) : B8A90714
CRC32 hash : B8A90714
CRC32 hash (skip zero) : 988EC9B0
AccurateRip signature : 031729D4
->Accurately ripped! (confidence 2)
(matched with the different offset correction value;
calculated using an additional offset of 730;
the signature after correction is: 02FE26BA)
Statistics
Read error : 0
Skipped (treated as error) : 0
Edge jitter error (maybe fixed) : 0
Atom jitter error (maybe fixed) : 0
Drift error (maybe fixed) : 0
Dropped bytes error (maybe fixed) : 0
Duplicated bytes error (maybe fixed) : 0
Inconsistency in error sectors : 0
Track 12
Filename : /Users/macadmin/Desktop/flac/12 Various Artists - Open Your Heart.flac
CRC32 hash (test run) : 6C87A5A2
CRC32 hash : 6C87A5A2
CRC32 hash (skip zero) : 2C09AFD6
AccurateRip signature : F3A4648B
->Accurately ripped! (confidence 2)
(matched with the different offset correction value;
calculated using an additional offset of 730;
the signature after correction is: 17B1A6E3)
Statistics
Read error : 0
Skipped (treated as error) : 0
Edge jitter error (maybe fixed) : 0
Atom jitter error (maybe fixed) : 0
Drift error (maybe fixed) : 0
Dropped bytes error (maybe fixed) : 0
Duplicated bytes error (maybe fixed) : 0
Inconsistency in error sectors : 0
No errors occurred
End of status report
 
cue
TITLE "Mellow Mellow"
REM GENRE "R&B"
REM DATE 2000
FILE "01 Various Artists - Mellow Mellow Right On.wav" WAVE
TRACK 01 AUDIO
TITLE "Mellow Mellow Right On"
PERFORMER "Various Artists"
INDEX 01 00:00:00
FILE "02 Various Artists - Playing Your Game, Baby.wav" WAVE
TRACK 02 AUDIO
TITLE "Playing Your Game, Baby"
PERFORMER "Various Artists"
INDEX 01 00:00:00
FILE "03 Various Artists - Summer In The City.wav" WAVE
TRACK 03 AUDIO
TITLE "Summer In The City"
PERFORMER "Various Artists"
INDEX 01 00:00:00
FILE "04 Various Artists - Daylight.wav" WAVE
TRACK 04 AUDIO
TITLE "Daylight"
PERFORMER "Various Artists"
INDEX 01 00:00:00
FILE "05 Various Artists - You Can't Turn Me Away.wav" WAVE
TRACK 05 AUDIO
TITLE "You Can't Turn Me Away"
PERFORMER "Various Artists"
INDEX 01 00:00:00
FILE "06 Various Artists - Feed Me Your Love.wav" WAVE
TRACK 06 AUDIO
TITLE "Feed Me Your Love"
PERFORMER "Various Artists"
INDEX 01 00:00:00
FILE "07 Various Artists - I'm Glad You're Mine.wav" WAVE
TRACK 07 AUDIO
TITLE "I'm Glad You're Mine"
PERFORMER "Various Artists"
INDEX 01 00:00:00
FILE "08 Various Artists - Everybody Loves The Sunshine.wav" WAVE
TRACK 08 AUDIO
TITLE "Everybody Loves The Sunshine"
PERFORMER "Various Artists"
INDEX 01 00:00:00
FILE "09 Various Artists - Tripping Out.wav" WAVE
TRACK 09 AUDIO
TITLE "Tripping Out"
PERFORMER "Various Artists"
INDEX 01 00:00:00
FILE "10 Various Artists - Summer Madness.wav" WAVE
TRACK 10 AUDIO
TITLE "Summer Madness"
PERFORMER "Various Artists"
INDEX 01 00:00:00
FILE "11 Various Artists - Ike's Mood 1.wav" WAVE
TRACK 11 AUDIO
TITLE "Ike's Mood 1"
PERFORMER "Various Artists"
INDEX 01 00:00:00
FILE "12 Various Artists - Open Your Heart.wav" WAVE
TRACK 12 AUDIO
TITLE "Open Your Heart"
PERFORMER "Various Artists"
INDEX 01 00:00:00
Uploaded by tr0nic What.cd
Приватный:
Нет (DHT включён)
Размер:
384.41 Мб (403,088,007 байт) » файлов: 15
Участники:
0 раздают, 0 качают (0 участников всего)
Внешние участники:
3 раздают, 1 качают (4 участников всего) [ Обновить ]
Никого нет на раздаче - пишите личное сообщение M0p94ok
No seeders - write personal message to M0p94ok
04:19
12
Нет комментариев. Ваш будет первым!