Поиск

(R&B/Soul) Marvin Gaye - Let's Get It On (Deluxe Edition Japan SHM-CD) - 2009, FLAC (tracks+.cue), lossless

(R&B/Soul) Marvin Gaye - Let's Get It On (Deluxe Edition Japan SHM-CD) - 2009, FLAC (tracks+.cue), lossless
Треклист:
Marvin Gaye - Let's Get It On (Deluxe Edition Japan SHM-CD)
Жанр: R&B/Soul
Год выпуска диска: 2009
Производитель диска: Japan
Аудио кодек: FLAC
Тип рипа: tracks+.cue
Битрейт аудио: lossless
Трэклист:
Original album & sessions (Disc one)
"Let's Get It On" (Gaye, Townsend) – 4:51
"Please Stay (Once You Go Away)" (Gaye, Townsend) – 3:27
"If I Should Die Tonight" (Gaye, Townsend) – 4:01
"Keep Getting' It On" (Gaye, Townsend) – 3:13
"Come Get to This" (Gaye) – 2:41
"Distant Lover" (Gaye, G. Gordy, Greene) – 4:17
"You Sure Love to Ball" (Gaye) – 4:46
"Just to Keep You Satisfied" (Gaye, Gordy-Gaye, Stover) – 4:27
"Song #3" (instrumental) (DePitte, Gaye) – 5:28
"My Love Is Growing" (Gaye) – 4:20
"Cakes" (DePitte, Gaye) – 3:14
"Symphony" (undubbed version) (Gaye, Robinson) – 2:51
"I'd Give My Life for You" (alternate mix) (Gaye) – 3:29
"I Love You Secretly" (The Miracles version) (Gaye, Gordy-Gaye, E. Stover) – 4:18
"You're the Man" (alternate version 1) (K. Stover, Gaye) – 7:24
"You're the Man" (alternate version 2) (K. Stover, Gaye) – 4:44
"Symphony" (demo vocal) (Gaye, Robinson) – 2:48
Demos, alternate mixes & more (Disc two)
"Let's Get It On" (demo) (Gaye, Townsend) – 5:12
"Let's Get It On, Pt. 2" (aka "Keep Gettin' It On") (Gaye, Townsend) – 3:13
"Please Stay (Once You Go Away)" (alternate mix) (Gaye, Townsend) – 3:52
"If I Should Die Tonight" (demo) (Gaye, Townsend) – 4:13
"Come Get to This" (alternate mix) (Gaye) – 3:07
"Distant Lover" (alternate mix) (G. Fuqua, Gaye, Greene) – 4:32
"You Sure Love to Ball" (alternate mix w/alternate vocal) (Gaye) – 5:06
"Just to Keep You Satisfied" (a capella w/alternate vocal) (Gaye, Gordy-Gaye, Stover) – 4:38
"Just to Keep You Satisfied" (The Originals 1970 version) (Gaye, Gordy-Gaye, Stover) – 4:00
"Just to Keep You Satisfied" (The Monitors 1968 version) (Gaye, Gordy-Gaye, Stover) – 3:10
"Where Are We Going?" (alternate mix) (Gordon, Mizell) – 3:56
"The World Is Rated X" (alternate mix) (Bolton, Bolton, Gordy, McLeod) – 3:52
"I'm Gonna Give You Respect" (Hutch) – 2:56
"Try It, You'll Like It" (Hutch, Wakefield) – 3:57
"You Are That Special One" (Hutch) – 3:38
"We Can Make It Baby" (Hutch) – 3:22
"Running from Love" (instrumental version 1) (Bohannon, Gaye, Henderson) – 3:47
"Mandota" (Bohannon, Gaye) – 3:26
"Running from Love" (instrumental version 2) (Bohannon, Gaye, Henderson) – 3:54
"Come Get to This" (live from Oakland) (Gaye) – 3:00
 
CD1: XLD Log
X Lossless Decoder version 20100323 (116.7)
XLD extraction logfile from 2010-04-16 19:42:42 +0600
Marvin Gaye / Let's Get It On [Deluxe Edition]
Used drive : OPTIARC DVD RW AD-5670S (revision 2AHH)
Use cdparanoia mode : YES (CDParanoia III 10.2 engine)
Disable audio cache : OK for the drive with cache less than 2750KB
Make use of C2 pointers : NO
Read offset correction : 48
Max retry count : 100
TOC of the extracted CD
Track | Start | Length | Start sector | End sector
---------------------------------------------------------
1 | 00:00:00 | 04:50:70 | 0 | 21819
2 | 04:50:70 | 03:30:00 | 21820 | 37569
3 | 08:20:70 | 03:59:65 | 37570 | 55559
4 | 12:20:60 | 03:15:42 | 55560 | 70226
5 | 15:36:27 | 02:40:63 | 70227 | 82289
6 | 18:17:15 | 04:16:00 | 82290 | 101489
7 | 22:33:15 | 04:44:12 | 101490 | 122801
8 | 27:17:27 | 04:30:25 | 122802 | 143076
9 | 31:47:52 | 05:28:50 | 143077 | 167726
10 | 37:16:27 | 04:20:35 | 167727 | 187261
11 | 41:36:62 | 03:14:50 | 187262 | 201861
12 | 44:51:37 | 02:51:38 | 201862 | 214724
13 | 47:43:00 | 03:29:00 | 214725 | 230399
14 | 51:12:00 | 04:18:67 | 230400 | 249816
15 | 55:30:67 | 07:24:00 | 249817 | 283116
16 | 62:54:67 | 04:44:33 | 283117 | 304449
17 | 67:39:25 | 02:48:42 | 304450 | 317091
List of alternate offset correction values
# | Absolute | Relative | Confidence
------------------------------------------
1 | 712 | 664 | 30
Track 01
Filename : /Users/gubarenko/Desktop/Compilations - Let's Get It On [Deluxe Edition]/01 - Let's Get It On.flac
Pre-gap length : 00:02:00
CRC32 hash (test run) : 33A8510A
CRC32 hash : 33A8510A
CRC32 hash (skip zero) : 322A53FD
AccurateRip signature : 73113BEC
->Accurately ripped! (confidence 8)
Statistics
Read error : 0
Skipped (treated as error) : 0
Edge jitter error (maybe fixed) : 0
Atom jitter error (maybe fixed) : 0
Drift error (maybe fixed) : 0
Dropped bytes error (maybe fixed) : 0
Duplicated bytes error (maybe fixed) : 0
Inconsistency in error sectors : 0
Track 02
Filename : /Users/gubarenko/Desktop/Compilations - Let's Get It On [Deluxe Edition]/02 - Please Stay (Once Your Away).flac
Pre-gap length : 00:00:08
CRC32 hash (test run) : CE377F9B
CRC32 hash : CE377F9B
CRC32 hash (skip zero) : 7467BCFA
AccurateRip signature : 444CCE1B
->Accurately ripped! (confidence 8)
Statistics
Read error : 0
Skipped (treated as error) : 0
Edge jitter error (maybe fixed) : 0
Atom jitter error (maybe fixed) : 0
Drift error (maybe fixed) : 0
Dropped bytes error (maybe fixed) : 0
Duplicated bytes error (maybe fixed) : 0
Inconsistency in error sectors : 0
Track 03
Filename : /Users/gubarenko/Desktop/Compilations - Let's Get It On [Deluxe Edition]/03 - If I Should Die Tonight.flac
Pre-gap length : 00:00:08
CRC32 hash (test run) : 34FBE3B1
CRC32 hash : 34FBE3B1
CRC32 hash (skip zero) : 9C72DAB9
AccurateRip signature : 6FA227C1
->Accurately ripped! (confidence 8)
Statistics
Read error : 0
Skipped (treated as error) : 0
Edge jitter error (maybe fixed) : 0
Atom jitter error (maybe fixed) : 0
Drift error (maybe fixed) : 0
Dropped bytes error (maybe fixed) : 0
Duplicated bytes error (maybe fixed) : 0
Inconsistency in error sectors : 0
Track 04
Filename : /Users/gubarenko/Desktop/Compilations - Let's Get It On [Deluxe Edition]/04 - Keep Gettin' It On.flac
Pre-gap length : 00:00:08
CRC32 hash (test run) : 2A3BC246
CRC32 hash : 2A3BC246
CRC32 hash (skip zero) : 87E3C7DC
AccurateRip signature : FA265EAD
->Accurately ripped! (confidence 8)
Statistics
Read error : 0
Skipped (treated as error) : 0
Edge jitter error (maybe fixed) : 0
Atom jitter error (maybe fixed) : 1
Drift error (maybe fixed) : 0
Dropped bytes error (maybe fixed) : 0
Duplicated bytes error (maybe fixed) : 0
Inconsistency in error sectors : 0
Track 05
Filename : /Users/gubarenko/Desktop/Compilations - Let's Get It On [Deluxe Edition]/05 - Come Get To This.flac
Pre-gap length : 00:03:45
CRC32 hash (test run) : 76103DE6
CRC32 hash : 76103DE6
CRC32 hash (skip zero) : EC01D68D
AccurateRip signature : 4F61ECF3
->Accurately ripped! (confidence 8)
Statistics
Read error : 0
Skipped (treated as error) : 0
Edge jitter error (maybe fixed) : 0
Atom jitter error (maybe fixed) : 0
Drift error (maybe fixed) : 0
Dropped bytes error (maybe fixed) : 0
Duplicated bytes error (maybe fixed) : 0
Inconsistency in error sectors : 0
Track 06
Filename : /Users/gubarenko/Desktop/Compilations - Let's Get It On [Deluxe Edition]/06 - Distant Lover.flac
Pre-gap length : 00:00:65
CRC32 hash (test run) : 1F8EE67F
CRC32 hash : 1F8EE67F
CRC32 hash (skip zero) : 9836104E
AccurateRip signature : 9C20D45E
->Accurately ripped! (confidence 8)
Statistics
Read error : 0
Skipped (treated as error) : 0
Edge jitter error (maybe fixed) : 0
Atom jitter error (maybe fixed) : 0
Drift error (maybe fixed) : 0
Dropped bytes error (maybe fixed) : 0
Duplicated bytes error (maybe fixed) : 0
Inconsistency in error sectors : 0
Track 07
Filename : /Users/gubarenko/Desktop/Compilations - Let's Get It On [Deluxe Edition]/07 - You Sure Love To Ball.flac
Pre-gap length : 00:00:10
CRC32 hash (test run) : 38B6AF9A
CRC32 hash : 38B6AF9A
CRC32 hash (skip zero) : 32BDA9C4
AccurateRip signature : D64DBA4A
->Accurately ripped! (confidence 8)
Statistics
Read error : 0
Skipped (treated as error) : 0
Edge jitter error (maybe fixed) : 0
Atom jitter error (maybe fixed) : 0
Drift error (maybe fixed) : 0
Dropped bytes error (maybe fixed) : 0
Duplicated bytes error (maybe fixed) : 0
Inconsistency in error sectors : 0
Track 08
Filename : /Users/gubarenko/Desktop/Compilations - Let's Get It On [Deluxe Edition]/08 - Just To Keep You Satisfied.flac
Pre-gap length : 00:01:15
CRC32 hash (test run) : 38AB07FF
CRC32 hash : 38AB07FF
CRC32 hash (skip zero) : 99703340
AccurateRip signature : BE20EF95
->Accurately ripped! (confidence 7)
Statistics
Read error : 0
Skipped (treated as error) : 0
Edge jitter error (maybe fixed) : 0
Atom jitter error (maybe fixed) : 0
Drift error (maybe fixed) : 0
Dropped bytes error (maybe fixed) : 0
Duplicated bytes error (maybe fixed) : 0
Inconsistency in error sectors : 0
Track 09
Filename : /Users/gubarenko/Desktop/Compilations - Let's Get It On [Deluxe Edition]/09 - 'Song #3' (Instrumental).flac
Pre-gap length : 00:04:40
CRC32 hash (test run) : 14464FBB
CRC32 hash : 14464FBB
CRC32 hash (skip zero) : DE685139
AccurateRip signature : 178BCF97
->Accurately ripped! (confidence 7)
Statistics
Read error : 0
Skipped (treated as error) : 0
Edge jitter error (maybe fixed) : 0
Atom jitter error (maybe fixed) : 0
Drift error (maybe fixed) : 0
Dropped bytes error (maybe fixed) : 0
Duplicated bytes error (maybe fixed) : 0
Inconsistency in error sectors : 0
Track 10
Filename : /Users/gubarenko/Desktop/Compilations - Let's Get It On [Deluxe Edition]/10 - My Love Is Growing.flac
Pre-gap length : 00:09:10
CRC32 hash (test run) : A564A404
CRC32 hash : A564A404
CRC32 hash (skip zero) : 1AA87183
AccurateRip signature : A7F03791
->Accurately ripped! (confidence 7)
Statistics
Read error : 0
Skipped (treated as error) : 0
Edge jitter error (maybe fixed) : 0
Atom jitter error (maybe fixed) : 0
Drift error (maybe fixed) : 0
Dropped bytes error (maybe fixed) : 0
Duplicated bytes error (maybe fixed) : 0
Inconsistency in error sectors : 0
Track 11
Filename : /Users/gubarenko/Desktop/Compilations - Let's Get It On [Deluxe Edition]/11 - Cakes (Instrumental).flac
Pre-gap length : 00:05:52
CRC32 hash (test run) : 646EEBFC
CRC32 hash : 646EEBFC
CRC32 hash (skip zero) : 0A1459FD
AccurateRip signature : BEB0080E
->Accurately ripped! (confidence 8)
Statistics
Read error : 0
Skipped (treated as error) : 0
Edge jitter error (maybe fixed) : 0
Atom jitter error (maybe fixed) : 0
Drift error (maybe fixed) : 0
Dropped bytes error (maybe fixed) : 0
Duplicated bytes error (maybe fixed) : 0
Inconsistency in error sectors : 0
Track 12
Filename : /Users/gubarenko/Desktop/Compilations - Let's Get It On [Deluxe Edition]/12 - Symphony - Undubbed Version.flac
Pre-gap length : 00:02:27
CRC32 hash (test run) : 816EE008
CRC32 hash : 816EE008
CRC32 hash (skip zero) : C7A482BA
AccurateRip signature : F7E44968
->Accurately ripped! (confidence 8)
Statistics
Read error : 0
Skipped (treated as error) : 0
Edge jitter error (maybe fixed) : 0
Atom jitter error (maybe fixed) : 0
Drift error (maybe fixed) : 0
Dropped bytes error (maybe fixed) : 0
Duplicated bytes error (maybe fixed) : 0
Inconsistency in error sectors : 0
Track 13
Filename : /Users/gubarenko/Desktop/Compilations - Let's Get It On [Deluxe Edition]/13 - I'd Give My Life For You - Alternate Mix.flac
Pre-gap length : 00:02:70
CRC32 hash (test run) : 6D0505BA
CRC32 hash : 6D0505BA
CRC32 hash (skip zero) : A2619119
AccurateRip signature : 9A4C2514
->Accurately ripped! (confidence 8)
Statistics
Read error : 0
Skipped (treated as error) : 0
Edge jitter error (maybe fixed) : 0
Atom jitter error (maybe fixed) : 0
Drift error (maybe fixed) : 0
Dropped bytes error (maybe fixed) : 0
Duplicated bytes error (maybe fixed) : 0
Inconsistency in error sectors : 0
Track 14
Filename : /Users/gubarenko/Desktop/Compilations - Let's Get It On [Deluxe Edition]/14 - The Miracles.flac
Pre-gap length : 00:00:10
CRC32 hash (test run) : 08820349
CRC32 hash : 08820349
CRC32 hash (skip zero) : AA2447AD
AccurateRip signature : 93EDEE60
->Accurately ripped! (confidence 8)
Statistics
Read error : 0
Skipped (treated as error) : 0
Edge jitter error (maybe fixed) : 0
Atom jitter error (maybe fixed) : 0
Drift error (maybe fixed) : 0
Dropped bytes error (maybe fixed) : 0
Duplicated bytes error (maybe fixed) : 0
Inconsistency in error sectors : 0
Track 15
Filename : /Users/gubarenko/Desktop/Compilations - Let's Get It On [Deluxe Edition]/15 - You're The Man - Alternate Version 1.flac
Pre-gap length : 00:01:65
CRC32 hash (test run) : E982E1C4
CRC32 hash : E982E1C4
CRC32 hash (skip zero) : FA2BD072
AccurateRip signature : 4A032268
->Accurately ripped! (confidence 8)
Statistics
Read error : 0
Skipped (treated as error) : 0
Edge jitter error (maybe fixed) : 0
Atom jitter error (maybe fixed) : 0
Drift error (maybe fixed) : 0
Dropped bytes error (maybe fixed) : 0
Duplicated bytes error (maybe fixed) : 0
Inconsistency in error sectors : 0
Track 16
Filename : /Users/gubarenko/Desktop/Compilations - Let's Get It On [Deluxe Edition]/16 - You're The Man - Alternate Version 2.flac
Pre-gap length : 00:02:20
CRC32 hash (test run) : 178C64DF
CRC32 hash : 178C64DF
CRC32 hash (skip zero) : FD622B70
AccurateRip signature : 332A8DF2
->Accurately ripped! (confidence 8)
Statistics
Read error : 0
Skipped (treated as error) : 0
Edge jitter error (maybe fixed) : 0
Atom jitter error (maybe fixed) : 0
Drift error (maybe fixed) : 0
Dropped bytes error (maybe fixed) : 0
Duplicated bytes error (maybe fixed) : 0
Inconsistency in error sectors : 0
Track 17
Filename : /Users/gubarenko/Desktop/Compilations - Let's Get It On [Deluxe Edition]/17 - Symphony - Demo Vocal.flac
Pre-gap length : 00:04:30
CRC32 hash (test run) : 6DAAD2D6
CRC32 hash : 6DAAD2D6
CRC32 hash (skip zero) : B9D3F97D
AccurateRip signature : 9A8696ED
->Accurately ripped! (confidence 8)
Statistics
Read error : 0
Skipped (treated as error) : 0
Edge jitter error (maybe fixed) : 0
Atom jitter error (maybe fixed) : 0
Drift error (maybe fixed) : 0
Dropped bytes error (maybe fixed) : 0
Duplicated bytes error (maybe fixed) : 0
Inconsistency in error sectors : 0
No errors occurred
End of status report
 
CD1: CUE
TITLE "Let's Get It On [Deluxe Edition]"
CATALOG 0044001475825
REM GENRE "Motown"
REM DATE 1973
FILE "01 - Let's Get It On.wav" WAVE
TRACK 01 AUDIO
TITLE "Let's Get It On"
PERFORMER "Marvin Gaye"
ISRC USMO17300037
INDEX 01 00:00:00
TRACK 02 AUDIO
TITLE "Please Stay (Once Your Away)"
PERFORMER "Marvin Gaye"
ISRC USMO17300038
INDEX 00 04:50:62
FILE "02 - Please Stay (Once Your Away).wav" WAVE
INDEX 01 00:00:00
TRACK 03 AUDIO
TITLE "If I Should Die Tonight"
PERFORMER "Marvin Gaye"
ISRC USMO17300039
INDEX 00 03:29:67
FILE "03 - If I Should Die Tonight.wav" WAVE
INDEX 01 00:00:00
TRACK 04 AUDIO
TITLE "Keep Gettin' It On"
PERFORMER "Marvin Gaye"
ISRC USMO17300040
INDEX 00 03:59:57
FILE "04 - Keep Gettin' It On.wav" WAVE
INDEX 01 00:00:00
TRACK 05 AUDIO
TITLE "Come Get To This"
PERFORMER "Marvin Gaye"
ISRC USMO17300041
INDEX 00 03:11:72
FILE "05 - Come Get To This.wav" WAVE
INDEX 01 00:00:00
TRACK 06 AUDIO
TITLE "Distant Lover"
PERFORMER "Marvin Gaye"
ISRC USMO17300042
INDEX 00 02:39:73
FILE "06 - Distant Lover.wav" WAVE
INDEX 01 00:00:00
TRACK 07 AUDIO
TITLE "You Sure Love To Ball"
PERFORMER "Marvin Gaye"
ISRC USMO17300043
INDEX 00 04:15:65
FILE "07 - You Sure Love To Ball.wav" WAVE
INDEX 01 00:00:00
TRACK 08 AUDIO
TITLE "Just To Keep You Satisfied"
PERFORMER "Marvin Gaye"
ISRC USMO10110921
INDEX 00 04:42:72
FILE "08 - Just To Keep You Satisfied.wav" WAVE
INDEX 01 00:00:00
TRACK 09 AUDIO
TITLE "'Song #3' (Instrumental)"
PERFORMER "Marvin Gaye"
ISRC USMO10110921
INDEX 00 04:25:60
FILE "09 - 'Song #3' (Instrumental).wav" WAVE
INDEX 01 00:00:00
TRACK 10 AUDIO
TITLE "My Love Is Growing"
PERFORMER "Marvin Gaye"
ISRC USMO10110922
INDEX 00 05:19:40
FILE "10 - My Love Is Growing.wav" WAVE
INDEX 01 00:00:00
TRACK 11 AUDIO
TITLE "Cakes (Instrumental)"
PERFORMER "Marvin Gaye"
ISRC USMO10110922
INDEX 00 04:14:58
FILE "11 - Cakes (Instrumental).wav" WAVE
INDEX 01 00:00:00
TRACK 12 AUDIO
TITLE "Symphony - Undubbed Version"
PERFORMER "Marvin Gaye"
ISRC USMO10110939
INDEX 00 03:12:23
FILE "12 - Symphony - Undubbed Version.wav" WAVE
INDEX 01 00:00:00
TRACK 13 AUDIO
TITLE "I'd Give My Life For You - Alternate Mix"
PERFORMER "Marvin Gaye"
ISRC USMO10110926
INDEX 00 02:48:43
FILE "13 - I'd Give My Life For You - Alternate Mix.wav" WAVE
INDEX 01 00:00:00
TRACK 14 AUDIO
TITLE "The Miracles"
PERFORMER "I Love You Secretly"
ISRC USMO17382644
INDEX 00 03:28:65
FILE "14 - The Miracles.wav" WAVE
INDEX 01 00:00:00
TRACK 15 AUDIO
TITLE "You're The Man - Alternate Version 1"
PERFORMER "Marvin Gaye"
ISRC USMO10110947
INDEX 00 04:17:02
FILE "15 - You're The Man - Alternate Version 1.wav" WAVE
INDEX 01 00:00:00
TRACK 16 AUDIO
TITLE "You're The Man - Alternate Version 2"
PERFORMER "Marvin Gaye"
ISRC USMO10110940
INDEX 00 07:21:55
FILE "16 - You're The Man - Alternate Version 2.wav" WAVE
INDEX 01 00:00:00
TRACK 17 AUDIO
TITLE "Symphony - Demo Vocal"
PERFORMER "Marvin Gaye"
ISRC USMO10110940
INDEX 00 04:40:03
FILE "17 - Symphony - Demo Vocal.wav" WAVE
INDEX 01 00:00:00
 
CD2: XLD Log
X Lossless Decoder version 20100323 (116.7)
XLD extraction logfile from 2010-04-16 21:16:18 +0600
Различные исполнители / Let's Get It On (disc 2)
Used drive : OPTIARC DVD RW AD-5670S (revision 2AHH)
Use cdparanoia mode : YES (CDParanoia III 10.2 engine)
Disable audio cache : OK for the drive with cache less than 2750KB
Make use of C2 pointers : NO
Read offset correction : 48
Max retry count : 100
TOC of the extracted CD
Track | Start | Length | Start sector | End sector
---------------------------------------------------------
1 | 00:00:00 | 05:12:10 | 0 | 23409
2 | 05:12:10 | 03:13:05 | 23410 | 37889
3 | 08:25:15 | 03:52:60 | 37890 | 55349
4 | 12:18:00 | 04:13:05 | 55350 | 74329
5 | 16:31:05 | 03:07:70 | 74330 | 88424
6 | 19:39:00 | 04:32:67 | 88425 | 108891
7 | 24:11:67 | 05:06:23 | 108892 | 131864
8 | 29:18:15 | 04:38:50 | 131865 | 152764
9 | 33:56:65 | 04:00:50 | 152765 | 170814
10 | 37:57:40 | 03:10:45 | 170815 | 185109
11 | 41:08:10 | 03:56:02 | 185110 | 202811
12 | 45:04:12 | 03:52:23 | 202812 | 220234
13 | 48:56:35 | 02:56:27 | 220235 | 233461
14 | 51:52:62 | 03:57:33 | 233462 | 251269
15 | 55:50:20 | 03:38:02 | 251270 | 267621
16 | 59:28:22 | 03:22:33 | 267622 | 282804
17 | 62:50:55 | 03:47:30 | 282805 | 299859
18 | 66:38:10 | 03:26:32 | 299860 | 315341
19 | 70:04:42 | 03:54:73 | 315342 | 332964
20 | 73:59:40 | 03:00:27 | 332965 | 346491
List of alternate offset correction values
# | Absolute | Relative | Confidence
------------------------------------------
1 | 134 | 86 | 6
Track 01
Filename : /Users/gubarenko/Desktop/Compilations - Let's Get It On (disc 2)/01 - Let's Get It On (demo).flac
Pre-gap length : 00:02:00
CRC32 hash (test run) : 6F717921
CRC32 hash : 6F717921
CRC32 hash (skip zero) : EF5940F1
AccurateRip signature : 03D4F01A
->Accurately ripped! (confidence 6)
(matched with the different offset correction value;
calculated using an additional offset of 86;
the signature after correction is: B10A2B3B)
Statistics
Read error : 0
Skipped (treated as error) : 0
Edge jitter error (maybe fixed) : 0
Atom jitter error (maybe fixed) : 0
Drift error (maybe fixed) : 0
Dropped bytes error (maybe fixed) : 0
Duplicated bytes error (maybe fixed) : 0
Inconsistency in error sectors : 0
Track 02
Filename : /Users/gubarenko/Desktop/Compilations - Let's Get It On (disc 2)/02 - Let's Get It On, Part II A.K.A. Keep Gettin' It On (complete).flac
Pre-gap length : 00:00:03
CRC32 hash (test run) : 8448BFED
CRC32 hash : 8448BFED
CRC32 hash (skip zero) : C36132C5
AccurateRip signature : A6E7264F
->Accurately ripped! (confidence 6)
(matched with the different offset correction value;
calculated using an additional offset of 86;
the signature after correction is: C67F1BF6)
Statistics
Read error : 0
Skipped (treated as error) : 0
Edge jitter error (maybe fixed) : 0
Atom jitter error (maybe fixed) : 0
Drift error (maybe fixed) : 0
Dropped bytes error (maybe fixed) : 0
Duplicated bytes error (maybe fixed) : 0
Inconsistency in error sectors : 0
Track 03
Filename : /Users/gubarenko/Desktop/Compilations - Let's Get It On (disc 2)/03 - Please Stay (Once You Go Away) (alternate mix).flac
Pre-gap length : 00:02:13
CRC32 hash (test run) : E3FB09F0
CRC32 hash : E3FB09F0
CRC32 hash (skip zero) : 24CCFC54
AccurateRip signature : 25D349D1
->Accurately ripped! (confidence 6)
(matched with the different offset correction value;
calculated using an additional offset of 86;
the signature after correction is: DB144918)
Statistics
Read error : 0
Skipped (treated as error) : 0
Edge jitter error (maybe fixed) : 0
Atom jitter error (maybe fixed) : 0
Drift error (maybe fixed) : 0
Dropped bytes error (maybe fixed) : 0
Duplicated bytes error (maybe fixed) : 0
Inconsistency in error sectors : 0
Track 04
Filename : /Users/gubarenko/Desktop/Compilations - Let's Get It On (disc 2)/04 - If I Should Die Tonight (demo).flac
Pre-gap length : 00:10:00
CRC32 hash (test run) : 13C88D3D
CRC32 hash : 13C88D3D
CRC32 hash (skip zero) : AF612CE2
AccurateRip signature : 4654CCD0
->Accurately ripped! (confidence 6)
(matched with the different offset correction value;
calculated using an additional offset of 86;
the signature after correction is: 4071C79D)
Statistics
Read error : 0
Skipped (treated as error) : 0
Edge jitter error (maybe fixed) : 0
Atom jitter error (maybe fixed) : 0
Drift error (maybe fixed) : 0
Dropped bytes error (maybe fixed) : 0
Duplicated bytes error (maybe fixed) : 0
Inconsistency in error sectors : 0
Track 05
Filename : /Users/gubarenko/Desktop/Compilations - Let's Get It On (disc 2)/05 - Come Get to This (alternate mix).flac
Pre-gap length : 00:05:05
CRC32 hash (test run) : D69ABD33
CRC32 hash : D69ABD33
CRC32 hash (skip zero) : 0933832E
AccurateRip signature : 04F9D8D2
->Accurately ripped! (confidence 6)
(matched with the different offset correction value;
calculated using an additional offset of 86;
the signature after correction is: 4AD074CA)
Statistics
Read error : 0
Skipped (treated as error) : 0
Edge jitter error (maybe fixed) : 0
Atom jitter error (maybe fixed) : 0
Drift error (maybe fixed) : 0
Dropped bytes error (maybe fixed) : 0
Duplicated bytes error (maybe fixed) : 0
Inconsistency in error sectors : 0
Track 06
Filename : /Users/gubarenko/Desktop/Compilations - Let's Get It On (disc 2)/06 - Distant Lover (alternate mix).flac
Pre-gap length : 00:23:53
CRC32 hash (test run) : 43D0C4D6
CRC32 hash : 43D0C4D6
CRC32 hash (skip zero) : F26C3DA8
AccurateRip signature : F393EED4
->Accurately ripped! (confidence 6)
(matched with the different offset correction value;
calculated using an additional offset of 86;
the signature after correction is: A2A5505A)
Statistics
Read error : 0
Skipped (treated as error) : 0
Edge jitter error (maybe fixed) : 0
Atom jitter error (maybe fixed) : 0
Drift error (maybe fixed) : 0
Dropped bytes error (maybe fixed) : 0
Duplicated bytes error (maybe fixed) : 0
Inconsistency in error sectors : 0
Track 07
Filename : /Users/gubarenko/Desktop/Compilations - Let's Get It On (disc 2)/07 - You Sure Love to Ball (alternate mix with alternate vocal).flac
Pre-gap length : 00:06:20
CRC32 hash (test run) : AA21D218
CRC32 hash : AA21D218
CRC32 hash (skip zero) : B8782541
AccurateRip signature : 0A268F5B
->Accurately ripped! (confidence 6)
(matched with the different offset correction value;
calculated using an additional offset of 86;
the signature after correction is: C5DF8DB1)
Statistics
Read error : 0
Skipped (treated as error) : 0
Edge jitter error (maybe fixed) : 0
Atom jitter error (maybe fixed) : 0
Drift error (maybe fixed) : 0
Dropped bytes error (maybe fixed) : 0
Duplicated bytes error (maybe fixed) : 0
Inconsistency in error sectors : 0
Track 08
Filename : /Users/gubarenko/Desktop/Compilations - Let's Get It On (disc 2)/08 - Just to Keep You Satisfied (a cappella with alternate vocal).flac
Pre-gap length : 00:02:48
CRC32 hash (test run) : 977AA77E
CRC32 hash : 977AA77E
CRC32 hash (skip zero) : E413A8E9
AccurateRip signature : 248DD63B
->Accurately ripped! (confidence 6)
(matched with the different offset correction value;
calculated using an additional offset of 86;
the signature after correction is: 76C2AA8F)
Statistics
Read error : 0
Skipped (treated as error) : 0
Edge jitter error (maybe fixed) : 0
Atom jitter error (maybe fixed) : 0
Drift error (maybe fixed) : 0
Dropped bytes error (maybe fixed) : 0
Duplicated bytes error (maybe fixed) : 0
Inconsistency in error sectors : 0
Track 09
Filename : /Users/gubarenko/Desktop/Compilations - Let's Get It On (disc 2)/09 - Just to Keep You Satisfied.flac
Pre-gap length : 00:05:28
CRC32 hash (test run) : D652F2F2
CRC32 hash : D652F2F2
CRC32 hash (skip zero) : CC8F53F9
AccurateRip signature : BCD3F2A8
->Accurately ripped! (confidence 6)
(matched with the different offset correction value;
calculated using an additional offset of 86;
the signature after correction is: E44FDC48)
Statistics
Read error : 0
Skipped (treated as error) : 0
Edge jitter error (maybe fixed) : 0
Atom jitter error (maybe fixed) : 0
Drift error (maybe fixed) : 0
Dropped bytes error (maybe fixed) : 0
Duplicated bytes error (maybe fixed) : 0
Inconsistency in error sectors : 0
Track 10
Filename : /Users/gubarenko/Desktop/Compilations - Let's Get It On (disc 2)/10 - Just to Keep You Satisfied.flac
Pre-gap length : 00:01:13
CRC32 hash (test run) : 5456680E
CRC32 hash : 5456680E
CRC32 hash (skip zero) : E00C4AAF
AccurateRip signature : B7CA16B8
->Accurately ripped! (confidence 6)
(matched with the different offset correction value;
calculated using an additional offset of 86;
the signature after correction is: E910EA2B)
Statistics
Read error : 0
Skipped (treated as error) : 0
Edge jitter error (maybe fixed) : 0
Atom jitter error (maybe fixed) : 0
Drift error (maybe fixed) : 0
Dropped bytes error (maybe fixed) : 0
Duplicated bytes error (maybe fixed) : 0
Inconsistency in error sectors : 0
Track 11
Filename : /Users/gubarenko/Desktop/Compilations - Let's Get It On (disc 2)/11 - Where Are We Going? (alternate mix).flac
Pre-gap length : 00:16:30
CRC32 hash (test run) : B2F139C5
CRC32 hash : B2F139C5
CRC32 hash (skip zero) : 4931A173
AccurateRip signature : FAFD31DF
->Accurately ripped! (confidence 6)
(matched with the different offset correction value;
calculated using an additional offset of 86;
the signature after correction is: 810E6B64)
Statistics
Read error : 0
Skipped (treated as error) : 0
Edge jitter error (maybe fixed) : 0
Atom jitter error (maybe fixed) : 0
Drift error (maybe fixed) : 0
Dropped bytes error (maybe fixed) : 0
Duplicated bytes error (maybe fixed) : 0
Inconsistency in error sectors : 0
Track 12
Filename : /Users/gubarenko/Desktop/Compilations - Let's Get It On (disc 2)/12 - The World Is Rated X (alternate mix).flac
Pre-gap length : 00:01:40
CRC32 hash (test run) : 71DB62F9
CRC32 hash : 71DB62F9
CRC32 hash (skip zero) : FC42D814
AccurateRip signature : 1E94CC21
->Accurately ripped! (confidence 6)
(matched with the different offset correction value;
calculated using an additional offset of 86;
the signature after correction is: 2AFB8ADB)
Statistics
Read error : 0
Skipped (treated as error) : 0
Edge jitter error (maybe fixed) : 0
Atom jitter error (maybe fixed) : 0
Drift error (maybe fixed) : 0
Dropped bytes error (maybe fixed) : 0
Duplicated bytes error (maybe fixed) : 0
Inconsistency in error sectors : 0
Track 13
Filename : /Users/gubarenko/Desktop/Compilations - Let's Get It On (disc 2)/13 - I'm Gonna Give You Respect.flac
Pre-gap length : 00:01:68
CRC32 hash (test run) : 04BFC906
CRC32 hash : 04BFC906
CRC32 hash (skip zero) : C7DFDBD9
AccurateRip signature : 37F979CF
->Accurately ripped! (confidence 6)
(matched with the different offset correction value;
calculated using an additional offset of 86;
the signature after correction is: D1F54E5F)
Statistics
Read error : 0
Skipped (treated as error) : 0
Edge jitter error (maybe fixed) : 0
Atom jitter error (maybe fixed) : 0
Drift error (maybe fixed) : 0
Dropped bytes error (maybe fixed) : 0
Duplicated bytes error (maybe fixed) : 0
Inconsistency in error sectors : 0
Track 14
Filename : /Users/gubarenko/Desktop/Compilations - Let's Get It On (disc 2)/14 - Try It, You'll Like It.flac
Pre-gap length : 00:00:35
CRC32 hash (test run) : 91830E97
CRC32 hash : 91830E97
CRC32 hash (skip zero) : 5181567F
AccurateRip signature : E9299806
->Accurately ripped! (confidence 6)
(matched with the different offset correction value;
calculated using an additional offset of 86;
the signature after correction is: B3BA0416)
Statistics
Read error : 0
Skipped (treated as error) : 0
Edge jitter error (maybe fixed) : 0
Atom jitter error (maybe fixed) : 0
Drift error (maybe fixed) : 0
Dropped bytes error (maybe fixed) : 0
Duplicated bytes error (maybe fixed) : 0
Inconsistency in error sectors : 0
Track 15
Filename : /Users/gubarenko/Desktop/Compilations - Let's Get It On (disc 2)/15 - You Are That Special One.flac
Pre-gap length : 00:01:55
CRC32 hash (test run) : CFC33B36
CRC32 hash : CFC33B36
CRC32 hash (skip zero) : 2CD2058D
AccurateRip signature : 9EBA9D7D
->Accurately ripped! (confidence 6)
(matched with the different offset correction value;
calculated using an additional offset of 86;
the signature after correction is: 0AC12E8B)
Statistics
Read error : 0
Skipped (treated as error) : 0
Edge jitter error (maybe fixed) : 0
Atom jitter error (maybe fixed) : 0
Drift error (maybe fixed) : 0
Dropped bytes error (maybe fixed) : 0
Duplicated bytes error (maybe fixed) : 0
Inconsistency in error sectors : 0
Track 16
Filename : /Users/gubarenko/Desktop/Compilations - Let's Get It On (disc 2)/16 - We Can Make It Baby.flac
Pre-gap length : 00:03:02
CRC32 hash (test run) : D9A8BC3D
CRC32 hash : D9A8BC3D
CRC32 hash (skip zero) : 14CE257C
AccurateRip signature : 168D4A88
->Accurately ripped! (confidence 6)
(matched with the different offset correction value;
calculated using an additional offset of 86;
the signature after correction is: 9E1C8CCA)
Statistics
Read error : 0
Skipped (treated as error) : 0
Edge jitter error (maybe fixed) : 0
Atom jitter error (maybe fixed) : 0
Drift error (maybe fixed) : 0
Dropped bytes error (maybe fixed) : 0
Duplicated bytes error (maybe fixed) : 0
Inconsistency in error sectors : 0
Track 17
Filename : /Users/gubarenko/Desktop/Compilations - Let's Get It On (disc 2)/17 - Running From Love (instrumental) (version 1).flac
Pre-gap length : 00:01:33
CRC32 hash (test run) : C8E765C1
CRC32 hash : C8E765C1
CRC32 hash (skip zero) : 358083D0
AccurateRip signature : 25D920F2
->Accurately ripped! (confidence 6)
(matched with the different offset correction value;
calculated using an additional offset of 86;
the signature after correction is: D0F5080C)
Statistics
Read error : 0
Skipped (treated as error) : 0
Edge jitter error (maybe fixed) : 0
Atom jitter error (maybe fixed) : 0
Drift error (maybe fixed) : 0
Dropped bytes error (maybe fixed) : 0
Duplicated bytes error (maybe fixed) : 0
Inconsistency in error sectors : 0
Track 18
Filename : /Users/gubarenko/Desktop/Compilations - Let's Get It On (disc 2)/18 - Mandota (instrumental).flac
Pre-gap length : 00:01:73
CRC32 hash (test run) : 7C951607
CRC32 hash : 7C951607
CRC32 hash (skip zero) : AF18E8DB
AccurateRip signature : 198B02A5
->Accurately ripped! (confidence 6)
(matched with the different offset correction value;
calculated using an additional offset of 86;
the signature after correction is: 6A8BCE8E)
Statistics
Read error : 0
Skipped (treated as error) : 0
Edge jitter error (maybe fixed) : 0
Atom jitter error (maybe fixed) : 0
Drift error (maybe fixed) : 0
Dropped bytes error (maybe fixed) : 0
Duplicated bytes error (maybe fixed) : 0
Inconsistency in error sectors : 0
Track 19
Filename : /Users/gubarenko/Desktop/Compilations - Let's Get It On (disc 2)/19 - Running From Love (instrumental) (version 2).flac
Pre-gap length : 00:04:55
CRC32 hash (test run) : 8640110E
CRC32 hash : 8640110E
CRC32 hash (skip zero) : 251D9453
AccurateRip signature : F06B50FF
->Accurately ripped! (confidence 6)
(matched with the different offset correction value;
calculated using an additional offset of 86;
the signature after correction is: 17C0DD90)
Statistics
Read error : 0
Skipped (treated as error) : 0
Edge jitter error (maybe fixed) : 0
Atom jitter error (maybe fixed) : 0
Drift error (maybe fixed) : 0
Dropped bytes error (maybe fixed) : 0
Duplicated bytes error (maybe fixed) : 0
Inconsistency in error sectors : 0
Track 20
Filename : /Users/gubarenko/Desktop/Compilations - Let's Get It On (disc 2)/20 - Come Get to This (live).flac
Pre-gap length : 00:01:15
CRC32 hash (test run) : 1DFD193E
CRC32 hash : 1DFD193E
CRC32 hash (skip zero) : 3A8353CA
AccurateRip signature : 16746540
->Rip may not be accurate.
Statistics
Read error : 0
Skipped (treated as error) : 0
Edge jitter error (maybe fixed) : 0
Atom jitter error (maybe fixed) : 0
Drift error (maybe fixed) : 0
Dropped bytes error (maybe fixed) : 0
Duplicated bytes error (maybe fixed) : 0
Inconsistency in error sectors : 0
No errors occurred
End of status report
 
CD2: CUE
TITLE "Let's Get It On (disc 2)"
CATALOG 0044001475924
REM DATE "2001-09-18"
FILE "01 - Let's Get It On (demo).wav" WAVE
TRACK 01 AUDIO
TITLE "Let's Get It On (demo)"
PERFORMER "Marvin Gaye"
ISRC USMO10110933
INDEX 01 00:00:00
TRACK 02 AUDIO
TITLE "Let's Get It On, Part II A.K.A. Keep Gettin' It On (complete)"
PERFORMER "Marvin Gaye"
ISRC USMO10110932
INDEX 00 05:12:07
FILE "02 - Let's Get It On, Part II A.K.A. Keep Gettin' It On (complete).wav" WAVE
INDEX 01 00:00:00
TRACK 03 AUDIO
TITLE "Please Stay (Once You Go Away) (alternate mix)"
PERFORMER "Marvin Gaye"
ISRC USMO10110936
INDEX 00 03:10:67
FILE "03 - Please Stay (Once You Go Away) (alternate mix).wav" WAVE
INDEX 01 00:00:00
TRACK 04 AUDIO
TITLE "If I Should Die Tonight (demo)"
PERFORMER "Marvin Gaye"
ISRC USMO10110928
INDEX 00 03:42:60
FILE "04 - If I Should Die Tonight (demo).wav" WAVE
INDEX 01 00:00:00
TRACK 05 AUDIO
TITLE "Come Get to This (alternate mix)"
PERFORMER "Marvin Gaye"
ISRC USMO10110924
INDEX 00 04:08:00
FILE "05 - Come Get to This (alternate mix).wav" WAVE
INDEX 01 00:00:00
TRACK 06 AUDIO
TITLE "Distant Lover (alternate mix)"
PERFORMER "Marvin Gaye"
ISRC USMO10110946
INDEX 00 02:44:17
FILE "06 - Distant Lover (alternate mix).wav" WAVE
INDEX 01 00:00:00
TRACK 07 AUDIO
TITLE "You Sure Love to Ball (alternate mix with alternate vocal)"
PERFORMER "Marvin Gaye"
ISRC USMO10110946
INDEX 00 04:26:47
FILE "07 - You Sure Love to Ball (alternate mix with alternate vocal).wav" WAVE
INDEX 01 00:00:00
TRACK 08 AUDIO
TITLE "Just to Keep You Satisfied (a cappella with alternate vocal)"
PERFORMER "Marvin Gaye"
ISRC USMO10110931
INDEX 00 05:03:50
FILE "08 - Just to Keep You Satisfied (a cappella with alternate vocal).wav" WAVE
INDEX 01 00:00:00
TRACK 09 AUDIO
TITLE "Just to Keep You Satisfied"
PERFORMER "The Originals"
ISRC USMO10110929
INDEX 00 04:33:22
FILE "09 - Just to Keep You Satisfied.wav" WAVE
INDEX 01 00:00:00
TRACK 10 AUDIO
TITLE "Just to Keep You Satisfied"
PERFORMER "The Monitors"
ISRC USMO10110930
INDEX 00 03:59:37
FILE "10 - Just to Keep You Satisfied.wav" WAVE
INDEX 01 00:00:00
TRACK 11 AUDIO
TITLE "Where Are We Going? (alternate mix)"
PERFORMER "Marvin Gaye"
ISRC USMO10110944
INDEX 00 02:54:15
FILE "11 - Where Are We Going? (alternate mix).wav" WAVE
INDEX 01 00:00:00
TRACK 12 AUDIO
TITLE "The World Is Rated X (alternate mix)"
PERFORMER "Marvin Gaye"
ISRC USMO10110941
INDEX 00 03:54:37
FILE "12 - The World Is Rated X (alternate mix).wav" WAVE
INDEX 01 00:00:00
TRACK 13 AUDIO
TITLE "I'm Gonna Give You Respect"
PERFORMER "Marvin Gaye"
ISRC USMO10110927
INDEX 00 03:50:30
FILE "13 - I'm Gonna Give You Respect.wav" WAVE
INDEX 01 00:00:00
TRACK 14 AUDIO
TITLE "Try It, You'll Like It"
PERFORMER "Marvin Gaye"
ISRC USMO10110942
INDEX 00 02:55:67
FILE "14 - Try It, You'll Like It.wav" WAVE
INDEX 01 00:00:00
TRACK 15 AUDIO
TITLE "You Are That Special One"
PERFORMER "Marvin Gaye"
ISRC USMO10110945
INDEX 00 03:55:53
FILE "15 - You Are That Special One.wav" WAVE
INDEX 01 00:00:00
TRACK 16 AUDIO
TITLE "We Can Make It Baby"
PERFORMER "Marvin Gaye"
ISRC USMO10110943
INDEX 00 03:35:00
FILE "16 - We Can Make It Baby.wav" WAVE
INDEX 01 00:00:00
TRACK 17 AUDIO
TITLE "Running From Love (instrumental) (version 1)"
PERFORMER "Marvin Gaye"
ISRC USMO10110937
INDEX 00 03:21:00
FILE "17 - Running From Love (instrumental) (version 1).wav" WAVE
INDEX 01 00:00:00
TRACK 18 AUDIO
TITLE "Mandota (instrumental)"
PERFORMER "Marvin Gaye"
ISRC USMO10110938
INDEX 00 03:45:32
FILE "18 - Mandota (instrumental).wav" WAVE
INDEX 01 00:00:00
TRACK 19 AUDIO
TITLE "Running From Love (instrumental) (version 2)"
PERFORMER "Marvin Gaye"
ISRC USMO10110938
INDEX 00 03:21:52
FILE "19 - Running From Love (instrumental) (version 2).wav" WAVE
INDEX 01 00:00:00
TRACK 20 AUDIO
TITLE "Come Get to This (live)"
PERFORMER "Marvin Gaye"
ISRC USMO10110923
INDEX 00 03:53:58
FILE "20 - Come Get to This (live).wav" WAVE
INDEX 01 00:00:00
 
UICY-94039/40
Диск куплен тут.
 
Marvin Gaye SHM-CD Cardboard Sleeve Reissues (Universal)
UICY-94022: The Soulful Moods Of Marvin Gaye
UICY-94023: That Stubborn Kinda Fellow
UICY-94024: Recorded Live On Stage
UICY-94025: Whem I'm Alone I Cry
UICY-94026: Hello Broadway
UICY-94027: How Sweet It Is To Be Loved By You
UICY-94028: A Tribute To Great Nat 'King' Cole
UICY-94029: Moods Of Marvin Gaye
UICY-94030: At The Copa
UICY-94031: I Heard It Through The Grapevine
UICY-94032: M.P.G.
UICY-94033: That's The Way Love Is
UICY-94034: Greatest Hits, Vol. I & Vol. II
UICY-94035: Super Hits
UICY-94036/7: What's Going On (Deluxe Edition)
UICY-94038: Trouble Man
UICY-94039/40: Let's Get It On (Deluxe Edition)
UICY-94041: Live!
UICY-94042/3: I Want You (Deluxe Edition)
UICY-94044: Greatest Hits
UICY-94045: Live At London Palladium
UICY-94046/7: Here My Dear (Deluxe Edition)
UICY-94124: In Our Lifetime
UICY-94125: Vulnerable
UICY-94126: Every Motown Hit Of Marvin Gaye
UICY-94127: Motown Remembers
UICY-94128/9: Musical Testament 1964-1984
UICY-94161: Together (with Mary Wells)
UICY-94162: Take Two (with Kim Weston)
UICY-94163: United (with Tammi Terrell)
UICY-94164: You're All I Need (with Tammi Terrell)
UICY-94165: Easy (with Tammi Terrell)
UICY-94168: Diana & Marvin (with Diana Ross)
* мои раздачи, чужие, скоро будет
* mine, others, soon
Приватный:
Да (DHT отключён)
Размер:
1.46 Гб (1,563,413,552 байт) » файлов: 64
Участники:
0 раздают, 0 качают (0 участников всего)
Внешние участники:
26 раздают, 8 качают (34 участников всего) [ Обновить ]
04:21
23
Нет комментариев. Ваш будет первым!