Поиск

(R&B/Soul) Marvin Gaye - Here, My Dear (Deluxe Edition Japan SHM-CD) - 2009, FLAC (tracks+.cue), lossless

(R&B/Soul) Marvin Gaye - Here, My Dear (Deluxe Edition Japan SHM-CD) - 2009, FLAC (tracks+.cue), lossless
Треклист:
Marvin Gaye - Here, My Dear (Deluxe Edition Japan SHM-CD)
Жанр: R&B/Soul
Год выпуска диска: 2009
Производитель диска: Japan
Аудио кодек: FLAC
Тип рипа: tracks+.cue
Битрейт аудио: lossless
Трэклист:
1 - Here, My Dear 2:48
2 - I Met a Little Girl 5:02
3 - When Did You Stop Loving Me, When Did I Stop Loving You 6:16
4 - Anger 4:03
5 - Is That Enough 7:46
6 - Everybody Needs Love 5:46
7 - Time to Get It Together 3:54
8 - Sparrow 6:11
9 - Anna's Song 5:54
10 - When Did You Stop Loving Me, When Did I Stop Loving You [instrumental] 6:03
11 - A Funky Space Reincarnation 8:17
12 - You Can Leave, But It's Gonna Cost You 5:30
13 - Falling in Love Again 4:39
14 - When Did You Stop Loving Me, When Did I Stop Loving You (Reprise) :47
2008 Expanded Edition:
15 - Ain't It Funny How Things Turn Around
2008 Expanded Edition Disc 2:
1 - Here, My Dear (Mocean Worker Mix Alternate Take)
2 - I Met a Little Girl (Easy Mo Bee Mix Alternate Take)
3 - When Did You Stop Loving Me, When Did I Stop Loving You (Leon Ware and Gerry the Gov Brown Mix)
4 - Anger (Extended Mix Alternate Take with Marcus Miller)
5 - Is That Enough (Montez Payton Mix Alternate Take Instrumental)
6 - Everybody Needs Love (Prince Paul Mix Alternate Take)
7 - Time to Get Together (Extended Mix Alternate Take with DJ Smash)
8 - Sparrow (Questlove Mix Alternate Take)
9 - Anna's Song (John Rhone Mix Alternate Take Instrumental)
10 - A Funky Space Reincarnation (Extended Mix Alternate Take with Paul Simpson, John Morales)
11 - You Can Leave But It's Going to Cost You (Extended Mix Alternate Take with John Rhone)
12 - Falling in Love Again (Salaam Remi Mix Alternate Take)
13 - A Funky Space Reincarnation (Instrumental Original 12'' )
 
CD1: XLD Log
X Lossless Decoder version 20100323 (116.7)
XLD extraction logfile from 2010-04-16 18:22:47 +0600
Marvin Gaye / Here My Dear (1)
Used drive : OPTIARC DVD RW AD-5670S (revision 2AHH)
Use cdparanoia mode : YES (CDParanoia III 10.2 engine)
Disable audio cache : OK for the drive with cache less than 2750KB
Make use of C2 pointers : NO
Read offset correction : 48
Max retry count : 100
TOC of the extracted CD
Track | Start | Length | Start sector | End sector
---------------------------------------------------------
1 | 00:00:00 | 02:48:42 | 0 | 12641
2 | 02:48:42 | 05:02:45 | 12642 | 35336
3 | 07:51:12 | 06:15:39 | 35337 | 63500
4 | 14:06:51 | 04:03:09 | 63501 | 81734
5 | 18:09:60 | 07:46:12 | 81735 | 116696
6 | 25:55:72 | 05:47:03 | 116697 | 142724
7 | 31:43:00 | 03:53:26 | 142725 | 160225
8 | 35:36:26 | 06:11:15 | 160226 | 188065
9 | 41:47:41 | 05:53:46 | 188066 | 214586
10 | 47:41:12 | 06:03:59 | 214587 | 241870
11 | 53:44:71 | 08:18:70 | 241871 | 279290
12 | 62:03:66 | 05:30:38 | 279291 | 304078
13 | 67:34:29 | 04:38:48 | 304079 | 324976
14 | 72:13:02 | 00:49:17 | 324977 | 328668
15 | 73:02:19 | 04:04:21 | 328669 | 346989
List of alternate offset correction values
# | Absolute | Relative | Confidence
------------------------------------------
1 | 84 | 36 | 13
Track 01
Filename : /Users/gubarenko/Desktop/Marvin Gaye - Here My Dear (1)/01 - Here, My Dear.flac
Pre-gap length : 00:02:00
CRC32 hash (test run) : 249C0B0F
CRC32 hash : 249C0B0F
CRC32 hash (skip zero) : 56307B58
AccurateRip signature : B3BD8F27
->Rip may not be accurate.
Statistics
Read error : 0
Skipped (treated as error) : 0
Edge jitter error (maybe fixed) : 0
Atom jitter error (maybe fixed) : 0
Drift error (maybe fixed) : 0
Dropped bytes error (maybe fixed) : 0
Duplicated bytes error (maybe fixed) : 0
Inconsistency in error sectors : 0
Track 02
Filename : /Users/gubarenko/Desktop/Marvin Gaye - Here My Dear (1)/02 - I Met A Little Girl.flac
CRC32 hash (test run) : BF7D796F
CRC32 hash : BF7D796F
CRC32 hash (skip zero) : 6FEC5165
AccurateRip signature : 5626314E
->Accurately ripped! (confidence 13)
(matched with the different offset correction value;
calculated using an additional offset of 36;
the signature after correction is: E6D0BCE9)
Statistics
Read error : 0
Skipped (treated as error) : 0
Edge jitter error (maybe fixed) : 0
Atom jitter error (maybe fixed) : 0
Drift error (maybe fixed) : 0
Dropped bytes error (maybe fixed) : 0
Duplicated bytes error (maybe fixed) : 0
Inconsistency in error sectors : 0
Track 03
Filename : /Users/gubarenko/Desktop/Marvin Gaye - Here My Dear (1)/03 - When Did You Stop Loving Me, When Did I Stop Loving You.flac
CRC32 hash (test run) : 37AC3847
CRC32 hash : 37AC3847
CRC32 hash (skip zero) : 94970429
AccurateRip signature : 7027913A
->Accurately ripped! (confidence 13)
(matched with the different offset correction value;
calculated using an additional offset of 36;
the signature after correction is: 4B2615EE)
Statistics
Read error : 0
Skipped (treated as error) : 0
Edge jitter error (maybe fixed) : 0
Atom jitter error (maybe fixed) : 0
Drift error (maybe fixed) : 0
Dropped bytes error (maybe fixed) : 0
Duplicated bytes error (maybe fixed) : 0
Inconsistency in error sectors : 0
Track 04
Filename : /Users/gubarenko/Desktop/Marvin Gaye - Here My Dear (1)/04 - Anger.flac
CRC32 hash (test run) : 104B11BC
CRC32 hash : 104B11BC
CRC32 hash (skip zero) : 827A5E73
AccurateRip signature : 25E0C9A8
->Accurately ripped! (confidence 13)
(matched with the different offset correction value;
calculated using an additional offset of 36;
the signature after correction is: 43292994)
Statistics
Read error : 0
Skipped (treated as error) : 0
Edge jitter error (maybe fixed) : 0
Atom jitter error (maybe fixed) : 0
Drift error (maybe fixed) : 0
Dropped bytes error (maybe fixed) : 0
Duplicated bytes error (maybe fixed) : 0
Inconsistency in error sectors : 0
Track 05
Filename : /Users/gubarenko/Desktop/Marvin Gaye - Here My Dear (1)/05 - Is That Enough.flac
CRC32 hash (test run) : 5C71C302
CRC32 hash : 5C71C302
CRC32 hash (skip zero) : 2768C64D
AccurateRip signature : 06D27844
->Accurately ripped! (confidence 13)
(matched with the different offset correction value;
calculated using an additional offset of 36;
the signature after correction is: F9D2347C)
Statistics
Read error : 0
Skipped (treated as error) : 0
Edge jitter error (maybe fixed) : 0
Atom jitter error (maybe fixed) : 0
Drift error (maybe fixed) : 0
Dropped bytes error (maybe fixed) : 0
Duplicated bytes error (maybe fixed) : 0
Inconsistency in error sectors : 0
Track 06
Filename : /Users/gubarenko/Desktop/Marvin Gaye - Here My Dear (1)/06 - Everybody Needs Love.flac
CRC32 hash (test run) : EC562A36
CRC32 hash : EC562A36
CRC32 hash (skip zero) : 14BA3E6C
AccurateRip signature : 1D5A5FDA
->Accurately ripped! (confidence 13)
(matched with the different offset correction value;
calculated using an additional offset of 36;
the signature after correction is: 11A5AF4A)
Statistics
Read error : 0
Skipped (treated as error) : 0
Edge jitter error (maybe fixed) : 0
Atom jitter error (maybe fixed) : 0
Drift error (maybe fixed) : 0
Dropped bytes error (maybe fixed) : 0
Duplicated bytes error (maybe fixed) : 0
Inconsistency in error sectors : 0
Track 07
Filename : /Users/gubarenko/Desktop/Marvin Gaye - Here My Dear (1)/07 - Time To Get It Together.flac
CRC32 hash (test run) : AEC2D054
CRC32 hash : AEC2D054
CRC32 hash (skip zero) : CAE6B652
AccurateRip signature : 7BF36D3A
->Accurately ripped! (confidence 13)
(matched with the different offset correction value;
calculated using an additional offset of 36;
the signature after correction is: AEE7CDE2)
Statistics
Read error : 0
Skipped (treated as error) : 0
Edge jitter error (maybe fixed) : 0
Atom jitter error (maybe fixed) : 0
Drift error (maybe fixed) : 0
Dropped bytes error (maybe fixed) : 0
Duplicated bytes error (maybe fixed) : 0
Inconsistency in error sectors : 0
Track 08
Filename : /Users/gubarenko/Desktop/Marvin Gaye - Here My Dear (1)/08 - Sparrow.flac
CRC32 hash (test run) : 1EA9B953
CRC32 hash : 1EA9B953
CRC32 hash (skip zero) : 04059BB7
AccurateRip signature : D8BCF82C
->Accurately ripped! (confidence 13)
(matched with the different offset correction value;
calculated using an additional offset of 36;
the signature after correction is: 5CF1E398)
Statistics
Read error : 0
Skipped (treated as error) : 0
Edge jitter error (maybe fixed) : 0
Atom jitter error (maybe fixed) : 0
Drift error (maybe fixed) : 0
Dropped bytes error (maybe fixed) : 0
Duplicated bytes error (maybe fixed) : 0
Inconsistency in error sectors : 0
Track 09
Filename : /Users/gubarenko/Desktop/Marvin Gaye - Here My Dear (1)/09 - Anna's Song.flac
CRC32 hash (test run) : 8471CB7D
CRC32 hash : 8471CB7D
CRC32 hash (skip zero) : 73BA3A60
AccurateRip signature : E2DB93A3
->Accurately ripped! (confidence 13)
(matched with the different offset correction value;
calculated using an additional offset of 36;
the signature after correction is: 65CBC3AF)
Statistics
Read error : 0
Skipped (treated as error) : 0
Edge jitter error (maybe fixed) : 0
Atom jitter error (maybe fixed) : 0
Drift error (maybe fixed) : 0
Dropped bytes error (maybe fixed) : 0
Duplicated bytes error (maybe fixed) : 0
Inconsistency in error sectors : 0
Track 10
Filename : /Users/gubarenko/Desktop/Marvin Gaye - Here My Dear (1)/10 - When Did You Stop Loving Me, When Did I Stop Loving You (Instrumental).flac
CRC32 hash (test run) : 12C26B71
CRC32 hash : 12C26B71
CRC32 hash (skip zero) : 9A3B70DE
AccurateRip signature : F5255E12
->Accurately ripped! (confidence 13)
(matched with the different offset correction value;
calculated using an additional offset of 36;
the signature after correction is: 3FF5EAEE)
Statistics
Read error : 0
Skipped (treated as error) : 0
Edge jitter error (maybe fixed) : 0
Atom jitter error (maybe fixed) : 0
Drift error (maybe fixed) : 0
Dropped bytes error (maybe fixed) : 0
Duplicated bytes error (maybe fixed) : 0
Inconsistency in error sectors : 0
Track 11
Filename : /Users/gubarenko/Desktop/Marvin Gaye - Here My Dear (1)/11 - A Funky Space Reincarnation.flac
CRC32 hash (test run) : 9934A5C5
CRC32 hash : 9934A5C5
CRC32 hash (skip zero) : 3CFC0B15
AccurateRip signature : 6F8AB306
->Accurately ripped! (confidence 13)
(matched with the different offset correction value;
calculated using an additional offset of 36;
the signature after correction is: 1F600CA6)
Statistics
Read error : 0
Skipped (treated as error) : 0
Edge jitter error (maybe fixed) : 0
Atom jitter error (maybe fixed) : 0
Drift error (maybe fixed) : 0
Dropped bytes error (maybe fixed) : 0
Duplicated bytes error (maybe fixed) : 0
Inconsistency in error sectors : 0
Track 12
Filename : /Users/gubarenko/Desktop/Marvin Gaye - Here My Dear (1)/12 - You Can Leave, But It's Going To Cost You.flac
CRC32 hash (test run) : 7617C2C9
CRC32 hash : 7617C2C9
CRC32 hash (skip zero) : 2995D5BD
AccurateRip signature : 5E197C9E
->Accurately ripped! (confidence 12)
(matched with the different offset correction value;
calculated using an additional offset of 36;
the signature after correction is: 199D317E)
Statistics
Read error : 0
Skipped (treated as error) : 0
Edge jitter error (maybe fixed) : 0
Atom jitter error (maybe fixed) : 0
Drift error (maybe fixed) : 0
Dropped bytes error (maybe fixed) : 0
Duplicated bytes error (maybe fixed) : 0
Inconsistency in error sectors : 0
Track 13
Filename : /Users/gubarenko/Desktop/Marvin Gaye - Here My Dear (1)/13 - Falling In Love Again.flac
CRC32 hash (test run) : C7891A34
CRC32 hash : C7891A34
CRC32 hash (skip zero) : 2D94DC6E
AccurateRip signature : A5ADC4C3
->Accurately ripped! (confidence 13)
(matched with the different offset correction value;
calculated using an additional offset of 36;
the signature after correction is: ADF5D19F)
Statistics
Read error : 0
Skipped (treated as error) : 0
Edge jitter error (maybe fixed) : 0
Atom jitter error (maybe fixed) : 0
Drift error (maybe fixed) : 0
Dropped bytes error (maybe fixed) : 0
Duplicated bytes error (maybe fixed) : 0
Inconsistency in error sectors : 0
Track 14
Filename : /Users/gubarenko/Desktop/Marvin Gaye - Here My Dear (1)/14 - When Did You Stop Loving Me, When Did I Stop Loving You (Reprise).flac
CRC32 hash (test run) : 32715A60
CRC32 hash : 32715A60
CRC32 hash (skip zero) : 3939327C
AccurateRip signature : B3269925
->Accurately ripped! (confidence 13)
(matched with the different offset correction value;
calculated using an additional offset of 36;
the signature after correction is: 7B293519)
Statistics
Read error : 0
Skipped (treated as error) : 0
Edge jitter error (maybe fixed) : 0
Atom jitter error (maybe fixed) : 0
Drift error (maybe fixed) : 0
Dropped bytes error (maybe fixed) : 0
Duplicated bytes error (maybe fixed) : 0
Inconsistency in error sectors : 0
Track 15
Filename : /Users/gubarenko/Desktop/Marvin Gaye - Here My Dear (1)/15 - Ain't It Funny (How Things Turn Around) (Alternate Mix).flac
Pre-gap length : 00:05:11
CRC32 hash (test run) : ED8FB5B8
CRC32 hash : ED8FB5B8
CRC32 hash (skip zero) : FA129027
AccurateRip signature : 21A1DCBB
->Accurately ripped! (confidence 12)
(matched with the different offset correction value;
calculated using an additional offset of 36;
the signature after correction is: 8ED956EF)
Statistics
Read error : 0
Skipped (treated as error) : 0
Edge jitter error (maybe fixed) : 0
Atom jitter error (maybe fixed) : 0
Drift error (maybe fixed) : 0
Dropped bytes error (maybe fixed) : 0
Duplicated bytes error (maybe fixed) : 0
Inconsistency in error sectors : 0
No errors occurred
End of status report
 
CD1: CUE
TITLE "Here My Dear (1)"
PERFORMER "Marvin Gaye"
CATALOG 0602517521865
REM GENRE "Soul"
REM DATE 2007
FILE "01 - Here, My Dear.wav" WAVE
TRACK 01 AUDIO
TITLE "Here, My Dear"
ISRC USMO17800001
INDEX 01 00:00:00
FILE "02 - I Met A Little Girl.wav" WAVE
TRACK 02 AUDIO
TITLE "I Met A Little Girl"
ISRC USMO17800002
INDEX 01 00:00:00
FILE "03 - When Did You Stop Loving Me, When Did I Stop Loving You.wav" WAVE
TRACK 03 AUDIO
TITLE "When Did You Stop Loving Me, When Did I Stop Loving You"
ISRC USMO17800003
INDEX 01 00:00:00
FILE "04 - Anger.wav" WAVE
TRACK 04 AUDIO
TITLE "Anger"
ISRC USMO17800004
INDEX 01 00:00:00
FILE "05 - Is That Enough.wav" WAVE
TRACK 05 AUDIO
TITLE "Is That Enough"
ISRC USMO17800005
INDEX 01 00:00:00
FILE "06 - Everybody Needs Love.wav" WAVE
TRACK 06 AUDIO
TITLE "Everybody Needs Love"
ISRC USMO17800006
INDEX 01 00:00:00
FILE "07 - Time To Get It Together.wav" WAVE
TRACK 07 AUDIO
TITLE "Time To Get It Together"
ISRC USMO17800007
INDEX 01 00:00:00
FILE "08 - Sparrow.wav" WAVE
TRACK 08 AUDIO
TITLE "Sparrow"
ISRC USMO17800008
INDEX 01 00:00:00
FILE "09 - Anna's Song.wav" WAVE
TRACK 09 AUDIO
TITLE "Anna's Song"
ISRC USMO17800009
INDEX 01 00:00:00
FILE "10 - When Did You Stop Loving Me, When Did I Stop Loving You (Instrumental).wav" WAVE
TRACK 10 AUDIO
TITLE "When Did You Stop Loving Me, When Did I Stop Loving You (Instrumental)"
ISRC USMO17800010
INDEX 01 00:00:00
FILE "11 - A Funky Space Reincarnation.wav" WAVE
TRACK 11 AUDIO
TITLE "A Funky Space Reincarnation"
ISRC USMO17800011
INDEX 01 00:00:00
FILE "12 - You Can Leave, But It's Going To Cost You.wav" WAVE
TRACK 12 AUDIO
TITLE "You Can Leave, But It's Going To Cost You"
ISRC USMO17800012
INDEX 01 00:00:00
FILE "13 - Falling In Love Again.wav" WAVE
TRACK 13 AUDIO
TITLE "Falling In Love Again"
ISRC USMO17800013
INDEX 01 00:00:00
FILE "14 - When Did You Stop Loving Me, When Did I Stop Loving You (Reprise).wav" WAVE
TRACK 14 AUDIO
TITLE "When Did You Stop Loving Me, When Did I Stop Loving You (Reprise)"
ISRC USMO17800014
INDEX 01 00:00:00
TRACK 15 AUDIO
TITLE "Ain't It Funny (How Things Turn Around) (Alternate Mix)"
ISRC USUM70763119
INDEX 00 00:44:06
FILE "15 - Ain't It Funny (How Things Turn Around) (Alternate Mix).wav" WAVE
INDEX 01 00:00:00
 
CD2: XLD Log
X Lossless Decoder version 20100323 (116.7)
XLD extraction logfile from 2010-04-16 18:52:35 +0600
Marvin Gaye / Here, My Dear
Used drive : OPTIARC DVD RW AD-5670S (revision 2AHH)
Use cdparanoia mode : YES (CDParanoia III 10.2 engine)
Disable audio cache : OK for the drive with cache less than 2750KB
Make use of C2 pointers : NO
Read offset correction : 48
Max retry count : 100
TOC of the extracted CD
Track | Start | Length | Start sector | End sector
---------------------------------------------------------
1 | 00:00:00 | 02:48:36 | 0 | 12635
2 | 02:48:36 | 05:04:19 | 12636 | 35454
3 | 07:52:55 | 06:56:47 | 35455 | 66701
4 | 14:49:27 | 05:51:44 | 66702 | 93070
5 | 20:40:71 | 04:06:36 | 93071 | 111556
6 | 24:47:32 | 06:11:20 | 111557 | 139401
7 | 30:58:52 | 06:48:71 | 139402 | 170072
8 | 37:47:48 | 06:07:51 | 170073 | 197648
9 | 43:55:24 | 02:09:01 | 197649 | 207324
10 | 46:04:25 | 09:10:26 | 207325 | 248600
11 | 55:14:51 | 06:42:68 | 248601 | 278818
12 | 61:57:44 | 06:30:42 | 278819 | 308110
13 | 68:28:11 | 08:19:29 | 308111 | 345564
List of alternate offset correction values
# | Absolute | Relative | Confidence
------------------------------------------
1 | 84 | 36 | 13
Track 01
Filename : /Users/gubarenko/Desktop/Marvin Gaye - Here, My Dear/01 - Here, My Dear - (Mocean Worker mix, alternate take).flac
Pre-gap length : 00:02:00
CRC32 hash (test run) : 6EAC4070
CRC32 hash : 6EAC4070
CRC32 hash (skip zero) : DBC8A3CF
AccurateRip signature : FA518723
->Rip may not be accurate.
Statistics
Read error : 0
Skipped (treated as error) : 0
Edge jitter error (maybe fixed) : 0
Atom jitter error (maybe fixed) : 0
Drift error (maybe fixed) : 0
Dropped bytes error (maybe fixed) : 0
Duplicated bytes error (maybe fixed) : 0
Inconsistency in error sectors : 0
Track 02
Filename : /Users/gubarenko/Desktop/Marvin Gaye - Here, My Dear/02 - I Met A Little Girl - (Easy Mo Bee mix, alternate take).flac
CRC32 hash (test run) : 8B51107D
CRC32 hash : 8B51107D
CRC32 hash (skip zero) : 3088D48B
AccurateRip signature : 3DEFF6A1
->Accurately ripped! (confidence 13)
(matched with the different offset correction value;
calculated using an additional offset of 36;
the signature after correction is: DE6BAD6D)
Statistics
Read error : 0
Skipped (treated as error) : 0
Edge jitter error (maybe fixed) : 0
Atom jitter error (maybe fixed) : 0
Drift error (maybe fixed) : 0
Dropped bytes error (maybe fixed) : 0
Duplicated bytes error (maybe fixed) : 0
Inconsistency in error sectors : 0
Track 03
Filename : /Users/gubarenko/Desktop/Marvin Gaye - Here, My Dear/03 - When Did You Stop Loving Me, When Did I Stop Loving You - (Leon Ware & Gerry "The Gov" Brown mix).flac
CRC32 hash (test run) : 8897ADD8
CRC32 hash : 8897ADD8
CRC32 hash (skip zero) : FD698DE5
AccurateRip signature : EF286181
->Accurately ripped! (confidence 13)
(matched with the different offset correction value;
calculated using an additional offset of 36;
the signature after correction is: 0DCB7895)
Statistics
Read error : 0
Skipped (treated as error) : 0
Edge jitter error (maybe fixed) : 0
Atom jitter error (maybe fixed) : 0
Drift error (maybe fixed) : 0
Dropped bytes error (maybe fixed) : 0
Duplicated bytes error (maybe fixed) : 0
Inconsistency in error sectors : 0
Track 04
Filename : /Users/gubarenko/Desktop/Marvin Gaye - Here, My Dear/04 - Anger - (extended mix, alternate take, with Marcus Miller).flac
CRC32 hash (test run) : 2A4A481B
CRC32 hash : 2A4A481B
CRC32 hash (skip zero) : 7DCCE3E6
AccurateRip signature : 1D16FDAE
->Accurately ripped! (confidence 13)
(matched with the different offset correction value;
calculated using an additional offset of 36;
the signature after correction is: 587EA636)
Statistics
Read error : 0
Skipped (treated as error) : 0
Edge jitter error (maybe fixed) : 0
Atom jitter error (maybe fixed) : 0
Drift error (maybe fixed) : 0
Dropped bytes error (maybe fixed) : 0
Duplicated bytes error (maybe fixed) : 0
Inconsistency in error sectors : 0
Track 05
Filename : /Users/gubarenko/Desktop/Marvin Gaye - Here, My Dear/05 - Is That Enough? - (Montez Payton mix, alternate take, instrumental).flac
CRC32 hash (test run) : 54CF08FA
CRC32 hash : 54CF08FA
CRC32 hash (skip zero) : BA3A0D22
AccurateRip signature : 6E3843C1
->Accurately ripped! (confidence 13)
(matched with the different offset correction value;
calculated using an additional offset of 36;
the signature after correction is: 2923EBC9)
Statistics
Read error : 0
Skipped (treated as error) : 0
Edge jitter error (maybe fixed) : 0
Atom jitter error (maybe fixed) : 0
Drift error (maybe fixed) : 0
Dropped bytes error (maybe fixed) : 0
Duplicated bytes error (maybe fixed) : 0
Inconsistency in error sectors : 0
Track 06
Filename : /Users/gubarenko/Desktop/Marvin Gaye - Here, My Dear/06 - Everybody Needs Love - (Prince Paul mix, alternate take).flac
CRC32 hash (test run) : 93DB3677
CRC32 hash : 93DB3677
CRC32 hash (skip zero) : DC2E7A89
AccurateRip signature : 8A6E40A9
->Accurately ripped! (confidence 13)
(matched with the different offset correction value;
calculated using an additional offset of 36;
the signature after correction is: A0914561)
Statistics
Read error : 0
Skipped (treated as error) : 0
Edge jitter error (maybe fixed) : 0
Atom jitter error (maybe fixed) : 0
Drift error (maybe fixed) : 0
Dropped bytes error (maybe fixed) : 0
Duplicated bytes error (maybe fixed) : 0
Inconsistency in error sectors : 0
Track 07
Filename : /Users/gubarenko/Desktop/Marvin Gaye - Here, My Dear/07 - Time To Get Together - (extended mix, alternate take, with DJ Smash).flac
Pre-gap length : 00:02:25
CRC32 hash (test run) : 312470FB
CRC32 hash : 312470FB
CRC32 hash (skip zero) : 655EE1B4
AccurateRip signature : 73F91185
->Accurately ripped! (confidence 12)
(matched with the different offset correction value;
calculated using an additional offset of 36;
the signature after correction is: 9685B23E)
Statistics
Read error : 0
Skipped (treated as error) : 0
Edge jitter error (maybe fixed) : 0
Atom jitter error (maybe fixed) : 0
Drift error (maybe fixed) : 0
Dropped bytes error (maybe fixed) : 0
Duplicated bytes error (maybe fixed) : 0
Inconsistency in error sectors : 0
Track 08
Filename : /Users/gubarenko/Desktop/Marvin Gaye - Here, My Dear/08 - Sparrow - (Randy Watson Experience mix, alternate take).flac
Pre-gap length : 00:28:47
CRC32 hash (test run) : 8009696D
CRC32 hash : 8009696D
CRC32 hash (skip zero) : D2834295
AccurateRip signature : 8B9EB283
->Accurately ripped! (confidence 13)
(matched with the different offset correction value;
calculated using an additional offset of 36;
the signature after correction is: 5BB504E6)
Statistics
Read error : 0
Skipped (treated as error) : 0
Edge jitter error (maybe fixed) : 0
Atom jitter error (maybe fixed) : 0
Drift error (maybe fixed) : 0
Dropped bytes error (maybe fixed) : 0
Duplicated bytes error (maybe fixed) : 0
Inconsistency in error sectors : 0
Track 09
Filename : /Users/gubarenko/Desktop/Marvin Gaye - Here, My Dear/09 - Anna's Song - (John Rhone mix, alternate take, instrumental).flac
CRC32 hash (test run) : 5596F424
CRC32 hash : 5596F424
CRC32 hash (skip zero) : 0CEC2AF7
AccurateRip signature : 6C98F9F1
->Accurately ripped! (confidence 13)
(matched with the different offset correction value;
calculated using an additional offset of 36;
the signature after correction is: EF1EF045)
Statistics
Read error : 0
Skipped (treated as error) : 0
Edge jitter error (maybe fixed) : 0
Atom jitter error (maybe fixed) : 0
Drift error (maybe fixed) : 0
Dropped bytes error (maybe fixed) : 0
Duplicated bytes error (maybe fixed) : 0
Inconsistency in error sectors : 0
Track 10
Filename : /Users/gubarenko/Desktop/Marvin Gaye - Here, My Dear/10 - A Funky Space Reincarnation (extended mix, alternate take, with Paul Simpson/John Morales).flac
CRC32 hash (test run) : 44F0C79E
CRC32 hash : 44F0C79E
CRC32 hash (skip zero) : 04F1DF90
AccurateRip signature : 33E8B350
->Accurately ripped! (confidence 13)
(matched with the different offset correction value;
calculated using an additional offset of 36;
the signature after correction is: 9F6CF258)
Statistics
Read error : 0
Skipped (treated as error) : 0
Edge jitter error (maybe fixed) : 0
Atom jitter error (maybe fixed) : 0
Drift error (maybe fixed) : 0
Dropped bytes error (maybe fixed) : 0
Duplicated bytes error (maybe fixed) : 0
Inconsistency in error sectors : 0
Track 11
Filename : /Users/gubarenko/Desktop/Marvin Gaye - Here, My Dear/11 - You Can Leave, But It's Going To Cost You (extended mix, alternate take, with John Rhone).flac
CRC32 hash (test run) : 49EC7E22
CRC32 hash : 49EC7E22
CRC32 hash (skip zero) : FA9EF2CB
AccurateRip signature : 2BC72D7C
->Accurately ripped! (confidence 12)
(matched with the different offset correction value;
calculated using an additional offset of 36;
the signature after correction is: C0372B8C)
Statistics
Read error : 0
Skipped (treated as error) : 0
Edge jitter error (maybe fixed) : 1
Atom jitter error (maybe fixed) : 0
Drift error (maybe fixed) : 0
Dropped bytes error (maybe fixed) : 1
Duplicated bytes error (maybe fixed) : 0
Inconsistency in error sectors : 0
Track 12
Filename : /Users/gubarenko/Desktop/Marvin Gaye - Here, My Dear/12 - Falling In Love Again Falling In Love Again - (Salaam Remi mix, alternate take).flac
CRC32 hash (test run) : 8D18CBF8
CRC32 hash : 8D18CBF8
CRC32 hash (skip zero) : 075BF98C
AccurateRip signature : 64BB158A
->Accurately ripped! (confidence 13)
(matched with the different offset correction value;
calculated using an additional offset of 36;
the signature after correction is: 4489F162)
Statistics
Read error : 0
Skipped (treated as error) : 0
Edge jitter error (maybe fixed) : 0
Atom jitter error (maybe fixed) : 0
Drift error (maybe fixed) : 0
Dropped bytes error (maybe fixed) : 0
Duplicated bytes error (maybe fixed) : 0
Inconsistency in error sectors : 0
Track 13
Filename : /Users/gubarenko/Desktop/Marvin Gaye - Here, My Dear/13 - A Funky Space Reincarnation (Instrumental).flac
Pre-gap length : 00:03:17
CRC32 hash (test run) : 3309D4A3
CRC32 hash : 3309D4A3
CRC32 hash (skip zero) : 185C724F
AccurateRip signature : 085DECB8
->Accurately ripped! (confidence 11)
(matched with the different offset correction value;
calculated using an additional offset of 36;
the signature after correction is: 7372368C)
Statistics
Read error : 0
Skipped (treated as error) : 0
Edge jitter error (maybe fixed) : 0
Atom jitter error (maybe fixed) : 0
Drift error (maybe fixed) : 0
Dropped bytes error (maybe fixed) : 0
Duplicated bytes error (maybe fixed) : 0
Inconsistency in error sectors : 0
No errors occurred
End of status report
 
CD2: CUE
TITLE "Here, My Dear"
PERFORMER "Marvin Gaye"
CATALOG 0602517521872
REM GENRE "Soul"
REM DATE 2007
FILE "01 - Here, My Dear - (Mocean Worker mix, alternate take).wav" WAVE
TRACK 01 AUDIO
TITLE "Here, My Dear - (Mocean Worker mix, alternate take)"
ISRC USUM70763124
INDEX 01 00:00:00
FILE "02 - I Met A Little Girl - (Easy Mo Bee mix, alternate take).wav" WAVE
TRACK 02 AUDIO
TITLE "I Met A Little Girl - (Easy Mo Bee mix, alternate take)"
ISRC USUM70763125
INDEX 01 00:00:00
FILE "03 - When Did You Stop Loving Me, When Did I Stop Loving You - (Leon Ware & Gerry "The Gov" Brown mix).wav" WAVE
TRACK 03 AUDIO
TITLE "When Did You Stop Loving Me, When Did I Stop Loving You - (Leon Ware & Gerry "The Gov" Brown mix)"
ISRC USUM70763131
INDEX 01 00:00:00
FILE "04 - Anger - (extended mix, alternate take, with Marcus Miller).wav" WAVE
TRACK 04 AUDIO
TITLE "Anger - (extended mix, alternate take, with Marcus Miller)"
ISRC USUM70763120
INDEX 01 00:00:00
FILE "05 - Is That Enough? - (Montez Payton mix, alternate take, instrumental).wav" WAVE
TRACK 05 AUDIO
TITLE "Is That Enough? - (Montez Payton mix, alternate take, instrumental)"
ISRC USUM70763128
INDEX 01 00:00:00
FILE "06 - Everybody Needs Love - (Prince Paul mix, alternate take).wav" WAVE
TRACK 06 AUDIO
TITLE "Everybody Needs Love - (Prince Paul mix, alternate take)"
ISRC USUM70763122
INDEX 01 00:00:00
TRACK 07 AUDIO
TITLE "Time To Get Together - (extended mix, alternate take, with DJ Smash)"
ISRC USUM70763129
INDEX 00 06:08:70
FILE "07 - Time To Get Together - (extended mix, alternate take, with DJ Smash).wav" WAVE
INDEX 01 00:00:00
TRACK 08 AUDIO
TITLE "Sparrow - (Randy Watson Experience mix, alternate take)"
ISRC USUM70763129
INDEX 00 06:20:24
FILE "08 - Sparrow - (Randy Watson Experience mix, alternate take).wav" WAVE
INDEX 01 00:00:00
FILE "09 - Anna's Song - (John Rhone mix, alternate take, instrumental).wav" WAVE
TRACK 09 AUDIO
TITLE "Anna's Song - (John Rhone mix, alternate take, instrumental)"
ISRC USUM70763121
INDEX 01 00:00:00
FILE "10 - A Funky Space Reincarnation (extended mix, alternate take, with Paul SimpsonпЉПJohn Morales).wav" WAVE
TRACK 10 AUDIO
TITLE "A Funky Space Reincarnation (extended mix, alternate take, with Paul Simpson/John Morales)"
ISRC USUM70763118
INDEX 01 00:00:00
FILE "11 - You Can Leave, But It's Going To Cost You (extended mix, alternate take, with John Rhone).wav" WAVE
TRACK 11 AUDIO
TITLE "You Can Leave, But It's Going To Cost You (extended mix, alternate take, with John Rhone)"
ISRC USUM70763132
INDEX 01 00:00:00
FILE "12 - Falling In Love Again Falling In Love Again - (Salaam Remi mix, alternate take).wav" WAVE
TRACK 12 AUDIO
TITLE "Falling In Love Again Falling In Love Again - (Salaam Remi mix, alternate take)"
ISRC USUM70763123
INDEX 01 00:00:00
TRACK 13 AUDIO
TITLE "A Funky Space Reincarnation (Instrumental)"
ISRC USUM70763117
INDEX 00 06:27:25
FILE "13 - A Funky Space Reincarnation (Instrumental).wav" WAVE
INDEX 01 00:00:00
 
UICY-94046/7
Диск куплен тут.
 
Marvin Gaye SHM-CD Cardboard Sleeve Reissues (Universal)
UICY-94022: The Soulful Moods Of Marvin Gaye
UICY-94023: That Stubborn Kinda Fellow
UICY-94024: Recorded Live On Stage
UICY-94025: Whem I'm Alone I Cry
UICY-94026: Hello Broadway
UICY-94027: How Sweet It Is To Be Loved By You
UICY-94028: A Tribute To Great Nat 'King' Cole
UICY-94029: Moods Of Marvin Gaye
UICY-94030: At The Copa
UICY-94031: I Heard It Through The Grapevine
UICY-94032: M.P.G.
UICY-94033: That's The Way Love Is
UICY-94034: Greatest Hits, Vol. I & Vol. II
UICY-94035: Super Hits
UICY-94036/7: What's Going On (Deluxe Edition)
UICY-94038: Trouble Man
UICY-94039/40: Let's Get It On (Deluxe Edition)
UICY-94041: Live!
UICY-94042/3: I Want You (Deluxe Edition)
UICY-94044: Greatest Hits
UICY-94045: Live At London Palladium
UICY-94046/7: Here My Dear (Deluxe Edition)
UICY-94124: In Our Lifetime
UICY-94125: Vulnerable
UICY-94126: Every Motown Hit Of Marvin Gaye
UICY-94127: Motown Remembers
UICY-94128/9: Musical Testament 1964-1984
UICY-94161: Together (with Mary Wells)
UICY-94162: Take Two (with Kim Weston)
UICY-94163: United (with Tammi Terrell)
UICY-94164: You're All I Need (with Tammi Terrell)
UICY-94165: Easy (with Tammi Terrell)
UICY-94168: Diana & Marvin (with Diana Ross)
* мои раздачи, чужие, скоро будет
* mine, others, soon
Приватный:
Да (DHT отключён)
Размер:
1.48 Гб (1,592,522,308 байт) » файлов: 55
Участники:
0 раздают, 1 качают (1 участников всего)
Внешние участники:
11 раздают, 4 качают (15 участников всего) [ Обновить ]
04:22
35
Нет комментариев. Ваш будет первым!