Поиск

(Funk, Soul) Average White Band - Warmer Communication [1978] - 2005, FLAC (tracks+.cue), lossless

Треклист:
Average White Band - Warmer Communication [1978]
Жанр: Funk, Soul
Год выпуска диска: 2005
Производитель диска: US
Аудио кодек: FLAC
Тип рипа: tracks+.cue
Битрейт аудио: lossless
Продолжительность: 43:35
Трэклист:
1. Average White Band - Your Love Is A Miracle (6:08)
2. Average White Band - Same Feeling, Different Song (5:18)
3. Average White Band - Daddy's All Gone (4:38)
4. Average White Band - Big City Lights (4:55)
5. Average White Band - She's A Dream (5:36)
6. Average White Band - Warmer Communications (4:12)
7. Average White Band - The Price Of A Dream (4:02)
8. Average White Band - Sweet And Sour (4:49)
9. Average White Band - One Look Over My Shoulder (Is This Really Goodbye) (3:57)
Доп. информация: Uploaded by MagnusT what.cd
 
EAC
Exact Audio Copy V0.99 prebeta 5 from 4. May 2009
EAC extraction logfile from 11. February 2010, 10:15
Average White Band / Warmer Communications
Used drive : LITE-ON DVDRW LH-20A1H Adapter: 0 ID: 1
Read mode : Secure
Utilize accurate stream : Yes
Defeat audio cache : Yes
Make use of C2 pointers : No
Read offset correction : 6
Overread into Lead-In and Lead-Out : No
Fill up missing offset samples with silence : Yes
Delete leading and trailing silent blocks : No
Null samples used in CRC calculations : Yes
Used interface : Native Win32 interface for Win NT & 2000
Gap handling : Appended to previous track
Used output format : User Defined Encoder
Selected bitrate : 768 kBit/s
Quality : High
Add ID3 tag : No
Command line compressor : C:\Program Files (x86)\Exact Audio Copy\FLAC\FLAC.EXE
Additional command line options : -8 -V -T "ARTIST=%a" -T "TITLE=%t" -T "ALBUM=%g" -T "DATE=%y" -T "TRACKNUMBER=%n" -T "GENRE=%m" -T "COMMENT=%e" %s -o %d
TOC of the extracted CD
Track | Start | Length | Start sector | End sector
---------------------------------------------------------
1 | 0:00.00 | 6:08.15 | 0 | 27614
2 | 6:08.15 | 5:18.64 | 27615 | 51528
3 | 11:27.04 | 4:38.71 | 51529 | 72449
4 | 16:06.00 | 4:55.44 | 72450 | 94618
5 | 21:01.44 | 5:36.27 | 94619 | 119845
6 | 26:37.71 | 4:12.16 | 119846 | 138761
7 | 30:50.12 | 4:02.74 | 138762 | 156985
8 | 34:53.11 | 4:49.39 | 156986 | 178699
9 | 39:42.50 | 3:57.30 | 178700 | 196504
Track 1
Filename E:\Music\Work in progress\- - Rip Music Folder\Average White Band\1978 - Warmer Communications\01 Your Love Is A Miracle.wav
Pre-gap length 0:00:02.00
Peak level 96.1 %
Track quality 100.0 %
Test CRC 5DDB2E76
Copy CRC 5DDB2E76
Accurately ripped (confidence 2) [BBFCB009]
Copy OK
Track 2
Filename E:\Music\Work in progress\- - Rip Music Folder\Average White Band\1978 - Warmer Communications\02 Same Feeling, Different Song.wav
Pre-gap length 0:00:00.49
Peak level 95.8 %
Track quality 100.0 %
Test CRC CE8EA261
Copy CRC CE8EA261
Accurately ripped (confidence 2) [98FC8ED3]
Copy OK
Track 3
Filename E:\Music\Work in progress\- - Rip Music Folder\Average White Band\1978 - Warmer Communications\03 Daddy's All Gone.wav
Pre-gap length 0:00:02.00
Peak level 96.1 %
Track quality 99.9 %
Test CRC 7F3CC049
Copy CRC 7F3CC049
Accurately ripped (confidence 2) [A527B538]
Copy OK
Track 4
Filename E:\Music\Work in progress\- - Rip Music Folder\Average White Band\1978 - Warmer Communications\04 Big City Lights.wav
Peak level 95.8 %
Track quality 100.0 %
Test CRC 05F83AC9
Copy CRC 05F83AC9
Accurately ripped (confidence 2) [D0A387A4]
Copy OK
Track 5
Filename E:\Music\Work in progress\- - Rip Music Folder\Average White Band\1978 - Warmer Communications\05 She's A Dream.wav
Pre-gap length 0:00:01.57
Peak level 95.2 %
Track quality 99.9 %
Test CRC C8AE8154
Copy CRC C8AE8154
Accurately ripped (confidence 2) [2B4EF78C]
Copy OK
Track 6
Filename E:\Music\Work in progress\- - Rip Music Folder\Average White Band\1978 - Warmer Communications\06 Warmer Communications.wav
Peak level 94.9 %
Track quality 100.0 %
Test CRC 1254D60C
Copy CRC 1254D60C
Accurately ripped (confidence 2) [D2018C36]
Copy OK
Track 7
Filename E:\Music\Work in progress\- - Rip Music Folder\Average White Band\1978 - Warmer Communications\07 The Price Of A Dream.wav
Pre-gap length 0:00:02.12
Peak level 94.8 %
Track quality 100.0 %
Test CRC 7B455519
Copy CRC 7B455519
Accurately ripped (confidence 2) [DA707A7E]
Copy OK
Track 8
Filename E:\Music\Work in progress\- - Rip Music Folder\Average White Band\1978 - Warmer Communications\08 Sweet And Sour.wav
Pre-gap length 0:00:00.63
Peak level 95.4 %
Track quality 100.0 %
Test CRC 54A49A49
Copy CRC 54A49A49
Accurately ripped (confidence 2) [BDAB468E]
Copy OK
Track 9
Filename E:\Music\Work in progress\- - Rip Music Folder\Average White Band\1978 - Warmer Communications\09 One Look Over My Shoulder (Is This Really Goodbye).wav
Peak level 94.8 %
Track quality 100.0 %
Test CRC C1532B4D
Copy CRC C1532B4D
Accurately ripped (confidence 2) [FE0D16C4]
Copy OK
All tracks accurately ripped
No errors occurred
End of status report
 
cue
REM GENRE Funk
REM DATE 1978
REM DISCID 8F0A3C09
REM COMMENT "ExactAudioCopy v0.99pb5"
FILE "Average White Band\1978 - Warmer Communications\01 Your Love Is A Miracle.wav" WAVE
TRACK 01 AUDIO
INDEX 01 00:00:00
TRACK 02 AUDIO
INDEX 00 06:07:41
FILE "Average White Band\1978 - Warmer Communications\02 Same Feeling, Different Song.wav" WAVE
INDEX 01 00:00:00
TRACK 03 AUDIO
INDEX 00 05:16:64
FILE "Average White Band\1978 - Warmer Communications\03 Daddy's All Gone.wav" WAVE
INDEX 01 00:00:00
FILE "Average White Band\1978 - Warmer Communications\04 Big City Lights.wav" WAVE
TRACK 04 AUDIO
INDEX 01 00:00:00
TRACK 05 AUDIO
INDEX 00 04:53:62
FILE "Average White Band\1978 - Warmer Communications\05 She's A Dream.wav" WAVE
INDEX 01 00:00:00
FILE "Average White Band\1978 - Warmer Communications\06 Warmer Communications.wav" WAVE
TRACK 06 AUDIO
INDEX 01 00:00:00
TRACK 07 AUDIO
INDEX 00 04:10:04
FILE "Average White Band\1978 - Warmer Communications\07 The Price Of A Dream.wav" WAVE
INDEX 01 00:00:00
TRACK 08 AUDIO
INDEX 00 04:02:11
FILE "Average White Band\1978 - Warmer Communications\08 Sweet And Sour.wav" WAVE
INDEX 01 00:00:00
FILE "Average White Band\1978 - Warmer Communications\09 One Look Over My Shoulder (Is This Really Goodbye).wav" WAVE
TRACK 09 AUDIO
INDEX 01 00:00:00
Приватный:
Нет (DHT включён)
Размер:
278.73 Мб (292,269,050 байт) » файлов: 11
Участники:
0 раздают, 0 качают (0 участников всего)
Внешние участники:
--- [ Обновить ]
Никого нет на раздаче - пишите личное сообщение M0p94ok
No seeders - write personal message to M0p94ok
04:23
22
Нет комментариев. Ваш будет первым!