Поиск

(R&B/Soul) Marvin Gaye - Super Hits (Japan SHM-CD) - 2009, FLAC (tracks+.cue), lossless

(R&B/Soul) Marvin Gaye - Super Hits (Japan SHM-CD) - 2009, FLAC (tracks+.cue), lossless
Треклист:
Marvin Gaye - Super Hits (Japan SHM-CD)
Жанр: R&B/Soul
Год выпуска диска: 2009
Производитель диска: Japan
Аудио кодек: FLAC
Тип рипа: tracks+.cue
Битрейт аудио: lossless
Продолжительность: 46:02
Трэклист:
"I Heard It Through the Grapevine" (3:13)
"Pride and Joy" (2:04)
"The End of Our Road" (2:49)
"Ain't That Peculiar" (2:57)
"Stubborn Kind of Fellow" (2:44)
"Can I Get a Witness" (2:48)
"How Sweet It Is (To Be Loved By You)" (2:49)
"That's the Way Love Is" (3:34)
"Too Busy Thinking About My Baby" (2:53)
"Chained" (2:38)
"You Are a Wonderful One" (2:40)
"Try It Baby" (2:56)
"I'll Be Doggone" (2:48)
"Hitch Hike" (2:25)
"You" (2:26)
"Baby Don't You Do It" (2:32)
 
CD1: XLD Log
X Lossless Decoder version 20100401 (117.0)
XLD extraction logfile from 2010-04-21 12:48:32 +0600
Marvin Gaye / Super Hits
Used drive : OPTIARC DVD RW AD-5670S (revision 2AHH)
Use cdparanoia mode : YES (CDParanoia III 10.2 engine)
Disable audio cache : OK for the drive with cache less than 2750KB
Make use of C2 pointers : NO
Read offset correction : 48
Max retry count : 100
TOC of the extracted CD
Track | Start | Length | Start sector | End sector
---------------------------------------------------------
1 | 00:00:00 | 03:19:70 | 0 | 14994
2 | 03:19:70 | 02:12:42 | 14995 | 24936
3 | 05:32:37 | 02:56:25 | 24937 | 38161
4 | 08:28:62 | 03:03:65 | 38162 | 51951
5 | 11:32:52 | 02:52:23 | 51952 | 64874
6 | 14:25:00 | 02:56:35 | 64875 | 78109
7 | 17:21:35 | 02:56:27 | 78110 | 91336
8 | 20:17:62 | 03:40:08 | 91337 | 107844
9 | 23:57:70 | 03:00:05 | 107845 | 121349
10 | 26:58:00 | 02:43:42 | 121350 | 133616
11 | 29:41:42 | 02:48:50 | 133617 | 146266
12 | 32:30:17 | 03:02:65 | 146267 | 159981
13 | 35:33:07 | 02:51:26 | 159982 | 172832
14 | 38:24:33 | 02:33:38 | 172833 | 184345
15 | 40:57:71 | 02:30:35 | 184346 | 195630
16 | 43:28:31 | 02:35:38 | 195631 | 207293
Track 01
Filename : /Users/gubarenko/Desktop/Marvin Gaye - Super Hits/01 - Heard It Through The Grapevine.flac
Pre-gap length : 00:02:00
CRC32 hash (test run) : 71C5E956
CRC32 hash : 71C5E956
CRC32 hash (skip zero) : 19228AC7
AccurateRip signature : 3E6173F9
->Track not present in AccurateRip database.
Statistics
Read error : 0
Skipped (treated as error) : 0
Edge jitter error (maybe fixed) : 0
Atom jitter error (maybe fixed) : 0
Drift error (maybe fixed) : 0
Dropped bytes error (maybe fixed) : 0
Duplicated bytes error (maybe fixed) : 0
Inconsistency in error sectors : 0
Track 02
Filename : /Users/gubarenko/Desktop/Marvin Gaye - Super Hits/02 - Pride And Joy.flac
Pre-gap length : 00:03:55
CRC32 hash (test run) : 0F3034B7
CRC32 hash : 0F3034B7
CRC32 hash (skip zero) : 0F3034B7
AccurateRip signature : A6C914EA
->Track not present in AccurateRip database.
Statistics
Read error : 0
Skipped (treated as error) : 0
Edge jitter error (maybe fixed) : 0
Atom jitter error (maybe fixed) : 0
Drift error (maybe fixed) : 0
Dropped bytes error (maybe fixed) : 0
Duplicated bytes error (maybe fixed) : 0
Inconsistency in error sectors : 0
Track 03
Filename : /Users/gubarenko/Desktop/Marvin Gaye - Super Hits/03 - The End Of Our Road.flac
Pre-gap length : 00:04:12
CRC32 hash (test run) : 5B79985B
CRC32 hash : 5B79985B
CRC32 hash (skip zero) : 4CB2CEE4
AccurateRip signature : 6C9F8182
->Track not present in AccurateRip database.
Statistics
Read error : 0
Skipped (treated as error) : 0
Edge jitter error (maybe fixed) : 0
Atom jitter error (maybe fixed) : 0
Drift error (maybe fixed) : 0
Dropped bytes error (maybe fixed) : 0
Duplicated bytes error (maybe fixed) : 0
Inconsistency in error sectors : 0
Track 04
Filename : /Users/gubarenko/Desktop/Marvin Gaye - Super Hits/04 - Ain't That Peculiar.flac
Pre-gap length : 00:03:67
CRC32 hash (test run) : 1A62D250
CRC32 hash : 1A62D250
CRC32 hash (skip zero) : 1A62D250
AccurateRip signature : D71254AC
->Track not present in AccurateRip database.
Statistics
Read error : 0
Skipped (treated as error) : 0
Edge jitter error (maybe fixed) : 0
Atom jitter error (maybe fixed) : 0
Drift error (maybe fixed) : 0
Dropped bytes error (maybe fixed) : 0
Duplicated bytes error (maybe fixed) : 0
Inconsistency in error sectors : 0
Track 05
Filename : /Users/gubarenko/Desktop/Marvin Gaye - Super Hits/05 - Stubborn Kind Of Fellow.flac
Pre-gap length : 00:04:12
CRC32 hash (test run) : 007DC500
CRC32 hash : 007DC500
CRC32 hash (skip zero) : 007DC500
AccurateRip signature : 9BE234E9
->Track not present in AccurateRip database.
Statistics
Read error : 0
Skipped (treated as error) : 0
Edge jitter error (maybe fixed) : 0
Atom jitter error (maybe fixed) : 0
Drift error (maybe fixed) : 0
Dropped bytes error (maybe fixed) : 0
Duplicated bytes error (maybe fixed) : 0
Inconsistency in error sectors : 0
Track 06
Filename : /Users/gubarenko/Desktop/Marvin Gaye - Super Hits/06 - Can I Get A Witness.flac
Pre-gap length : 00:04:18
CRC32 hash (test run) : 9B3E03D2
CRC32 hash : 9B3E03D2
CRC32 hash (skip zero) : 9B3E03D2
AccurateRip signature : F6A58202
->Track not present in AccurateRip database.
Statistics
Read error : 0
Skipped (treated as error) : 0
Edge jitter error (maybe fixed) : 0
Atom jitter error (maybe fixed) : 0
Drift error (maybe fixed) : 0
Dropped bytes error (maybe fixed) : 0
Duplicated bytes error (maybe fixed) : 0
Inconsistency in error sectors : 0
Track 07
Filename : /Users/gubarenko/Desktop/Marvin Gaye - Super Hits/07 - How Sweet It Is (To Be Loved By You).flac
Pre-gap length : 00:04:30
CRC32 hash (test run) : BAC32588
CRC32 hash : BAC32588
CRC32 hash (skip zero) : 01087D38
AccurateRip signature : 66D4474F
->Track not present in AccurateRip database.
Statistics
Read error : 0
Skipped (treated as error) : 0
Edge jitter error (maybe fixed) : 0
Atom jitter error (maybe fixed) : 0
Drift error (maybe fixed) : 0
Dropped bytes error (maybe fixed) : 0
Duplicated bytes error (maybe fixed) : 0
Inconsistency in error sectors : 0
Track 08
Filename : /Users/gubarenko/Desktop/Marvin Gaye - Super Hits/08 - That's The Way Love Is.flac
Pre-gap length : 00:04:00
CRC32 hash (test run) : 2D30993F
CRC32 hash : 2D30993F
CRC32 hash (skip zero) : 6759D706
AccurateRip signature : C79C20CE
->Track not present in AccurateRip database.
Statistics
Read error : 0
Skipped (treated as error) : 0
Edge jitter error (maybe fixed) : 0
Atom jitter error (maybe fixed) : 0
Drift error (maybe fixed) : 0
Dropped bytes error (maybe fixed) : 0
Duplicated bytes error (maybe fixed) : 0
Inconsistency in error sectors : 0
Track 09
Filename : /Users/gubarenko/Desktop/Marvin Gaye - Super Hits/09 - Too Busy Thinking About My Baby.flac
Pre-gap length : 00:02:08
CRC32 hash (test run) : 5DB1A22E
CRC32 hash : 5DB1A22E
CRC32 hash (skip zero) : 5DB1A22E
AccurateRip signature : 62349BED
->Track not present in AccurateRip database.
Statistics
Read error : 0
Skipped (treated as error) : 0
Edge jitter error (maybe fixed) : 0
Atom jitter error (maybe fixed) : 0
Drift error (maybe fixed) : 0
Dropped bytes error (maybe fixed) : 0
Duplicated bytes error (maybe fixed) : 0
Inconsistency in error sectors : 0
Track 10
Filename : /Users/gubarenko/Desktop/Marvin Gaye - Super Hits/10 - Chained.flac
Pre-gap length : 00:04:23
CRC32 hash (test run) : E58DA646
CRC32 hash : E58DA646
CRC32 hash (skip zero) : E58DA646
AccurateRip signature : F176FFEA
->Track not present in AccurateRip database.
Statistics
Read error : 0
Skipped (treated as error) : 0
Edge jitter error (maybe fixed) : 0
Atom jitter error (maybe fixed) : 0
Drift error (maybe fixed) : 0
Dropped bytes error (maybe fixed) : 0
Duplicated bytes error (maybe fixed) : 0
Inconsistency in error sectors : 0
Track 11
Filename : /Users/gubarenko/Desktop/Marvin Gaye - Super Hits/11 - You're A Wonderful One.flac
Pre-gap length : 00:04:02
CRC32 hash (test run) : 08EA12DB
CRC32 hash : 08EA12DB
CRC32 hash (skip zero) : 08EA12DB
AccurateRip signature : C8E5A842
->Track not present in AccurateRip database.
Statistics
Read error : 0
Skipped (treated as error) : 0
Edge jitter error (maybe fixed) : 0
Atom jitter error (maybe fixed) : 0
Drift error (maybe fixed) : 0
Dropped bytes error (maybe fixed) : 0
Duplicated bytes error (maybe fixed) : 0
Inconsistency in error sectors : 0
Track 12
Filename : /Users/gubarenko/Desktop/Marvin Gaye - Super Hits/12 - Try It Baby.flac
Pre-gap length : 00:04:10
CRC32 hash (test run) : 948A7781
CRC32 hash : 948A7781
CRC32 hash (skip zero) : 948A7781
AccurateRip signature : E4C6C8BE
->Track not present in AccurateRip database.
Statistics
Read error : 0
Skipped (treated as error) : 0
Edge jitter error (maybe fixed) : 0
Atom jitter error (maybe fixed) : 0
Drift error (maybe fixed) : 0
Dropped bytes error (maybe fixed) : 0
Duplicated bytes error (maybe fixed) : 0
Inconsistency in error sectors : 0
Track 13
Filename : /Users/gubarenko/Desktop/Marvin Gaye - Super Hits/13 - I'll Be Doggone.flac
Pre-gap length : 00:04:07
CRC32 hash (test run) : 51CD5609
CRC32 hash : 51CD5609
CRC32 hash (skip zero) : 6F3207C8
AccurateRip signature : 02CD39A8
->Track not present in AccurateRip database.
Statistics
Read error : 0
Skipped (treated as error) : 0
Edge jitter error (maybe fixed) : 0
Atom jitter error (maybe fixed) : 0
Drift error (maybe fixed) : 0
Dropped bytes error (maybe fixed) : 0
Duplicated bytes error (maybe fixed) : 0
Inconsistency in error sectors : 0
Track 14
Filename : /Users/gubarenko/Desktop/Marvin Gaye - Super Hits/14 - Hitch Hike.flac
Pre-gap length : 00:01:73
CRC32 hash (test run) : F88BA2C6
CRC32 hash : F88BA2C6
CRC32 hash (skip zero) : F88BA2C6
AccurateRip signature : 8E6E64C3
->Track not present in AccurateRip database.
Statistics
Read error : 0
Skipped (treated as error) : 0
Edge jitter error (maybe fixed) : 0
Atom jitter error (maybe fixed) : 0
Drift error (maybe fixed) : 0
Dropped bytes error (maybe fixed) : 0
Duplicated bytes error (maybe fixed) : 0
Inconsistency in error sectors : 0
Track 15
Filename : /Users/gubarenko/Desktop/Marvin Gaye - Super Hits/15 - You.flac
Pre-gap length : 00:04:19
CRC32 hash (test run) : DF6803B2
CRC32 hash : DF6803B2
CRC32 hash (skip zero) : F93DFB67
AccurateRip signature : 5E92430B
->Track not present in AccurateRip database.
Statistics
Read error : 0
Skipped (treated as error) : 0
Edge jitter error (maybe fixed) : 0
Atom jitter error (maybe fixed) : 0
Drift error (maybe fixed) : 0
Dropped bytes error (maybe fixed) : 0
Duplicated bytes error (maybe fixed) : 0
Inconsistency in error sectors : 0
Track 16
Filename : /Users/gubarenko/Desktop/Marvin Gaye - Super Hits/16 - Baby Don't You Do It.flac
Pre-gap length : 00:04:19
CRC32 hash (test run) : 3EA5129C
CRC32 hash : 3EA5129C
CRC32 hash (skip zero) : 8CE4CEA0
AccurateRip signature : 97F1CB20
->Track not present in AccurateRip database.
Statistics
Read error : 0
Skipped (treated as error) : 0
Edge jitter error (maybe fixed) : 0
Atom jitter error (maybe fixed) : 0
Drift error (maybe fixed) : 0
Dropped bytes error (maybe fixed) : 0
Duplicated bytes error (maybe fixed) : 0
Inconsistency in error sectors : 0
No errors occurred
End of status report
 
CD1: CUE
TITLE "Super Hits"
PERFORMER "Marvin Gaye"
REM GENRE "Blues"
FILE "01 - Heard It Through The Grapevine.wav" WAVE
TRACK 01 AUDIO
TITLE "Heard It Through The Grapevine"
INDEX 01 00:00:00
TRACK 02 AUDIO
TITLE "Pride And Joy"
INDEX 00 03:16:15
FILE "02 - Pride And Joy.wav" WAVE
INDEX 01 00:00:00
TRACK 03 AUDIO
TITLE "The End Of Our Road"
INDEX 00 02:08:30
FILE "03 - The End Of Our Road.wav" WAVE
INDEX 01 00:00:00
TRACK 04 AUDIO
TITLE "Ain't That Peculiar"
INDEX 00 02:52:33
FILE "04 - Ain't That Peculiar.wav" WAVE
INDEX 01 00:00:00
TRACK 05 AUDIO
TITLE "Stubborn Kind Of Fellow"
INDEX 00 02:59:53
FILE "05 - Stubborn Kind Of Fellow.wav" WAVE
INDEX 01 00:00:00
TRACK 06 AUDIO
TITLE "Can I Get A Witness"
INDEX 00 02:48:05
FILE "06 - Can I Get A Witness.wav" WAVE
INDEX 01 00:00:00
TRACK 07 AUDIO
TITLE "How Sweet It Is (To Be Loved By You)"
INDEX 00 02:52:05
FILE "07 - How Sweet It Is (To Be Loved By You).wav" WAVE
INDEX 01 00:00:00
TRACK 08 AUDIO
TITLE "That's The Way Love Is"
INDEX 00 02:52:27
FILE "08 - That's The Way Love Is.wav" WAVE
INDEX 01 00:00:00
TRACK 09 AUDIO
TITLE "Too Busy Thinking About My Baby"
INDEX 00 03:38:00
FILE "09 - Too Busy Thinking About My Baby.wav" WAVE
INDEX 01 00:00:00
TRACK 10 AUDIO
TITLE "Chained"
INDEX 00 02:55:57
FILE "10 - Chained.wav" WAVE
INDEX 01 00:00:00
TRACK 11 AUDIO
TITLE "You're A Wonderful One"
INDEX 00 02:39:40
FILE "11 - You're A Wonderful One.wav" WAVE
INDEX 01 00:00:00
TRACK 12 AUDIO
TITLE "Try It Baby"
INDEX 00 02:44:40
FILE "12 - Try It Baby.wav" WAVE
INDEX 01 00:00:00
TRACK 13 AUDIO
TITLE "I'll Be Doggone"
INDEX 00 02:58:58
FILE "13 - I'll Be Doggone.wav" WAVE
INDEX 01 00:00:00
TRACK 14 AUDIO
TITLE "Hitch Hike"
INDEX 00 02:49:28
FILE "14 - Hitch Hike.wav" WAVE
INDEX 01 00:00:00
TRACK 15 AUDIO
TITLE "You"
INDEX 00 02:29:19
FILE "15 - You.wav" WAVE
INDEX 01 00:00:00
TRACK 16 AUDIO
TITLE "Baby Don't You Do It"
INDEX 00 02:26:16
FILE "16 - Baby Don't You Do It.wav" WAVE
INDEX 01 00:00:00
 
UICY-94035
Диск куплен тут.
 
Marvin Gaye SHM-CD Cardboard Sleeve Reissues (Universal)
UICY-94022: The Soulful Moods Of Marvin Gaye
UICY-94023: That Stubborn Kinda Fellow
UICY-94024: Recorded Live On Stage
UICY-94025: Whem I'm Alone I Cry
UICY-94026: Hello Broadway
UICY-94027: How Sweet It Is To Be Loved By You
UICY-94028: A Tribute To Great Nat 'King' Cole
UICY-94029: Moods Of Marvin Gaye
UICY-94030: At The Copa
UICY-94031: I Heard It Through The Grapevine
UICY-94032: M.P.G.
UICY-94033: That's The Way Love Is
UICY-94034: Greatest Hits, Vol. I & Vol. II
UICY-94035: Super Hits
UICY-94036/7: What's Going On (Deluxe Edition)
UICY-94038: Trouble Man
UICY-94039/40: Let's Get It On (Deluxe Edition)
UICY-94041: Live!
UICY-94042/3: I Want You (Deluxe Edition)
UICY-94044: Greatest Hits
UICY-94045: Live At London Palladium
UICY-94046/7: Here My Dear (Deluxe Edition)
UICY-94124: In Our Lifetime
UICY-94125: Vulnerable
UICY-94126: Every Motown Hit Of Marvin Gaye
UICY-94127: Motown Remembers
UICY-94128/9: Musical Testament 1964-1984
UICY-94161: Together (with Mary Wells)
UICY-94162: Take Two (with Kim Weston)
UICY-94163: United (with Tammi Terrell)
UICY-94164: You're All I Need (with Tammi Terrell)
UICY-94165: Easy (with Tammi Terrell)
UICY-94168: Diana & Marvin (with Diana Ross)
* мои раздачи, чужие, скоро будет
* mine, others, soon
Приватный:
Да (DHT отключён)
Размер:
392.17 Мб (411,217,226 байт) » файлов: 24
Участники:
0 раздают, 0 качают (0 участников всего)
Внешние участники:
7 раздают, 2 качают (9 участников всего) [ Обновить ]
Никого нет на раздаче - пишите личное сообщение M0p94ok
No seeders - write personal message to M0p94ok
04:26
18
Нет комментариев. Ваш будет первым!