Поиск

(Funk / Soul) Breakestra - Dusk Till Dawn - 2009, FLAC (tracks+.cue), lossless

Треклист:
Breakestra - Dusk Till Dawn
Жанр: Funk / Soul
Год выпуска диска: 2009
Производитель диска: Germany (Strut)
Аудио кодек: FLAC
Тип рипа: tracks+.cue
Битрейт аудио: lossless
Продолжительность: 1:13:16
Трэклист:
1 Need A Little Love 5:16
2 Dark Clouds Rain Soul 6:07
3 Come On Over 4:25 Featuring - Afrodyete
4 Back At The Boathouse 2:53
5 Get It Right 3:10
6 Show You The Way 4:52
7 Me & Michellle 5:00
8 I Don't Wanna Wait 2:50
9 No Matter Where You Go 5:49
10 'Posed To Be 5:20 Featuring - Chali 2na , DJ Dusk
11 North-East Nippon 5:01
12 Low Down Stank 6:40
13 Joyful Noise 5:36
14 You'll Never Know 5:26
15 Set The Sun
Доп. информация: Uploaded by komodino what.cd
 
eac
Exact Audio Copy V0.99 prebeta 4 from 23. January 2008
EAC extraction logfile from 16. November 2009, 22:14
Breakestra / Dusk Till Dawn
Used drive : ASUS CRW-5232AS Adapter: 1 ID: 1
Read mode : Secure
Utilize accurate stream : Yes
Defeat audio cache : Yes
Make use of C2 pointers : No
Read offset correction : 6
Overread into Lead-In and Lead-Out : No
Fill up missing offset samples with silence : Yes
Delete leading and trailing silent blocks : No
Null samples used in CRC calculations : Yes
Used interface : Native Win32 interface for Win NT & 2000
Gap handling : Appended to previous track
Used output format : User Defined Encoder
Selected bitrate : 320 kBit/s
Quality : High
Add ID3 tag : No
Command line compressor : C:\Program Files\Exact Audio Copy\Flac\flac.exe
Additional command line options : -V -8 -T "artist=%a" -T "title=%t" -T "album=%g" -T "date=%y" -T "tracknumber=%n" -T "genre=%m" %s
TOC of the extracted CD
Track | Start | Length | Start sector | End sector
---------------------------------------------------------
1 | 0:00.00 | 5:16.16 | 0 | 23715
2 | 5:16.16 | 6:08.13 | 23716 | 51328
3 | 11:24.29 | 4:26.14 | 51329 | 71292
4 | 15:50.43 | 2:54.10 | 71293 | 84352
5 | 18:44.53 | 3:12.01 | 84353 | 98753
6 | 21:56.54 | 4:53.40 | 98754 | 120768
7 | 26:50.19 | 5:00.48 | 120769 | 143316
8 | 31:50.67 | 2:51.21 | 143317 | 156162
9 | 34:42.13 | 5:51.08 | 156163 | 182495
10 | 40:33.21 | 5:20.61 | 182496 | 206556
11 | 45:54.07 | 5:03.07 | 206557 | 229288
12 | 50:57.14 | 6:41.33 | 229289 | 259396
13 | 57:38.47 | 5:35.68 | 259397 | 284589
14 | 63:14.40 | 5:27.61 | 284590 | 309175
15 | 68:42.26 | 4:33.71 | 309176 | 329721
Track 1
Filename D:\Rip\Breakestra - Dusk Till Dawn - 2009[FLAC]\01 - Need a Little Love.wav
Pre-gap length 0:00:02.00
Peak level 100.0 %
Track quality 100.0 %
Test CRC 56BD5E19
Copy CRC 56BD5E19
Accurately ripped (confidence 1) [DD269DF2]
Copy OK
Track 2
Filename D:\Rip\Breakestra - Dusk Till Dawn - 2009[FLAC]\02 - Dark Clouds Rain Soul.wav
Peak level 100.0 %
Track quality 100.0 %
Test CRC 10E878EA
Copy CRC 10E878EA
Accurately ripped (confidence 1) [645B9C88]
Copy OK
Track 3
Filename D:\Rip\Breakestra - Dusk Till Dawn - 2009[FLAC]\03 - Come On Over (feat. Afrodyete).wav
Pre-gap length 0:00:01.51
Peak level 100.0 %
Track quality 100.0 %
Test CRC F5FB1516
Copy CRC F5FB1516
Accurately ripped (confidence 1) [FFCD3D14]
Copy OK
Track 4
Filename D:\Rip\Breakestra - Dusk Till Dawn - 2009[FLAC]\04 - Back at the Boathouse.wav
Pre-gap length 0:00:01.51
Peak level 100.0 %
Track quality 100.0 %
Test CRC C455EBF4
Copy CRC C455EBF4
Accurately ripped (confidence 1) [62E50200]
Copy OK
Track 5
Filename D:\Rip\Breakestra - Dusk Till Dawn - 2009[FLAC]\05 - Get It Right.wav
Pre-gap length 0:00:01.51
Peak level 98.8 %
Track quality 100.0 %
Test CRC 25B09590
Copy CRC 25B09590
Accurately ripped (confidence 1) [79401403]
Copy OK
Track 6
Filename D:\Rip\Breakestra - Dusk Till Dawn - 2009[FLAC]\06 - Show You the Way.wav
Pre-gap length 0:00:01.51
Peak level 100.0 %
Track quality 99.9 %
Test CRC D28A670A
Copy CRC D28A670A
Accurately ripped (confidence 1) [7A8A8478]
Copy OK
Track 7
Filename D:\Rip\Breakestra - Dusk Till Dawn - 2009[FLAC]\07 - Me and Michelle.wav
Pre-gap length 0:00:01.51
Peak level 100.0 %
Track quality 100.0 %
Test CRC 75C42353
Copy CRC 75C42353
Accurately ripped (confidence 1) [C21D209A]
Copy OK
Track 8
Filename D:\Rip\Breakestra - Dusk Till Dawn - 2009[FLAC]\08 - I Don't Wanna Wait.wav
Pre-gap length 0:00:01.51
Peak level 100.0 %
Track quality 100.0 %
Test CRC D4679D4A
Copy CRC D4679D4A
Accurately ripped (confidence 1) [42AB1C4A]
Copy OK
Track 9
Filename D:\Rip\Breakestra - Dusk Till Dawn - 2009[FLAC]\09 - No Matter Where You Go.wav
Pre-gap length 0:00:01.51
Peak level 100.0 %
Track quality 100.0 %
Test CRC 60651347
Copy CRC 60651347
Accurately ripped (confidence 1) [5953B68B]
Copy OK
Track 10
Filename D:\Rip\Breakestra - Dusk Till Dawn - 2009[FLAC]\10 - 'Posed to be (feat. Chali 2na, Mixmaster Wolf and DJ Dusk).wav
Pre-gap length 0:00:01.51
Peak level 100.0 %
Track quality 100.0 %
Test CRC FDAFA687
Copy CRC FDAFA687
Accurately ripped (confidence 1) [61DC5761]
Copy OK
Track 11
Filename D:\Rip\Breakestra - Dusk Till Dawn - 2009[FLAC]\11 - North-East To Nippon.wav
Pre-gap length 0:00:01.51
Peak level 100.0 %
Track quality 100.0 %
Test CRC EF444651
Copy CRC EF444651
Accurately ripped (confidence 1) [6AB910DD]
Copy OK
Track 12
Filename D:\Rip\Breakestra - Dusk Till Dawn - 2009[FLAC]\12 - Lowdown Stank.wav
Pre-gap length 0:00:01.51
Peak level 100.0 %
Track quality 99.9 %
Test CRC 0A6BBC3C
Copy CRC 0A6BBC3C
Accurately ripped (confidence 1) [BB5702AC]
Copy OK
Track 13
Filename D:\Rip\Breakestra - Dusk Till Dawn - 2009[FLAC]\13 - Joyful Noise.wav
Pre-gap length 0:00:01.51
Peak level 100.0 %
Track quality 100.0 %
Test CRC 9F0A7067
Copy CRC 9F0A7067
Accurately ripped (confidence 1) [3DC05085]
Copy OK
Track 14
Filename D:\Rip\Breakestra - Dusk Till Dawn - 2009[FLAC]\14 - You'll Never Know (featu. Jeremy Ruzumna).wav
Pre-gap length 0:00:01.51
Peak level 100.0 %
Track quality 100.0 %
Test CRC 95F2A72A
Copy CRC 95F2A72A
Cannot be verified as accurate (confidence 1) [65F37E55], AccurateRip returned [0DBF18BF]
Copy OK
Track 15
Filename D:\Rip\Breakestra - Dusk Till Dawn - 2009[FLAC]\15 - Set the Sun (for Tarek).wav
Pre-gap length 0:00:01.51
Peak level 100.0 %
Track quality 99.9 %
Test CRC 578415AA
Copy CRC 578415AA
Cannot be verified as accurate (confidence 1) [19AA3759], AccurateRip returned [64AD4697]
Copy OK
13 track(s) accurately ripped
2 track(s) could not be verified as accurate
Some tracks could not be verified as accurate
No errors occurred
End of status report
 
cue
REM GENRE Funk
REM DATE 2009
REM DISCID D2112C0F
REM COMMENT "ExactAudioCopy v0.99pb4"
PERFORMER "Breakestra"
TITLE "Dusk Till Dawn"
FILE "Breakestra - Dusk Till Dawn - 2009[FLAC]\01 - Need a Little Love.wav" WAVE
TRACK 01 AUDIO
TITLE "Need a Little Love"
PERFORMER "Breakestra"
INDEX 01 00:00:00
FILE "Breakestra - Dusk Till Dawn - 2009[FLAC]\02 - Dark Clouds Rain Soul.wav" WAVE
TRACK 02 AUDIO
TITLE "Dark Clouds Rain Soul"
PERFORMER "Breakestra"
INDEX 01 00:00:00
TRACK 03 AUDIO
TITLE "Come On Over (feat. Afrodyete)"
PERFORMER "Breakestra"
INDEX 00 06:06:37
FILE "Breakestra - Dusk Till Dawn - 2009[FLAC]\03 - Come On Over (feat. Afrodyete).wav" WAVE
INDEX 01 00:00:00
TRACK 04 AUDIO
TITLE "Back at the Boathouse"
PERFORMER "Breakestra"
INDEX 00 04:24:38
FILE "Breakestra - Dusk Till Dawn - 2009[FLAC]\04 - Back at the Boathouse.wav" WAVE
INDEX 01 00:00:00
TRACK 05 AUDIO
TITLE "Get It Right"
PERFORMER "Breakestra"
INDEX 00 02:52:34
FILE "Breakestra - Dusk Till Dawn - 2009[FLAC]\05 - Get It Right.wav" WAVE
INDEX 01 00:00:00
TRACK 06 AUDIO
TITLE "Show You the Way"
PERFORMER "Breakestra"
INDEX 00 03:10:25
FILE "Breakestra - Dusk Till Dawn - 2009[FLAC]\06 - Show You the Way.wav" WAVE
INDEX 01 00:00:00
TRACK 07 AUDIO
TITLE "Me and Michelle"
PERFORMER "Breakestra"
INDEX 00 04:51:64
FILE "Breakestra - Dusk Till Dawn - 2009[FLAC]\07 - Me and Michelle.wav" WAVE
INDEX 01 00:00:00
TRACK 08 AUDIO
TITLE "I Don't Wanna Wait"
PERFORMER "Breakestra"
INDEX 00 04:58:72
FILE "Breakestra - Dusk Till Dawn - 2009[FLAC]\08 - I Don't Wanna Wait.wav" WAVE
INDEX 01 00:00:00
TRACK 09 AUDIO
TITLE "No Matter Where You Go"
PERFORMER "Breakestra"
INDEX 00 02:49:45
FILE "Breakestra - Dusk Till Dawn - 2009[FLAC]\09 - No Matter Where You Go.wav" WAVE
INDEX 01 00:00:00
TRACK 10 AUDIO
TITLE "'Posed to be (feat. Chali 2na, Mixmaster Wolf and DJ Dusk)"
PERFORMER "Breakestra"
INDEX 00 05:49:32
FILE "Breakestra - Dusk Till Dawn - 2009[FLAC]\10 - 'Posed to be (feat. Chali 2na, Mixmaster Wolf and DJ Dusk).wav" WAVE
INDEX 01 00:00:00
TRACK 11 AUDIO
TITLE "North-East To Nippon"
PERFORMER "Breakestra"
INDEX 00 05:19:10
FILE "Breakestra - Dusk Till Dawn - 2009[FLAC]\11 - North-East To Nippon.wav" WAVE
INDEX 01 00:00:00
TRACK 12 AUDIO
TITLE "Lowdown Stank"
PERFORMER "Breakestra"
INDEX 00 05:01:31
FILE "Breakestra - Dusk Till Dawn - 2009[FLAC]\12 - Lowdown Stank.wav" WAVE
INDEX 01 00:00:00
TRACK 13 AUDIO
TITLE "Joyful Noise"
PERFORMER "Breakestra"
INDEX 00 06:39:57
FILE "Breakestra - Dusk Till Dawn - 2009[FLAC]\13 - Joyful Noise.wav" WAVE
INDEX 01 00:00:00
TRACK 14 AUDIO
TITLE "You'll Never Know (featu. Jeremy Ruzumna)"
PERFORMER "Breakestra"
INDEX 00 05:34:17
FILE "Breakestra - Dusk Till Dawn - 2009[FLAC]\14 - You'll Never Know (featu. Jeremy Ruzumna).wav" WAVE
INDEX 01 00:00:00
TRACK 15 AUDIO
TITLE "Set the Sun (for Tarek)"
PERFORMER "Breakestra"
INDEX 00 05:26:10
FILE "Breakestra - Dusk Till Dawn - 2009[FLAC]\15 - Set the Sun (for Tarek).wav" WAVE
INDEX 01 00:00:00
Приватный:
Нет (DHT включён)
Размер:
448.53 Мб (470,317,543 байт) » файлов: 19
Участники:
0 раздают, 0 качают (0 участников всего)
Внешние участники:
3 раздают, 1 качают (4 участников всего) [ Обновить ]
Никого нет на раздаче - пишите ЛС M0p94ok
No seeders - write PM to M0p94ok
04:25
20
Нет комментариев. Ваш будет первым!