Поиск

(Funk, R&B) Chaka Khan - I Feel For You - 1990, APE (image+.cue), lossless

Треклист:
Chaka Khan - I Feel For You
Жанр: Funk, R&B
Дата выпуска оригинала: 1984
Дата выпуска переиздания: October 25, 1990
Производитель диска, номер, страна: Warner Bros / Wea
Аудио кодек: FLAC
Тип рипа: (tracks + .cue)
Битрейт аудио: lossless
Включает: Full artwork
Продолжительность: 46:51
Источник: torent
Риппер: tomcad
Трэклист:
1. This Is My Night (Frank, Murphy) - 4:38
2. Stronger Than Before (Bacharach, Roberts, Sager) - 4:21
3. My Love Is Alive (Wright) - 4:42
4. Eye to Eye (Freeman, Sembello, Sembello, Sembello) - 4:38
5. La Flamme (Roberts, Saisse) - 4:27
6. I Feel for You (Prince) - 5:44
7. Hold Her (Newton-Howard, Wolinski) - 5:14
8. Through the Fire (Foster, Keane, Weil) - 4:45
9. Caught in the Act (Mardin, Milstein) - 3:45
10. Chinatown (Khan, Roberts, Saisse) - 4:37
Состав:
Keith Barnhart - Synthesizer, Keyboards
Robbie Buchanan - Synthesizer, Keyboards, Programming
Nathan East - Bass
Steve Ferrone - Drums
David Foster - Synthesizer, Keyboards
David Frank - Synthesizer, Keyboards, Programming
Grandmaster Melle Mel - Rap
Reggie Griffin - Synthesizer, Bass, Guitar, Keyboards, Programming
Hawk - Bass
James Newton Howard - Synthesizer, Keyboards
Dann Huff - Guitar
Chaka Khan - Vocals, Vocals (bckgr)
Steve Lukather - Guitar
Tony Maiden - Guitar (Rhythm)
Joe Mardin - Drums
Alec Milstein - Vocals (bckgr)
Rob Mounsey - Synthesizer
Mic Murphy - Vocals (bckgr)
Paul Pesco - Guitar
John Robie - Synthesizer, Keyboards, Programming
John "J.R." Robinson - Drums
Marcus Ryle - Programming
Philippe Saisse - Synthesizer, Arranger, Keyboards, Programming
Cruz Baca Sembello - Vocals (bckgr)
Danny Sembello - Synthesizer, Keyboards
Michael Sembello - Guitar, Guitar (Rhythm), Vocals (bckgr)
Craig Siegel - Programming
Mark Stevens - Vocals (bckgr)
Hamish Stuart - Vocals (bckgr)
Stevie Wonder - Harmonica
Vadim Zilbershtein - Guitar
Издания:
1984 CD Warner Bros. 2-25162
1984 CS Warner Bros. 4-25162
2006 CD Warner Bros.
 
Несколько слов на английском
Review by Alex Henderson
When Chaka Khan recorded her fifth solo album, I Feel for You, in 1984, she knew that R&B had changed a lot since the 1970s. Horn-powered funk bands, strings-laden Philadelphia soul, and orchestral disco were out of vogue, and the urban contemporary audiences of 1984 were into a more high-tech, heavily electronic style of R&B. Many artists who had been huge in the 1970s found that they no longer appealed to black radio programmers, who had abandoned them and turned their attention to electro-funksters and Prince disciples. But Chaka Khan had no problem keeping up with the times; I Feel for You made it clear that she could easily be relevant to the urban contemporary scene of 1984. No one would mistake I Feel for You for a Rufus project from 1975 — it's way too high-tech — and yet, everything on the album is unmistakably Chaka Khan. That is true of up-tempo items like "Love Is Alive" (an interesting remake of Gary Wright's 1976 hit) and "La Flamme," as well as the ballad "Through the Fire," which was a big hit on urban radio but crossed over to adult contemporary stations in a major way. "This Is My Night" (which was written and produced by the System) also became an urban radio hit, but the album is best known for Khan's unlikely remake of Prince's "I Feel for You." When Prince first recorded "I Feel for You" in 1979, it wasn't a hit; Khan's version, however, soared to number one on Billboard's R&B singles chart. Khan had a very different take on the song than Prince; while his original version was subtle and restrained, Khan went for exuberance and added a strong hip-hop flavor. Excellent from start to finish, this album went down in history as both a creative and a commercial success.
 
Cue
REM GENRE Pop/Funk
REM DATE 1984
REM DISCID 780B090A
REM COMMENT "ExactAudioCopy v0.95b4"
PERFORMER "Chaka Khan"
TITLE "I Feel For You"
FILE "01 - This Is My Night.flac" WAVE
TRACK 01 AUDIO
TITLE "This Is My Night"
PERFORMER "Chaka Khan"
INDEX 01 00:00:00
TRACK 02 AUDIO
TITLE "Stronger Than Before"
PERFORMER "Chaka Khan"
INDEX 00 04:41:38
FILE "02 - Stronger Than Before.flac" WAVE
INDEX 01 00:00:00
TRACK 03 AUDIO
TITLE "My Love Is Alive"
PERFORMER "Chaka Khan"
INDEX 00 04:20:55
FILE "03 - My Love Is Alive.flac" WAVE
INDEX 01 00:00:00
TRACK 04 AUDIO
TITLE "Eye To Eye"
PERFORMER "Chaka Khan"
INDEX 00 04:42:08
FILE "04 - Eye To Eye.flac" WAVE
INDEX 01 00:00:00
TRACK 05 AUDIO
TITLE "La Flamme"
PERFORMER "Chaka Khan"
INDEX 00 04:38:12
FILE "05 - La Flamme.flac" WAVE
INDEX 01 00:00:00
TRACK 06 AUDIO
TITLE "I Feel For You"
PERFORMER "Chaka Khan"
INDEX 00 04:26:35
FILE "06 - I Feel For You.flac" WAVE
INDEX 01 00:00:00
TRACK 07 AUDIO
TITLE "Hold Her"
PERFORMER "Chaka Khan"
INDEX 00 05:45:11
FILE "07 - Hold Her.flac" WAVE
INDEX 01 00:00:00
TRACK 08 AUDIO
TITLE "Through The Fire"
PERFORMER "Chaka Khan"
INDEX 00 05:15:03
FILE "08 - Through The Fire.flac" WAVE
INDEX 01 00:00:00
TRACK 09 AUDIO
TITLE "Caught In The Act"
PERFORMER "Chaka Khan"
INDEX 00 04:45:55
FILE "09 - Caught In The Act.flac" WAVE
INDEX 01 00:00:00
TRACK 10 AUDIO
TITLE "Chinatown"
PERFORMER "Chaka Khan"
INDEX 00 03:46:32
FILE "10 - Chinatown.flac" WAVE
INDEX 01 00:00:00
 
EAC log
EAC extraction logfile from 23. July 2006, 19:56 for CD
Chaka Khan / I Feel For You
Used drive : PLEXTOR CD-ROM PX-40TS Adapter: 2 ID: 3
Read mode : Secure with NO C2, accurate stream, disable cache
Read offset correction : 676
Overread into Lead-In and Lead-Out : No
Used output format : E:\Frontah\flac.exe (User Defined Encoder)
256 kBit/s
Additional command line options : -5 -V -T "ARTIST=%a" -T "TITLE=%t" -T "ALBUM=%g" -T "DATE=%y" -T "TRACKNUMBER=%n" -T "GENRE=%m" -T "COMMENT=EAC Flac 1.1.2 -5" %s
Other options :
Fill up missing offset samples with silence : Yes
Delete leading and trailing silent blocks : No
Installed external ASPI interface
Track 1
Filename G:\wave\Chaka Khan - I Feel For You\01 - This Is My Night.wav
Pre-gap length 0:00:02.00
Peak level 100.0 %
Track quality 100.0 %
Test CRC 102F52F4
Copy CRC 102F52F4
Copy OK
Track 2
Filename G:\wave\Chaka Khan - I Feel For You\02 - Stronger Than Before.wav
Pre-gap length 0:00:00.62
Peak level 90.8 %
Track quality 99.9 %
Test CRC F69DB7BD
Copy CRC F69DB7BD
Copy OK
Track 3
Filename G:\wave\Chaka Khan - I Feel For You\03 - My Love Is Alive.wav
Pre-gap length 0:00:00.60
Peak level 93.3 %
Track quality 100.0 %
Test CRC CED2527B
Copy CRC CED2527B
Copy OK
Track 4
Filename G:\wave\Chaka Khan - I Feel For You\04 - Eye To Eye.wav
Pre-gap length 0:00:00.73
Peak level 93.4 %
Track quality 100.0 %
Test CRC CB142217
Copy CRC CB142217
Copy OK
Track 5
Filename G:\wave\Chaka Khan - I Feel For You\05 - La Flamme.wav
Pre-gap length 0:00:00.73
Peak level 78.8 %
Track quality 100.0 %
Test CRC 19076A7F
Copy CRC 19076A7F
Copy OK
Track 6
Filename G:\wave\Chaka Khan - I Feel For You\06 - I Feel For You.wav
Pre-gap length 0:00:01.40
Peak level 92.2 %
Track quality 100.0 %
Test CRC 5FB52FE9
Copy CRC 5FB52FE9
Copy OK
Track 7
Filename G:\wave\Chaka Khan - I Feel For You\07 - Hold Her.wav
Pre-gap length 0:00:00.92
Peak level 91.3 %
Track quality 100.0 %
Test CRC B82EFCF9
Copy CRC B82EFCF9
Copy OK
Track 8
Filename G:\wave\Chaka Khan - I Feel For You\08 - Through The Fire.wav
Pre-gap length 0:00:01.09
Peak level 73.1 %
Track quality 100.0 %
Test CRC B028D23F
Copy CRC B028D23F
Copy OK
Track 9
Filename G:\wave\Chaka Khan - I Feel For You\09 - Caught In The Act.wav
Pre-gap length 0:00:01.30
Peak level 81.3 %
Track quality 100.0 %
Test CRC 9FB2BCD6
Copy CRC 9FB2BCD6
Copy OK
Track 10
Filename G:\wave\Chaka Khan - I Feel For You\10 - Chinatown.wav
Pre-gap length 0:00:00.80
Peak level 75.6 %
Track quality 99.8 %
Test CRC 3EC9C358
Copy CRC 3EC9C358
Copy OK
No errors occured
End of status report
 
auCDtect log
[img]2911301194 49768364 01 - This Is My Night.wav
3496453426 46099244 02 - Stronger Than Before.wav
996384509 49893020 03 - My Love Is Alive.wav
3934459028 49196828 04 - Eye To Eye.wav
1335720866 47251724 05 - La Flamme.wav
2615233548 61046204 06 - I Feel For You.wav
1398141748 55765964 07 - Hold Her.wav
3701571980 50633900 08 - Through The Fire.wav
4163636869 40082828 09 - Caught In The Act.wav
1717921680 48622940 10 - Chinatown.wav
auCDtect: CD records authenticity detector, version 0.8.2
Copyright (c) 2004 Oleg Berngardt. All rights reserved.
Copyright (c) 2004 Alexander Djourik. All rights reserved.
------------------------------------------------------------
Processing file: [01 - This Is My Night.wav]
------------------------------------------------------------
This track looks like CDDA with probability 100%
------------------------------------------------------------
Processing file: [02 - Stronger Than Before.wav]
------------------------------------------------------------
This track looks like CDDA with probability 100%
------------------------------------------------------------
Processing file: [03 - My Love Is Alive.wav]
------------------------------------------------------------
This track looks like CDDA with probability 100%
------------------------------------------------------------
Processing file: [04 - Eye To Eye.wav]
------------------------------------------------------------
This track looks like CDDA with probability 100%
------------------------------------------------------------
Processing file: [05 - La Flamme.wav]
------------------------------------------------------------
This track looks like CDDA with probability 100%
------------------------------------------------------------
Processing file: [06 - I Feel For You.wav]
------------------------------------------------------------
This track looks like CDDA with probability 100%
------------------------------------------------------------
Processing file: [07 - Hold Her.wav]
------------------------------------------------------------
This track looks like CDDA with probability 100%
------------------------------------------------------------
Processing file: [08 - Through The Fire.wav]
------------------------------------------------------------
This track looks like CDDA with probability 100%
------------------------------------------------------------
Processing file: [09 - Caught In The Act.wav]
------------------------------------------------------------
This track looks like CDDA with probability 100%
------------------------------------------------------------
Processing file: [10 - Chinatown.wav]
------------------------------------------------------------
This track looks like CDDA with probability 100%
------------------------------------------------------------
Final Conclusion:
------------------------------------------------------------
These tracks looks like CDDA with probability 100%
[/img]
Я не сидирую все свои раздачи подолгу, только новые (до 3х первых сидов)
За своими раздачами не слежу, и старые топики не читаю - если нет сидов или раздача находится в
архиве, пришлите письмо, и я вернусь
Предлагаю скачавшим максимально долго оставаться на раздаче - весь рейтинг будет ваш.
Заботьтесь о своем рейтинге - конвертируйте в мп3 и выкладывайте в соответствующем разделе
Приватный:
Нет (DHT включён)
Размер:
321.30 Мб (336,903,862 байт) » файлов: 25
Участники:
0 раздают, 0 качают (0 участников всего)
Внешние участники:
3 раздают, 1 качают (4 участников всего) [ Обновить ]
Никого нет на раздаче - пишите личное сообщение M0p94ok
No seeders - write personal message to M0p94ok
04:26
14
Нет комментариев. Ваш будет первым!