Поиск

(Funky Soul/Disco) Millie Jackson: 2 Albums: Feelin' Bitchy (1977) / Rock 'n' Soul (1994) , FLAC (tracks+.cue) , lossless

Треклист:
Millie Jackson:Feelin`Bitchy(1977)/Rock`n`Soul(1994)
Жанр: Funky Soul/Disco
Аудио кодек: FLAC
Тип рипа: tracks+.cue
Битрейт аудио: lossless
.
.
.
.
.
.
.

Трэклист и прочее :
 
Feelin' Bitchy (00:39:51) : Southbound Records/Ace Records(UK) - CDSEWM 042 - (1989)

Трэклист:
01. All The Way Lover (10:45)
02. Lovin' Your Good Thing Away (3:15)
03. Angel In Your Arms (4:08)
04. A Little Taste Of Outside Love (3:40)
05. You Created A Monster (3:00)
06. Cheatin' Is (3:49)
07. If You Are Not Back In Love By Monday (5:42)
08. Feelin' Like A Woman (5:34)
 
Лог EAC
Exact Audio Copy V0.99 prebeta 5 from 4. May 2009
Отчёт EAC об извлечении, выполненном 23. апреля 2010, 16:47
Millie Jackson / Feelin' Bitchy
Дисковод: SONY DVD RW DRX-S70U Adapter: 2 ID: 0
Режим чтения : Достоверность
Использование точного потока : Да
Отключение кэша аудио : Да
Использование указателей C2 : Нет
Коррекция смещения при чтении : 48
Способность читать области Lead-in и Lead-out : Нет
Заполнение пропущенных сэмплов тишиной : Да
Удаление блоков с тишиной в начале и конце : Нет
При вычислениях CRC использовались нулевые сэмплы : Да
Интерфейс : Встроенный Win32-интерфейс для Win NT/2000
Обработка зазоров : Добавлено к предыдущему треку
Выходной формат : Пользовательский кодировщик
Выбранный битрейт : 768 kBit/s
Качество : Высокий
Добавление ID3-тэга : Да
Утилита сжатия : H:\Program Files\Exact Audio Copy\Flac\flac.exe
Дополнительные параметры : -6 -V -T "ARTIST=%a" -T "TITLE=%t" -T "ALBUM=%g" -T "DATE=%y" -T "TRACKNUMBER=%n" -T "GENRE=%m" -T "COMMENT=%e" %s -o %d
TOC извлечённого CD
Трек | Старт | Длительность | Начальный сектор | Конечный сектор
---------------------------------------------------------------------
1 | 0:00.00 | 10:45.18 | 0 | 48392
2 | 10:45.18 | 3:14.62 | 48393 | 63004
3 | 14:00.05 | 4:07.53 | 63005 | 81582
4 | 18:07.58 | 3:39.40 | 81583 | 98047
5 | 21:47.23 | 2:59.70 | 98048 | 111542
6 | 24:47.18 | 3:48.50 | 111543 | 128692
7 | 28:35.68 | 5:41.40 | 128693 | 154307
8 | 34:17.33 | 5:33.45 | 154308 | 179327
Трек 1
Имя файла D:\My Documents\millie jackson\Feelin` Bitchy\[01]All The Way Lover-Millie Jackson.wav
Длина предзазора 0:00:02.00
Пиковый уровень 99.7 %
Качество трека 100.0 %
CRC теста 1DF1E201
CRC копии 1DF1E201
Копирование... OK
Трек 2
Имя файла D:\My Documents\millie jackson\Feelin` Bitchy\[02]Lovin' Your Good Thing Away-Millie Jackson.wav
Длина предзазора 0:00:02.17
Пиковый уровень 99.1 %
Качество трека 100.0 %
CRC теста A66C91DF
CRC копии A66C91DF
Копирование... OK
Трек 3
Имя файла D:\My Documents\millie jackson\Feelin` Bitchy\[03]Angel In Your Arms-Millie Jackson.wav
Длина предзазора 0:00:02.76
Пиковый уровень 99.4 %
Качество трека 99.9 %
CRC теста CBEC1670
CRC копии CBEC1670
Копирование... OK
Трек 4
Имя файла D:\My Documents\millie jackson\Feelin` Bitchy\[04]A Little Taste Of Outside Love-Millie Jackson.wav
Длина предзазора 0:00:02.40
Пиковый уровень 98.5 %
Качество трека 100.0 %
CRC теста 23AE2DD2
CRC копии 23AE2DD2
Копирование... OK
Трек 5
Имя файла D:\My Documents\millie jackson\Feelin` Bitchy\[05]You Created A Monster-Millie Jackson.wav
Пиковый уровень 99.9 %
Качество трека 100.0 %
CRC теста D718E89E
CRC копии D718E89E
Копирование... OK
Трек 6
Имя файла D:\My Documents\millie jackson\Feelin` Bitchy\[06]Cheatin' Is-Millie Jackson.wav
Пиковый уровень 98.4 %
Качество трека 100.0 %
CRC теста 46556BB9
CRC копии 46556BB9
Копирование... OK
Трек 7
Имя файла D:\My Documents\millie jackson\Feelin` Bitchy\[07]If You Are Not Back In Love By Monday-Millie Jackson.wav
Пиковый уровень 97.4 %
Качество трека 100.0 %
CRC теста 0CA1E5C0
CRC копии 0CA1E5C0
Копирование... OK
Трек 8
Имя файла D:\My Documents\millie jackson\Feelin` Bitchy\[08]Feelin' Like A Woman-Millie Jackson.wav
Пиковый уровень 99.4 %
Качество трека 100.0 %
CRC теста 7F8AF7FF
CRC копии 7F8AF7FF
Копирование... OK
Ошибок не произошло
Конец отчёта
 
Лог Audiochecker
AUDIOCHECKER v2.0 beta (build 457) - by Dester - opdester@freemail.hu
~~~~~~~~~~~~~~~~~~~~~~~~~~~~~~~~~~
-=== НЕ РЕДАКТИРУЙТЕ ЭТОТ ФАЙЛ! ===-
Путь: ...\Feelin` Bitchy
1 -=- [01]All The Way Lover-Millie Jackson.flac -=- CDDA (100%)
2 -=- [02]Lovin' Your Good Thing Away-Millie Jackson.flac -=- CDDA (100%)
3 -=- [03]Angel In Your Arms-Millie Jackson.flac -=- CDDA (100%)
4 -=- [04]A Little Taste Of Outside Love-Millie Jackson.flac -=- CDDA (100%)
5 -=- [05]You Created A Monster-Millie Jackson.flac -=- CDDA (100%)
6 -=- [06]Cheatin' Is-Millie Jackson.flac -=- CDDA (100%)
7 -=- [07]If You Are Not Back In Love By Monday-Millie Jackson.flac -=- CDDA (100%)
8 -=- [08]Feelin' Like A Woman-Millie Jackson.flac -=- CDDA (100%)
Сводка 100,00% CDDA
45746436
 
*CUE
REM GENRE Blues
REM DATE 1977
REM DISCID 76095708
REM COMMENT "ExactAudioCopy v0.99pb5"
PERFORMER "Millie Jackson"
TITLE "Feelin' Bitchy"
FILE "[01]All The Way Lover-Millie Jackson.wav" WAVE
TRACK 01 AUDIO
TITLE "All The Way Lover"
PERFORMER "Millie Jackson"
INDEX 01 00:00:00
TRACK 02 AUDIO
TITLE "Lovin' Your Good Thing Away"
PERFORMER "Millie Jackson"
INDEX 00 10:43:05
FILE "[02]Lovin' Your Good Thing Away-Millie Jackson.wav" WAVE
INDEX 01 00:00:00
TRACK 03 AUDIO
TITLE "Angel In Your Arms"
PERFORMER "Millie Jackson"
INDEX 00 03:12:05
FILE "[03]Angel In Your Arms-Millie Jackson.wav" WAVE
INDEX 01 00:00:00
TRACK 04 AUDIO
TITLE "A Little Taste Of Outside Love"
PERFORMER "Millie Jackson"
INDEX 00 04:05:23
FILE "[04]A Little Taste Of Outside Love-Millie Jackson.wav" WAVE
INDEX 01 00:00:00
FILE "[05]You Created A Monster-Millie Jackson.wav" WAVE
TRACK 05 AUDIO
TITLE "You Created A Monster"
PERFORMER "Millie Jackson"
INDEX 01 00:00:00
FILE "[06]Cheatin' Is-Millie Jackson.wav" WAVE
TRACK 06 AUDIO
TITLE "Cheatin' Is"
PERFORMER "Millie Jackson"
INDEX 01 00:00:00
FILE "[07]If You Are Not Back In Love By Monday-Millie Jackson.wav" WAVE
TRACK 07 AUDIO
TITLE "If You Are Not Back In Love By Monday"
PERFORMER "Millie Jackson"
INDEX 01 00:00:00
FILE "[08]Feelin' Like A Woman-Millie Jackson.wav" WAVE
TRACK 08 AUDIO
TITLE "Feelin' Like A Woman"
PERFORMER "Millie Jackson"
INDEX 01 00:00:00
 
Rock`n`Soul (00:59:28) : Ichiban Records(USA) - ICH 1501-2 : (1994)

Трэклист:
01. Love Quake (3:46)
02. Ledge Of My Life (4:05)
03. Pour Some Sugar On Me (4:17)
04. Donґt Walk Away (4:56)
05. Somebody Shoulda Heard Me (3:49)
06. Whenever You Come Around (4:47)
07. Nothing Lost, Nothing Won (4:11)
08. Chocolate Brown Eyes (4:16)
09. Catch Me (4:22)
10. Check In The Mail (5:54)
11. Rip It Up (4:14)
12. KMJF (4:26)
13. Let`s Straighten It Out (2:26)
14. Killing Me (3:57)
 
Лог EAC
Exact Audio Copy V0.99 prebeta 5 from 4. May 2009
Отчёт EAC об извлечении, выполненном 23. апреля 2010, 15:35
Millie Jackson / RockґnґSoul
Дисковод: SONY DVD RW DRX-S70U Adapter: 2 ID: 0
Режим чтения : Достоверность
Использование точного потока : Да
Отключение кэша аудио : Да
Использование указателей C2 : Нет
Коррекция смещения при чтении : 48
Способность читать области Lead-in и Lead-out : Нет
Заполнение пропущенных сэмплов тишиной : Да
Удаление блоков с тишиной в начале и конце : Нет
При вычислениях CRC использовались нулевые сэмплы : Да
Интерфейс : Встроенный Win32-интерфейс для Win NT/2000
Обработка зазоров : Добавлено к предыдущему треку
Выходной формат : Пользовательский кодировщик
Выбранный битрейт : 768 kBit/s
Качество : Высокий
Добавление ID3-тэга : Да
Утилита сжатия : H:\Program Files\Exact Audio Copy\Flac\flac.exe
Дополнительные параметры : -6 -V -T "ARTIST=%a" -T "TITLE=%t" -T "ALBUM=%g" -T "DATE=%y" -T "TRACKNUMBER=%n" -T "GENRE=%m" -T "COMMENT=%e" %s -o %d
TOC извлечённого CD
Трек | Старт | Длительность | Начальный сектор | Конечный сектор
---------------------------------------------------------------------
1 | 0:00.00 | 3:46.36 | 0 | 16985
2 | 3:46.36 | 4:04.38 | 16986 | 35323
3 | 7:50.74 | 4:17.25 | 35324 | 54623
4 | 12:08.24 | 4:56.35 | 54624 | 76858
5 | 17:04.59 | 3:48.45 | 76859 | 94003
6 | 20:53.29 | 4:47.26 | 94004 | 115554
7 | 25:40.55 | 4:10.73 | 115555 | 134377
8 | 29:51.53 | 4:15.74 | 134378 | 153576
9 | 34:07.52 | 4:22.31 | 153577 | 173257
10 | 38:30.08 | 5:53.74 | 173258 | 199806
11 | 44:24.07 | 4:13.64 | 199807 | 218845
12 | 48:37.71 | 4:26.26 | 218846 | 238821
13 | 53:04.22 | 2:26.06 | 238822 | 249777
14 | 55:30.28 | 3:57.36 | 249778 | 267588
Трек 1
Имя файла D:\My Documents\millie jackson\Rock`n`Soul\[01]Love Quake-Millie Jackson.wav
Длина предзазора 0:00:02.00
Пиковый уровень 100.0 %
Качество трека 99.9 %
CRC теста 6EBBA3DB
CRC копии 6EBBA3DB
Копирование... OK
Трек 2
Имя файла D:\My Documents\millie jackson\Rock`n`Soul\[02]Ledge Of My Life-Millie Jackson.wav
Пиковый уровень 99.9 %
Качество трека 100.0 %
CRC теста 8D3CDC76
CRC копии 8D3CDC76
Копирование... OK
Трек 3
Имя файла D:\My Documents\millie jackson\Rock`n`Soul\[03]Pour Some Sugar On Me-Millie Jackson.wav
Пиковый уровень 100.0 %
Качество трека 99.9 %
CRC теста A7AE55DB
CRC копии A7AE55DB
Копирование... OK
Трек 4
Имя файла D:\My Documents\millie jackson\Rock`n`Soul\[04]Donґt Walk Away-Millie Jackson.wav
Пиковый уровень 100.0 %
Качество трека 100.0 %
CRC теста 78468B42
CRC копии 78468B42
Копирование... OK
Трек 5
Имя файла D:\My Documents\millie jackson\Rock`n`Soul\[05]Somebody Shoulda Heard Me-Millie Jackson.wav
Пиковый уровень 100.0 %
Качество трека 100.0 %
CRC теста 3DD804F1
CRC копии 3DD804F1
Копирование... OK
Трек 6
Имя файла D:\My Documents\millie jackson\Rock`n`Soul\[06]Whenever You Come Around-Millie Jackson.wav
Пиковый уровень 100.0 %
Качество трека 99.9 %
CRC теста 5BD89F23
CRC копии 5BD89F23
Копирование... OK
Трек 7
Имя файла D:\My Documents\millie jackson\Rock`n`Soul\[07]Nothing Lost, Nothing Won-Millie Jackson.wav
Пиковый уровень 100.0 %
Качество трека 99.9 %
CRC теста CA1978E9
CRC копии CA1978E9
Копирование... OK
Трек 8
Имя файла D:\My Documents\millie jackson\Rock`n`Soul\[08]Chocolate Brown Eyes-Millie Jackson.wav
Пиковый уровень 100.0 %
Качество трека 99.3 %
CRC теста 3D48A43E
CRC копии 3D48A43E
Копирование... OK
Трек 9
Имя файла D:\My Documents\millie jackson\Rock`n`Soul\[09]Catch Me-Millie Jackson.wav
Пиковый уровень 100.0 %
Качество трека 99.9 %
CRC теста C9325ABE
CRC копии 2C3CDA05
Копирование... OK
Трек 10
Имя файла D:\My Documents\millie jackson\Rock`n`Soul\[10]Check In The Mail-Millie Jackson.wav
Пиковый уровень 99.9 %
Качество трека 99.7 %
CRC теста 95E1EF33
CRC копии 95E1EF33
Копирование... OK
Трек 11
Имя файла D:\My Documents\millie jackson\Rock`n`Soul\[11]Rip It Up-Millie Jackson.wav
Пиковый уровень 100.0 %
Качество трека 99.9 %
CRC теста 64C9DC75
CRC копии 64C9DC75
Копирование... OK
Трек 12
Имя файла D:\My Documents\millie jackson\Rock`n`Soul\[12]KMJF-Millie Jackson.wav
Пиковый уровень 100.0 %
Качество трека 100.0 %
CRC теста 52CCAC8A
CRC копии 52CCAC8A
Копирование... OK
Трек 13
Имя файла D:\My Documents\millie jackson\Rock`n`Soul\[13]Let`s Straighten It Out-Millie Jackson.wav
Пиковый уровень 100.0 %
Качество трека 100.0 %
CRC теста A35E5F1D
CRC копии A35E5F1D
Копирование... OK
Трек 14
Имя файла D:\My Documents\millie jackson\Rock`n`Soul\[14]Killing Me-Millie Jackson.wav
Пиковый уровень 100.0 %
Качество трека 100.0 %
CRC теста FEE779C6
CRC копии FEE779C6
Копирование... OK
Ошибок не произошло
Конец отчёта
 
Лог Audiochecker
AUDIOCHECKER v2.0 beta (build 457) - by Dester - opdester@freemail.hu
~~~~~~~~~~~~~~~~~~~~~~~~~~~~~~~~~~
Начато: пятница, 23. 04. 2010. - 17:01.20
Найдено файлов: 14
01 -===- D:\My Documents\millie jackson\Rock`n`Soul\[01]Love Quake-Millie Jackson.flac
Извлечение успешно выполнено
Заключение: этот трек - CDDA с вероятностью 100%
Временный файл удалён.
02 -===- D:\My Documents\millie jackson\Rock`n`Soul\[02]Ledge Of My Life-Millie Jackson.flac
Извлечение успешно выполнено
Заключение: этот трек - CDDA с вероятностью 100%
Временный файл удалён.
03 -===- D:\My Documents\millie jackson\Rock`n`Soul\[03]Pour Some Sugar On Me-Millie Jackson.flac
Извлечение успешно выполнено
Заключение: этот трек - CDDA с вероятностью 100%
Временный файл удалён.
04 -===- D:\My Documents\millie jackson\Rock`n`Soul\[04]Donґt Walk Away-Millie Jackson.flac
Извлечение успешно выполнено
Заключение: этот трек - CDDA с вероятностью 100%
Временный файл удалён.
05 -===- D:\My Documents\millie jackson\Rock`n`Soul\[05]Somebody Shoulda Heard Me-Millie Jackson.flac
Извлечение успешно выполнено
Заключение: этот трек - CDDA с вероятностью 100%
Временный файл удалён.
06 -===- D:\My Documents\millie jackson\Rock`n`Soul\[06]Whenever You Come Around-Millie Jackson.flac
Извлечение успешно выполнено
Заключение: этот трек - CDDA с вероятностью 99%
Временный файл удалён.
07 -===- D:\My Documents\millie jackson\Rock`n`Soul\[07]Nothing Lost, Nothing Won-Millie Jackson.flac
Извлечение успешно выполнено
Заключение: этот трек - CDDA с вероятностью 100%
Временный файл удалён.
08 -===- D:\My Documents\millie jackson\Rock`n`Soul\[08]Chocolate Brown Eyes-Millie Jackson.flac
Извлечение успешно выполнено
Заключение: этот трек - CDDA с вероятностью 100%
Временный файл удалён.
09 -===- D:\My Documents\millie jackson\Rock`n`Soul\[09]Catch Me-Millie Jackson.flac
Извлечение успешно выполнено
Заключение: этот трек - CDDA с вероятностью 100%
Временный файл удалён.
10 -===- D:\My Documents\millie jackson\Rock`n`Soul\[10]Check In The Mail-Millie Jackson.flac
Извлечение успешно выполнено
Заключение: этот трек - CDDA с вероятностью 100%
Временный файл удалён.
11 -===- D:\My Documents\millie jackson\Rock`n`Soul\[11]Rip It Up-Millie Jackson.flac
Извлечение успешно выполнено
Заключение: этот трек - CDDA с вероятностью 100%
Временный файл удалён.
12 -===- D:\My Documents\millie jackson\Rock`n`Soul\[12]KMJF-Millie Jackson.flac
Извлечение успешно выполнено
Заключение: этот трек - CDDA с вероятностью 100%
Временный файл удалён.
13 -===- D:\My Documents\millie jackson\Rock`n`Soul\[13]Let`s Straighten It Out-Millie Jackson.flac
Извлечение успешно выполнено
Заключение: этот трек - CDDA с вероятностью 100%
Временный файл удалён.
14 -===- D:\My Documents\millie jackson\Rock`n`Soul\[14]Killing Me-Millie Jackson.flac
Извлечение успешно выполнено
Заключение: этот трек - CDDA с вероятностью 100%
Временный файл удалён.
Завершено: пятница, 23. 04. 2010. - 17:11.59 (Время операции: 0:10.38)
 
*CUE
REM GENRE Soul
REM DATE 1994
REM DISCID B80DEF0E
REM COMMENT "ExactAudioCopy v0.99pb5"
PERFORMER "Millie Jackson"
TITLE "RockґnґSoul"
FILE "[01]Love Quake-Millie Jackson.wav" WAVE
TRACK 01 AUDIO
TITLE "Love Quake"
PERFORMER "Millie Jackson"
FLAGS DCP
INDEX 01 00:00:00
FILE "[02]Ledge Of My Life-Millie Jackson.wav" WAVE
TRACK 02 AUDIO
TITLE "Ledge Of My Life"
PERFORMER "Millie Jackson"
FLAGS DCP
INDEX 01 00:00:00
FILE "[03]Pour Some Sugar On Me-Millie Jackson.wav" WAVE
TRACK 03 AUDIO
TITLE "Pour Some Sugar On Me"
PERFORMER "Millie Jackson"
FLAGS DCP
INDEX 01 00:00:00
FILE "[04]Donґt Walk Away-Millie Jackson.wav" WAVE
TRACK 04 AUDIO
TITLE "Donґt Walk Away"
PERFORMER "Millie Jackson"
FLAGS DCP
INDEX 01 00:00:00
FILE "[05]Somebody Shoulda Heard Me-Millie Jackson.wav" WAVE
TRACK 05 AUDIO
TITLE "Somebody Shoulda Heard Me"
PERFORMER "Millie Jackson"
FLAGS DCP
INDEX 01 00:00:00
FILE "[06]Whenever You Come Around-Millie Jackson.wav" WAVE
TRACK 06 AUDIO
TITLE "Whenever You Come Around"
PERFORMER "Millie Jackson"
FLAGS DCP
INDEX 01 00:00:00
FILE "[07]Nothing Lost, Nothing Won-Millie Jackson.wav" WAVE
TRACK 07 AUDIO
TITLE "Nothing Lost, Nothing Won"
PERFORMER "Millie Jackson"
FLAGS DCP
INDEX 01 00:00:00
FILE "[08]Chocolate Brown Eyes-Millie Jackson.wav" WAVE
TRACK 08 AUDIO
TITLE "Chocolate Brown Eyes"
PERFORMER "Millie Jackson"
FLAGS DCP
INDEX 01 00:00:00
FILE "[09]Catch Me-Millie Jackson.wav" WAVE
TRACK 09 AUDIO
TITLE "Catch Me"
PERFORMER "Millie Jackson"
FLAGS DCP
INDEX 01 00:00:00
FILE "[10]Check In The Mail-Millie Jackson.wav" WAVE
TRACK 10 AUDIO
TITLE "Check In The Mail"
PERFORMER "Millie Jackson"
FLAGS DCP
INDEX 01 00:00:00
FILE "[11]Rip It Up-Millie Jackson.wav" WAVE
TRACK 11 AUDIO
TITLE "Rip It Up"
PERFORMER "Millie Jackson"
FLAGS DCP
INDEX 01 00:00:00
FILE "[12]KMJF-Millie Jackson.wav" WAVE
TRACK 12 AUDIO
TITLE "KMJF"
PERFORMER "Millie Jackson"
FLAGS DCP
INDEX 01 00:00:00
FILE "[13]Let`s Straighten It Out-Millie Jackson.wav" WAVE
TRACK 13 AUDIO
TITLE "Let`s Straighten It Out"
PERFORMER "Millie Jackson"
FLAGS DCP
INDEX 01 00:00:00
FILE "[14]Killing Me-Millie Jackson.wav" WAVE
TRACK 14 AUDIO
TITLE "Killing Me"
PERFORMER "Millie Jackson"
FLAGS DCP
INDEX 01 00:00:00
рипы с оригинальных cd из моей коллекции
Приватный:
Нет (DHT включён)
Размер:
623.57 Мб (653,857,661 байт) » файлов: 30
Участники:
0 раздают, 0 качают (0 участников всего)
Внешние участники:
1 раздают, 0 качают (1 участников всего) [ Обновить ]
04:30
23
Нет комментариев. Ваш будет первым!