Поиск

(Fusion/Soul) Ronnie Laws 2 cd : Classic Masters(1984 compilation)/Pressure Featuring Ronnie Laws(1979) , FLAC (tracks+.cue), lossless

Треклист:
Ronnie Laws 2cd:Classic Masters(1984 compilation) / Pressure Featuring Ronnie Laws(1979)
Жанр: fusion/soul
Аудио кодек: FLAC
Тип рипа: tracks+.cue
Битрейт аудио: lossless
.
.
.
.
.
.
.
.

Трэклист и прочее :
 
Classic Masters (00:40:44) : Capitol(USA) - CDP 7 46585 2 - (1984)

Трэклист:
01. City Girl (3:45)
02. Always There (4:51)
03. Love Is Here (4:52)
04. Every Generation (5:52)
05. (You Are) Paradise (4:10)
06. Friends And Strangers (4:52)
07. In The Groove (3:36)
08. Stay Awake (4:11)
09. Saturday Evening (4:35)
 
Лог EAC
Exact Audio Copy V1.0 beta 1 from 15. November 2010
EAC extraction logfile from 25. November 2011, 14:37
Ronnie Laws / Classic Masters
Used drive : Optiarc DVD RW AD-7200A Adapter: 0 ID: 0
Read mode : Secure
Utilize accurate stream : Yes
Defeat audio cache : Yes
Make use of C2 pointers : No
Read offset correction : 48
Overread into Lead-In and Lead-Out : No
Fill up missing offset samples with silence : Yes
Delete leading and trailing silent blocks : No
Null samples used in CRC calculations : Yes
Used interface : Native Win32 interface for Win NT & 2000
Gap handling : Appended to previous track
Used output format : User Defined Encoder
Selected bitrate : 768 kBit/s
Quality : High
Add ID3 tag : No
Command line compressor : C:\Program Files\Exact Audio Copy\Flac\flac.exe
Additional command line options : -8 -V -T "ARTIST=%a" -T "TITLE=%t" -T "ALBUM=%g" -T "DATE=%y" -T "TRACKNUMBER=%n" -T "TOTALTRACKS=%x" -T "GENRE=%m" -T "ALBUMARTIST=%v" -T "ALBUM ARTIST=%v" -T "COMMENT=EAC Secure Mode, Test & Copy, AccurateRip, FLAC -8" %s
TOC of the extracted CD
Track | Start | Length | Start sector | End sector
---------------------------------------------------------
1 | 0:00.00 | 3:45.05 | 0 | 16879
2 | 3:45.05 | 4:51.08 | 16880 | 38712
3 | 8:36.13 | 4:52.25 | 38713 | 60637
4 | 13:28.38 | 5:51.40 | 60638 | 87002
5 | 19:20.03 | 4:09.47 | 87003 | 105724
6 | 23:29.50 | 4:52.20 | 105725 | 127644
7 | 28:21.70 | 3:36.00 | 127645 | 143844
8 | 31:57.70 | 4:11.23 | 143845 | 162692
9 | 36:09.18 | 4:34.40 | 162693 | 183282
Track 1
Filename D:\temp\01 - City Girl.wav
Pre-gap length 0:00:02.00
Peak level 79.2 %
Extraction speed 2.2 X
Track quality 100.0 %
Test CRC 6BD51275
Copy CRC 6BD51275
Track not present in AccurateRip database
Copy OK
Track 2
Filename D:\temp\02 - Always There.wav
Pre-gap length 0:00:01.02
Peak level 71.1 %
Extraction speed 2.6 X
Track quality 100.0 %
Test CRC F70AE918
Copy CRC F70AE918
Track not present in AccurateRip database
Copy OK
Track 3
Filename D:\temp\03 - Love Is Here.wav
Pre-gap length 0:00:00.57
Peak level 84.1 %
Extraction speed 2.9 X
Track quality 100.0 %
Test CRC 331153CC
Copy CRC 331153CC
Track not present in AccurateRip database
Copy OK
Track 4
Filename D:\temp\04 - Every Generation.wav
Pre-gap length 0:00:00.90
Peak level 70.1 %
Extraction speed 3.2 X
Track quality 100.0 %
Test CRC 4C860751
Copy CRC 4C860751
Track not present in AccurateRip database
Copy OK
Track 5
Filename D:\temp\05 - (You Are) Paradise.wav
Pre-gap length 0:00:01.20
Peak level 75.2 %
Extraction speed 2.5 X
Track quality 100.0 %
Test CRC 407B9857
Copy CRC 407B9857
Track not present in AccurateRip database
Copy OK
Track 6
Filename D:\temp\06 - Friends And Strangers.wav
Pre-gap length 0:00:03.16
Peak level 81.3 %
Extraction speed 3.6 X
Track quality 100.0 %
Test CRC 3EFE5007
Copy CRC 3EFE5007
Track not present in AccurateRip database
Copy OK
Track 7
Filename D:\temp\07 - In The Groove.wav
Pre-gap length 0:00:03.13
Peak level 76.4 %
Extraction speed 3.6 X
Track quality 100.0 %
Test CRC 688D6DE8
Copy CRC 688D6DE8
Track not present in AccurateRip database
Copy OK
Track 8
Filename D:\temp\08 - Stay Awake.wav
Pre-gap length 0:00:00.80
Peak level 56.9 %
Extraction speed 3.9 X
Track quality 100.0 %
Test CRC 47D9C289
Copy CRC 47D9C289
Track not present in AccurateRip database
Copy OK
Track 9
Filename D:\temp\09 - Saturday Evening.wav
Pre-gap length 0:00:02.00
Peak level 67.8 %
Extraction speed 4.1 X
Track quality 100.0 %
Test CRC B21E0142
Copy CRC B21E0142
Track not present in AccurateRip database
Copy OK
None of the tracks are present in the AccurateRip database
No errors occurred
End of status report
==== Log checksum 442280325A9B075941555757EC4019602CF8A3893D21A89516466C5393B1BA37 ====
 
*CUE
REM GENRE Fusion
REM DATE 1984
REM DISCID 5F098B09
REM COMMENT "ExactAudioCopy v1.0b1"
PERFORMER "Ronnie Laws"
TITLE "Classic Masters"
FILE "01 - City Girl.wav" WAVE
TRACK 01 AUDIO
TITLE "City Girl"
PERFORMER "Ronnie Laws"
INDEX 01 00:00:00
TRACK 02 AUDIO
TITLE "Always There"
PERFORMER "Ronnie Laws"
INDEX 00 03:44:03
FILE "02 - Always There.wav" WAVE
INDEX 01 00:00:00
TRACK 03 AUDIO
TITLE "Love Is Here"
PERFORMER "Ronnie Laws"
INDEX 00 04:50:40
FILE "03 - Love Is Here.wav" WAVE
INDEX 01 00:00:00
TRACK 04 AUDIO
TITLE "Every Generation"
PERFORMER "Ronnie Laws"
INDEX 00 04:51:32
FILE "04 - Every Generation.wav" WAVE
INDEX 01 00:00:00
TRACK 05 AUDIO
TITLE "(You Are) Paradise"
PERFORMER "Ronnie Laws"
INDEX 00 05:50:25
FILE "05 - (You Are) Paradise.wav" WAVE
INDEX 01 00:00:00
TRACK 06 AUDIO
TITLE "Friends And Strangers"
PERFORMER "Ronnie Laws"
INDEX 00 04:06:35
FILE "06 - Friends And Strangers.wav" WAVE
INDEX 01 00:00:00
TRACK 07 AUDIO
TITLE "In The Groove"
PERFORMER "Ronnie Laws"
INDEX 00 04:49:10
FILE "07 - In The Groove.wav" WAVE
INDEX 01 00:00:00
TRACK 08 AUDIO
TITLE "Stay Awake"
PERFORMER "Ronnie Laws"
INDEX 00 03:35:15
FILE "08 - Stay Awake.wav" WAVE
INDEX 01 00:00:00
TRACK 09 AUDIO
TITLE "Saturday Evening"
PERFORMER "Ronnie Laws"
INDEX 00 04:09:23
FILE "09 - Saturday Evening.wav" WAVE
INDEX 01 00:00:00
 
Pressure featuring Ronnie Laws (00:39:49) : Avenue Jazz/Rhino(USA) - R2 71261 - (1993)

Трэклист:
01. That`s The Thing To Do (4:59)
02. Hold On (5:29)
03. Fantastic Dreams (6:06)
04. Can You Feel It (3:39)
05. Shove It In The Oven (5:06)
06. Peaceful Stream (5:36)
07. Stay Together (4:05)
08. I Promise (4:49)
 
Лог EAC
Exact Audio Copy V1.0 beta 1 from 15. November 2010
EAC extraction logfile from 25. November 2011, 15:08
Pressure / Pressure featuring Ronnie Laws
Used drive : Optiarc DVD RW AD-7200A Adapter: 0 ID: 0
Read mode : Secure
Utilize accurate stream : Yes
Defeat audio cache : Yes
Make use of C2 pointers : No
Read offset correction : 48
Overread into Lead-In and Lead-Out : No
Fill up missing offset samples with silence : Yes
Delete leading and trailing silent blocks : No
Null samples used in CRC calculations : Yes
Used interface : Native Win32 interface for Win NT & 2000
Gap handling : Appended to previous track
Used output format : User Defined Encoder
Selected bitrate : 768 kBit/s
Quality : High
Add ID3 tag : No
Command line compressor : C:\Program Files\Exact Audio Copy\Flac\flac.exe
Additional command line options : -8 -V -T "ARTIST=%a" -T "TITLE=%t" -T "ALBUM=%g" -T "DATE=%y" -T "TRACKNUMBER=%n" -T "TOTALTRACKS=%x" -T "GENRE=%m" -T "ALBUMARTIST=%v" -T "ALBUM ARTIST=%v" -T "COMMENT=EAC Secure Mode, Test & Copy, AccurateRip, FLAC -8" %s
TOC of the extracted CD
Track | Start | Length | Start sector | End sector
---------------------------------------------------------
1 | 0:00.00 | 4:58.60 | 0 | 22409
2 | 4:58.60 | 5:29.22 | 22410 | 47106
3 | 10:28.07 | 6:06.25 | 47107 | 74581
4 | 16:34.32 | 3:39.00 | 74582 | 91006
5 | 20:13.32 | 5:06.08 | 91007 | 113964
6 | 25:19.40 | 5:36.07 | 113965 | 139171
7 | 30:55.47 | 4:04.58 | 139172 | 157529
8 | 35:00.30 | 4:48.65 | 157530 | 179194
Track 1
Filename D:\temp\01 - That's The Thing To Do.wav
Pre-gap length 0:00:02.00
Peak level 100.0 %
Extraction speed 2.0 X
Track quality 99.9 %
Test CRC A2AFC2DD
Copy CRC A2AFC2DD
Track not present in AccurateRip database
Copy OK
Track 2
Filename D:\temp\02 - Hold On.wav
Pre-gap length 0:00:03.28
Peak level 100.0 %
Extraction speed 2.9 X
Track quality 100.0 %
Test CRC 9FD4F535
Copy CRC 9FD4F535
Track not present in AccurateRip database
Copy OK
Track 3
Filename D:\temp\03 - Fantastic Dreams.wav
Pre-gap length 0:00:03.94
Peak level 100.0 %
Extraction speed 2.4 X
Track quality 99.9 %
Test CRC 9354EDBF
Copy CRC 9354EDBF
Track not present in AccurateRip database
Copy OK
Track 4
Filename D:\temp\04 - Can You Feel It.wav
Pre-gap length 0:00:05.57
Peak level 100.0 %
Extraction speed 3.3 X
Track quality 100.0 %
Test CRC 9817C776
Copy CRC 9817C776
Track not present in AccurateRip database
Copy OK
Track 5
Filename D:\temp\05 - Shove It In The Oven.wav
Pre-gap length 0:00:05.17
Peak level 100.0 %
Extraction speed 3.7 X
Track quality 100.0 %
Test CRC 28FE028A
Copy CRC 28FE028A
Track not present in AccurateRip database
Copy OK
Track 6
Filename D:\temp\06 - Peaceful Stream.wav
Pre-gap length 0:00:04.08
Peak level 100.0 %
Extraction speed 4.0 X
Track quality 100.0 %
Test CRC 4EFE4016
Copy CRC 4EFE4016
Track not present in AccurateRip database
Copy OK
Track 7
Filename D:\temp\07 - Stay Together.wav
Pre-gap length 0:00:05.17
Peak level 100.0 %
Extraction speed 4.0 X
Track quality 100.0 %
Test CRC FB28173E
Copy CRC FB28173E
Track not present in AccurateRip database
Copy OK
Track 8
Filename D:\temp\08 - I Promise.wav
Pre-gap length 0:00:03.72
Peak level 100.0 %
Extraction speed 4.3 X
Track quality 100.0 %
Test CRC 9E248174
Copy CRC 9E248174
Track not present in AccurateRip database
Copy OK
None of the tracks are present in the AccurateRip database
No errors occurred
End of status report
==== Log checksum BDDEEFFBCB398B02A314BD49C36BEA1BB1B3619028AE307F05646B31E5AD2E17 ====
 
*CUE
REM GENRE Funk
REM DATE 1979
REM DISCID 52095508
REM COMMENT "ExactAudioCopy v1.0b1"
PERFORMER "Pressure"
TITLE "Pressure featuring Ronnie Laws"
FILE "01 - That's The Thing To Do.wav" WAVE
TRACK 01 AUDIO
TITLE "That's The Thing To Do"
PERFORMER "Pressure"
INDEX 01 00:00:00
TRACK 02 AUDIO
TITLE "Hold On"
PERFORMER "Pressure"
INDEX 00 04:55:39
FILE "02 - Hold On.wav" WAVE
INDEX 01 00:00:00
TRACK 03 AUDIO
TITLE "Fantastic Dreams"
PERFORMER "Pressure"
INDEX 00 05:25:26
FILE "03 - Fantastic Dreams.wav" WAVE
INDEX 01 00:00:00
TRACK 04 AUDIO
TITLE "Can You Feel It"
PERFORMER "Pressure"
INDEX 00 06:00:57
FILE "04 - Can You Feel It.wav" WAVE
INDEX 01 00:00:00
TRACK 05 AUDIO
TITLE "Shove It In The Oven"
PERFORMER "Pressure"
INDEX 00 03:33:62
FILE "05 - Shove It In The Oven.wav" WAVE
INDEX 01 00:00:00
TRACK 06 AUDIO
TITLE "Peaceful Stream"
PERFORMER "Pressure"
INDEX 00 05:02:02
FILE "06 - Peaceful Stream.wav" WAVE
INDEX 01 00:00:00
TRACK 07 AUDIO
TITLE "Stay Together"
PERFORMER "Pressure"
INDEX 00 05:30:69
FILE "07 - Stay Together.wav" WAVE
INDEX 01 00:00:00
TRACK 08 AUDIO
TITLE "I Promise"
PERFORMER "Pressure"
INDEX 00 04:01:04
FILE "08 - I Promise.wav" WAVE
INDEX 01 00:00:00
рипы мои с оригинальных cd из моей коллекции.
Приватный:
Нет (DHT включён)
Размер:
500.00 Мб (524,288,027 байт) » файлов: 23
Участники:
0 раздают, 0 качают (0 участников всего)
Внешние участники:
1 раздают, 0 качают (1 участников всего) [ Обновить ]
Никого нет на раздаче - пишите личное сообщение M0p94ok
No seeders - write personal message to M0p94ok
04:30
20
Нет комментариев. Ваш будет первым!