Поиск

(Funk, Soul) The Band - High On The Hog (R2-72404) - 1996, FLAC (tracks+.cue), lossless

Треклист:
The Band - High On The Hog
Жанр: Funk, Soul
Год выпуска диска: 1996
Производитель диска: Pyramid/Rhino
Аудио кодек: FLAC
Тип рипа: tracks+.cue
Битрейт аудио: lossless
Продолжительность: 47:04

01 Stand Up [03:07]
02 Back To Memphis [05:11]
03 Where I Should Always Be [04:27]
04 Free Your Mind [05:06]
05 Forever Young [06:29]
06 The High Price of Love [05:59]
07 Crazy Mama [04:48]
08 I Must Love You Too Much [03:32]
09 She Knows [03:22]
10 Ramble Jungle [04:59]
29 03 2015 торрент перезалит всвязи с заменой на кошерный рип со сканами
 
Log
Exact Audio Copy V0.99 prebeta 4 from 23. January 2008
EAC extraction logfile from 3. July 2009, 20:20
The Band / High On The Hog
Used drive : HL-DT-STDVDRRW GSA-H30L Adapter: 0 ID: 1
Read mode : Secure
Utilize accurate stream : Yes
Defeat audio cache : Yes
Make use of C2 pointers : No
Read offset correction : 102
Overread into Lead-In and Lead-Out : No
Fill up missing offset samples with silence : Yes
Delete leading and trailing silent blocks : No
Null samples used in CRC calculations : Yes
Used interface : Native Win32 interface for Win NT & 2000
Gap handling : Appended to previous track
Used output format : User Defined Encoder
Selected bitrate : 192 kBit/s
Quality : High
Add ID3 tag : No
Command line compressor : C:\Program Files\FLAC\flac.exe
Additional command line options : -V -8 -T "artist=%a" -T "title=%t" -T "album=%g" -T "date=%y" -T "tracknumber=%n" -T "genre=%m" %s
TOC of the extracted CD
Track | Start | Length | Start sector | End sector
---------------------------------------------------------
1 | 0:00.32 | 3:07.05 | 32 | 14061
2 | 3:07.37 | 5:11.05 | 14062 | 37391
3 | 8:18.42 | 4:27.50 | 37392 | 57466
4 | 12:46.17 | 5:06.13 | 57467 | 80429
5 | 17:52.30 | 6:29.60 | 80430 | 109664
6 | 24:22.15 | 5:59.45 | 109665 | 136634
7 | 30:21.60 | 4:48.17 | 136635 | 158251
8 | 35:10.02 | 3:32.68 | 158252 | 174219
9 | 38:42.70 | 3:22.00 | 174220 | 189369
10 | 42:04.70 | 4:59.57 | 189370 | 211851
Track 1
Filename F:\Torrents\Downloads\The Band - High On The Hog (1996) [FLAC]\01 - Stand Up.wav
Pre-gap length 0:00:02.42
Peak level 92.8 %
Track quality 100.0 %
Test CRC 91B967A8
Copy CRC 91B967A8
Accurately ripped (confidence 2) [335D7573]
Copy OK
Track 2
Filename F:\Torrents\Downloads\The Band - High On The Hog (1996) [FLAC]\02 - Back To Memphis.wav
Pre-gap length 0:00:00.02
Peak level 97.0 %
Track quality 100.0 %
Test CRC 86E06544
Copy CRC 86E06544
Accurately ripped (confidence 2) [E0834C5F]
Copy OK
Track 3
Filename F:\Torrents\Downloads\The Band - High On The Hog (1996) [FLAC]\03 - Where I Should Always Be.wav
Pre-gap length 0:00:00.86
Peak level 92.8 %
Track quality 100.0 %
Test CRC A214F09E
Copy CRC A214F09E
Accurately ripped (confidence 2) [38336178]
Copy OK
Track 4
Filename F:\Torrents\Downloads\The Band - High On The Hog (1996) [FLAC]\04 - Free Your Mind.wav
Pre-gap length 0:00:00.02
Peak level 97.4 %
Track quality 99.9 %
Test CRC B058DE6A
Copy CRC B058DE6A
Accurately ripped (confidence 2) [0D102927]
Copy OK
Track 5
Filename F:\Torrents\Downloads\The Band - High On The Hog (1996) [FLAC]\05 - Forever Young.wav
Pre-gap length 0:00:00.57
Peak level 97.0 %
Track quality 100.0 %
Test CRC DADBCF36
Copy CRC DADBCF36
Accurately ripped (confidence 2) [D36C7582]
Copy OK
Track 6
Filename F:\Torrents\Downloads\The Band - High On The Hog (1996) [FLAC]\06 - The High Price of Love.wav
Pre-gap length 0:00:00.04
Peak level 95.1 %
Track quality 99.9 %
Test CRC BC5C0C1C
Copy CRC BC5C0C1C
Accurately ripped (confidence 2) [78909EE9]
Copy OK
Track 7
Filename F:\Torrents\Downloads\The Band - High On The Hog (1996) [FLAC]\07 - Crazy Mama.wav
Pre-gap length 0:00:01.06
Peak level 92.8 %
Track quality 99.9 %
Test CRC 39488E92
Copy CRC 39488E92
Accurately ripped (confidence 2) [65A843A9]
Copy OK
Track 8
Filename F:\Torrents\Downloads\The Band - High On The Hog (1996) [FLAC]\08 - I Must Love You Too Much.wav
Pre-gap length 0:00:00.02
Peak level 97.0 %
Track quality 100.0 %
Test CRC A0C3C5CB
Copy CRC A0C3C5CB
Accurately ripped (confidence 2) [225F79BA]
Copy OK
Track 9
Filename F:\Torrents\Downloads\The Band - High On The Hog (1996) [FLAC]\09 - She Knows.wav
Pre-gap length 0:00:00.53
Peak level 92.8 %
Track quality 100.0 %
Test CRC 176F3743
Copy CRC 176F3743
Accurately ripped (confidence 2) [76BDD8FF]
Copy OK
Track 10
Filename F:\Torrents\Downloads\The Band - High On The Hog (1996) [FLAC]\10 - Ramble Jungle.wav
Pre-gap length 0:00:00.26
Peak level 92.8 %
Track quality 100.0 %
Test CRC 653BA307
Copy CRC 653BA307
Accurately ripped (confidence 2) [95B64B3A]
Copy OK
All tracks accurately ripped
No errors occurred
End of status report
 
CUE
REM GENRE Rock
REM DATE 1996
REM DISCID 770B080A
REM COMMENT "ExactAudioCopy v0.99pb4"
PERFORMER "The Band"
TITLE "High On The Hog"
FILE "01 - Stand Up.wav" WAVE
TRACK 01 AUDIO
TITLE "Stand Up"
PERFORMER "The Band"
PREGAP 00:00:32
INDEX 01 00:00:00
TRACK 02 AUDIO
TITLE "Back To Memphis"
PERFORMER "The Band"
INDEX 00 03:07:03
FILE "02 - Back To Memphis.wav" WAVE
INDEX 01 00:00:00
TRACK 03 AUDIO
TITLE "Where I Should Always Be"
PERFORMER "The Band"
INDEX 00 05:10:15
FILE "03 - Where I Should Always Be.wav" WAVE
INDEX 01 00:00:00
TRACK 04 AUDIO
TITLE "Free Your Mind"
PERFORMER "The Band"
INDEX 00 04:27:48
FILE "04 - Free Your Mind.wav" WAVE
INDEX 01 00:00:00
TRACK 05 AUDIO
TITLE "Forever Young"
PERFORMER "The Band"
INDEX 00 05:05:45
FILE "05 - Forever Young.wav" WAVE
INDEX 01 00:00:00
TRACK 06 AUDIO
TITLE "The High Price of Love"
PERFORMER "The Band"
INDEX 00 06:29:57
FILE "06 - The High Price of Love.wav" WAVE
INDEX 01 00:00:00
TRACK 07 AUDIO
TITLE "Crazy Mama"
PERFORMER "The Band"
INDEX 00 05:58:40
FILE "07 - Crazy Mama.wav" WAVE
INDEX 01 00:00:00
TRACK 08 AUDIO
TITLE "I Must Love You Too Much"
PERFORMER "The Band"
INDEX 00 04:48:15
FILE "08 - I Must Love You Too Much.wav" WAVE
INDEX 01 00:00:00
TRACK 09 AUDIO
TITLE "She Knows"
PERFORMER "The Band"
INDEX 00 03:32:28
FILE "09 - She Knows.wav" WAVE
INDEX 01 00:00:00
TRACK 10 AUDIO
TITLE "Ramble Jungle"
PERFORMER "The Band"
INDEX 00 03:21:55
FILE "10 - Ramble Jungle.wav" WAVE
INDEX 01 00:00:00
Приватный:
Нет (DHT включён)
Размер:
394.71 Мб (413,888,221 байт) » файлов: 31
Участники:
0 раздают, 0 качают (0 участников всего)
Внешние участники:
9 раздают, 3 качают (12 участников всего) [ Обновить ]
Никого нет на раздаче - пишите ЛС M0p94ok
No seeders - write PM to M0p94ok
04:31
14
Нет комментариев. Ваш будет первым!