Поиск

(Funk, Soul) The Band - Jericho (R2 71564) - 1993, FLAC (tracks+.cue), lossless

(Funk, Soul) The Band - Jericho (R2 71564) - 1993, FLAC (tracks+.cue), lossless
Треклист:
The Band - Jericho
Жанр: Funk, Soul
Год выпуска диска: 1993
Производитель диска: US \ Pyramid
Аудио кодек: FLAC
Тип рипа: tracks+.cue
Битрейт аудио: lossless
Продолжительность: 00:57:06
01 Remedy [04:25]
02 Blind Willie McTell [06:42]
03 The Caves Of Jericho [05:23]
04 Atlantic City [05:16]
05 Too Soon Gone [03:59]
06 Country Boy [03:17]
07 Move To Japan [04:25]
08 Amazon (River Of Dreams) [06:00]
09 Stuff You Gotta Watch [02:50]
10 Same Thing [04:31]
11 Shine A Light [04:12]
12 Blues Stay Away From Me [06:01]
from what.cd
29 03 2015 релиз заменён на "посвежевший" со сканами
 
Log EAC
Exact Audio Copy V1.0 beta 3 from 29. August 2011
EAC extraction logfile from 19. April 2012, 10:00
The Band / Jericho
Used drive : SlimtypeDVD A DS8A4S Adapter: 1 ID: 0
Read mode : Secure
Utilize accurate stream : Yes
Defeat audio cache : Yes
Make use of C2 pointers : No
Read offset correction : 6
Overread into Lead-In and Lead-Out : No
Fill up missing offset samples with silence : Yes
Delete leading and trailing silent blocks : No
Null samples used in CRC calculations : Yes
Used interface : Installed external ASPI interface
Gap handling : Appended to previous track
Used output format : User Defined Encoder
Selected bitrate : 128 kBit/s
Quality : High
Add ID3 tag : No
Command line compressor : C:\Program Files (x86)\FLAC\flac.exe
Additional command line options : -8 -V -T "ARTIST=%artist%" -T "TITLE=%title%" -T "ALBUM=%albumtitle%" -T "DATE=%year%" -T "TRACKNUMBER=%tracknr%" -T "TOTALTRACKS=%numtracks%" -T "GENRE=%genre%" -T "ALBUMARTIST=%albumartist%" -T "ALBUM ARTIST=%albumartist%" -T "COMMENT=EAC Secure Mode, Test & Copy, AccurateRip, FLAC -8" %source%
TOC of the extracted CD
Track | Start | Length | Start sector | End sector
---------------------------------------------------------
1 | 0:00.32 | 4:24.65 | 32 | 19896
2 | 4:25.22 | 6:42.23 | 19897 | 50069
3 | 11:07.45 | 5:23.37 | 50070 | 74331
4 | 16:31.07 | 5:16.50 | 74332 | 98081
5 | 21:47.57 | 3:59.20 | 98082 | 116026
6 | 25:47.02 | 3:17.15 | 116027 | 130816
7 | 29:04.17 | 4:25.30 | 130817 | 150721
8 | 33:29.47 | 6:00.28 | 150722 | 177749
9 | 39:30.00 | 2:50.70 | 177750 | 190569
10 | 42:20.70 | 4:31.10 | 190570 | 210904
11 | 46:52.05 | 4:12.62 | 210905 | 229866
12 | 51:04.67 | 6:01.28 | 229867 | 256969
Track 1
Filename C:\Users\Berg\Desktop\CD\Band\01 - Remedy.wav
Pre-gap length 0:00:02.32
Peak level 97.7 %
Extraction speed 1.2 X
Track quality 100.0 %
Test CRC 51D5D961
Copy CRC 51D5D961
Accurately ripped (confidence 2) [88EBFF70] (AR v2)
Copy OK
Track 2
Filename C:\Users\Berg\Desktop\CD\Band\02 - Blind Willie McTell.wav
Pre-gap length 0:00:01.67
Peak level 97.7 %
Extraction speed 1.4 X
Track quality 100.0 %
Test CRC 95512709
Copy CRC 95512709
Accurately ripped (confidence 2) [FC11FBDD] (AR v2)
Copy OK
Track 3
Filename C:\Users\Berg\Desktop\CD\Band\03 - The Caves Of Jericho.wav
Pre-gap length 0:00:02.15
Peak level 97.7 %
Extraction speed 1.6 X
Track quality 100.0 %
Test CRC 75331536
Copy CRC 75331536
Accurately ripped (confidence 2) [27B91FDB] (AR v2)
Copy OK
Track 4
Filename C:\Users\Berg\Desktop\CD\Band\04 - Atlantic City.wav
Pre-gap length 0:00:01.27
Peak level 97.7 %
Extraction speed 1.7 X
Track quality 100.0 %
Test CRC 6F1A3C6E
Copy CRC 6F1A3C6E
Accurately ripped (confidence 2) [821480B3] (AR v2)
Copy OK
Track 5
Filename C:\Users\Berg\Desktop\CD\Band\05 - Too Soon Gone.wav
Pre-gap length 0:00:01.62
Peak level 97.7 %
Extraction speed 1.8 X
Track quality 100.0 %
Test CRC 34057C02
Copy CRC 34057C02
Accurately ripped (confidence 2) [020D2C7B] (AR v2)
Copy OK
Track 6
Filename C:\Users\Berg\Desktop\CD\Band\06 - Country Boy.wav
Peak level 92.6 %
Extraction speed 1.5 X
Track quality 99.9 %
Test CRC 0AB9EDCD
Copy CRC 0AB9EDCD
Accurately ripped (confidence 2) [AE7279EA] (AR v2)
Copy OK
Track 7
Filename C:\Users\Berg\Desktop\CD\Band\07 - Move To Japan.wav
Pre-gap length 0:00:02.62
Peak level 97.7 %
Extraction speed 1.9 X
Track quality 100.0 %
Test CRC DA51FFF3
Copy CRC DA51FFF3
Accurately ripped (confidence 2) [B5A18BBA] (AR v2)
Copy OK
Track 8
Filename C:\Users\Berg\Desktop\CD\Band\08 - Amazon (River Of Dreams).wav
Peak level 97.7 %
Extraction speed 2.1 X
Track quality 100.0 %
Test CRC 76C1D09A
Copy CRC 76C1D09A
Accurately ripped (confidence 2) [D7C4F186] (AR v2)
Copy OK
Track 9
Filename C:\Users\Berg\Desktop\CD\Band\09 - Stuff You Gotta Watch.wav
Pre-gap length 0:00:00.10
Peak level 97.7 %
Extraction speed 2.0 X
Track quality 100.0 %
Test CRC 2069A488
Copy CRC 2069A488
Accurately ripped (confidence 2) [17E44E0A] (AR v2)
Copy OK
Track 10
Filename C:\Users\Berg\Desktop\CD\Band\10 - Same Thing.wav
Pre-gap length 0:00:02.28
Peak level 97.7 %
Extraction speed 2.2 X
Track quality 100.0 %
Test CRC 6540F12E
Copy CRC 6540F12E
Accurately ripped (confidence 2) [496E75C2] (AR v2)
Copy OK
Track 11
Filename C:\Users\Berg\Desktop\CD\Band\11 - Shine A Light.wav
Pre-gap length 0:00:00.10
Peak level 97.7 %
Extraction speed 2.2 X
Track quality 100.0 %
Test CRC AEA2EE81
Copy CRC AEA2EE81
Accurately ripped (confidence 2) [A0B3C44D] (AR v2)
Copy OK
Track 12
Filename C:\Users\Berg\Desktop\CD\Band\12 - Blues Stay Away From Me.wav
Pre-gap length 0:00:00.47
Peak level 97.7 %
Extraction speed 2.4 X
Track quality 100.0 %
Test CRC BF2F44E9
Copy CRC BF2F44E9
Accurately ripped (confidence 2) [4CD22A73] (AR v2)
Copy OK
All tracks accurately ripped
No errors occurred
End of status report
==== Log checksum ADE349F4FF783721A4CD14E52C6002FE26350AC754776450E16A707D962C5BE8 ====
 
CUE
REM GENRE Rock
REM DATE 1993
REM DISCID AA0D620C
REM COMMENT "ExactAudioCopy v1.0b3"
PERFORMER "The Band"
TITLE "Jericho"
FILE "01 - Remedy.wav" WAVE
TRACK 01 AUDIO
TITLE "Remedy"
PERFORMER "The Band"
PREGAP 00:00:32
INDEX 01 00:00:00
TRACK 02 AUDIO
TITLE "Blind Willie McTell"
PERFORMER "The Band"
INDEX 00 04:22:73
FILE "02 - Blind Willie McTell.wav" WAVE
INDEX 01 00:00:00
TRACK 03 AUDIO
TITLE "The Caves Of Jericho"
PERFORMER "The Band"
INDEX 00 06:40:08
FILE "03 - The Caves Of Jericho.wav" WAVE
INDEX 01 00:00:00
TRACK 04 AUDIO
TITLE "Atlantic City"
PERFORMER "The Band"
INDEX 00 05:22:10
FILE "04 - Atlantic City.wav" WAVE
INDEX 01 00:00:00
TRACK 05 AUDIO
TITLE "Too Soon Gone"
PERFORMER "The Band"
INDEX 00 05:14:63
FILE "05 - Too Soon Gone.wav" WAVE
INDEX 01 00:00:00
FILE "06 - Country Boy.wav" WAVE
TRACK 06 AUDIO
TITLE "Country Boy"
PERFORMER "The Band"
INDEX 01 00:00:00
TRACK 07 AUDIO
TITLE "Move To Japan"
PERFORMER "The Band"
INDEX 00 03:14:28
FILE "07 - Move To Japan.wav" WAVE
INDEX 01 00:00:00
FILE "08 - Amazon (River Of Dreams).wav" WAVE
TRACK 08 AUDIO
TITLE "Amazon (River Of Dreams)"
PERFORMER "The Band"
INDEX 01 00:00:00
TRACK 09 AUDIO
TITLE "Stuff You Gotta Watch"
PERFORMER "The Band"
INDEX 00 06:00:18
FILE "09 - Stuff You Gotta Watch.wav" WAVE
INDEX 01 00:00:00
TRACK 10 AUDIO
TITLE "Same Thing"
PERFORMER "The Band"
INDEX 00 02:48:42
FILE "10 - Same Thing.wav" WAVE
INDEX 01 00:00:00
TRACK 11 AUDIO
TITLE "Shine A Light"
PERFORMER "The Band"
INDEX 00 04:31:00
FILE "11 - Shine A Light.wav" WAVE
INDEX 01 00:00:00
TRACK 12 AUDIO
TITLE "Blues Stay Away From Me"
PERFORMER "The Band"
INDEX 00 04:12:15
FILE "12 - Blues Stay Away From Me.wav" WAVE
INDEX 01 00:00:00
Приватный:
Нет (DHT включён)
Размер:
366.71 Мб (384,519,115 байт) » файлов: 30
Участники:
0 раздают, 0 качают (0 участников всего)
Внешние участники:
5 раздают, 2 качают (7 участников всего) [ Обновить ]
Есть вопросы - пишите личное сообщение пользователю M0p94ok.
04:32
33
Нет комментариев. Ваш будет первым!