Поиск

(R&B,Soul/Funk,Garage House,Dub,Acid Jazz,Hip Hop) [CD] Soul II Soul - Time For Change - 1997, FLAC (image+.cue), lossless

(R&B,Soul/Funk,Garage House,Dub,Acid Jazz,Hip Hop) [CD] Soul II Soul - Time For Change - 1997, FLAC (image+.cue), lossless
Треклист:
Soul II Soul / Time For Change
Жанр: R&B,Soul/Funk,Garage House,Dub,Acid Jazz,Hip Hop
Носитель: CD
Страна-производитель диска (релиза): UK
Год издания: 1997
Издатель (лейбл): Island/PolyGram
Номер по каталогу: CID 8060,524 433-2
Страна исполнителя (группы): UK
Аудиокодек: FLAC (*.flac)
Тип рипа: image+.cue
Битрейт аудио: lossless
Продолжительность: 01:01:42
Источник (релизер): собственный рип
Наличие сканов в содержимом раздачи: нет
Треклист:
1 Camdino Soul
2 Pleasure Dome (feat. Ray Simpson)
3 Thank You (feat. Maureen Mason)
4 Dare To Differ (feat. Jazzie B.)
5 Get Away (feat. Lain Luther)
6 Love Ain't Around (feat. Ray Simpson)
7 Represent (feat. Paul Johnson)
8 Time For Change (feat. Charlotte, Jazzie B.)
9 I Feel Love (feat. Maureen Mason, Ray Simpson)
10 Limit Is The Sky (feat. Ray Simpson)
11 Untitled
 
Лог создания рипа
Exact Audio Copy V1.1 from 23. June 2015
EAC extraction logfile from 27. August 2015, 4:08
Soul II Soul / Time For Change
Used drive : TSSTcorpCDDVDW TS-L633C Adapter: 1 ID: 0
Read mode : Secure
Utilize accurate stream : Yes
Defeat audio cache : Yes
Make use of C2 pointers : No
Read offset correction : 6
Overread into Lead-In and Lead-Out : No
Fill up missing offset samples with silence : Yes
Delete leading and trailing silent blocks : No
Null samples used in CRC calculations : Yes
Used interface : Native Win32 interface for Win NT & 2000
Used output format : User Defined Encoder
Selected bitrate : 768 kBit/s
Quality : High
Add ID3 tag : No
Command line compressor : C:\Program Files (x86)\Exact Audio Copy\Flac\flac.exe
Additional command line options : -V -8 -T "Date=%year%" -T "Genre=%genre%" %source%
TOC of the extracted CD
Track | Start | Length | Start sector | End sector
---------------------------------------------------------
1 | 0:00.00 | 7:44.12 | 0 | 34811
2 | 7:44.12 | 4:36.60 | 34812 | 55571
3 | 12:20.72 | 5:22.03 | 55572 | 79724
4 | 17:43.00 | 4:36.72 | 79725 | 100496
5 | 22:19.72 | 4:47.58 | 100497 | 122079
6 | 27:07.55 | 4:47.67 | 122080 | 143671
7 | 31:55.47 | 6:49.68 | 143672 | 174414
8 | 38:45.40 | 4:15.55 | 174415 | 193594
9 | 43:01.20 | 6:43.20 | 193595 | 223839
10 | 49:44.40 | 5:13.37 | 223840 | 247351
11 | 54:58.02 | 6:44.25 | 247352 | 277676
Range status and errors
Selected range
Filename C:\Users\Xylenefree\Music\12.RIPS\Soul II Soul - Time For Change.wav
Peak level 100.0 %
Extraction speed 4.6 X
Range quality 100.0 %
Test CRC F7AA9311
Copy CRC F7AA9311
Copy OK
No errors occurred
AccurateRip summary
Track 1 accurately ripped (confidence 18) [0A49D070] (AR v2)
Track 2 accurately ripped (confidence 15) [2C14E605] (AR v2)
Track 3 accurately ripped (confidence 18) [AB393E0B] (AR v2)
Track 4 accurately ripped (confidence 18) [FD0D88FF] (AR v2)
Track 5 accurately ripped (confidence 18) [0BF7FC38] (AR v2)
Track 6 accurately ripped (confidence 18) [FC0F6D07] (AR v2)
Track 7 accurately ripped (confidence 18) [86D3EDAB] (AR v2)
Track 8 accurately ripped (confidence 18) [D7501689] (AR v2)
Track 9 accurately ripped (confidence 18) [AD930C57] (AR v2)
Track 10 accurately ripped (confidence 17) [8A0FC3E9] (AR v2)
Track 11 accurately ripped (confidence 18) [443C6D24] (AR v2)
All tracks accurately ripped
End of status report
---- CUETools DB Plugin V2.1.6
[CTDB TOCID: uSjTaARxa7a1sLJLNKtmONUFCPs-] found
Submit result: uSjTaARxa7a1sLJLNKtmONUFCPs- has been confirmed
Track | CTDB Status
1 | (18/19) Accurately ripped
2 | (18/19) Accurately ripped
3 | (18/19) Accurately ripped
4 | (18/19) Accurately ripped
5 | (18/19) Accurately ripped
6 | (18/19) Accurately ripped
7 | (18/19) Accurately ripped
8 | (18/19) Accurately ripped
9 | (18/19) Accurately ripped
10 | (18/19) Accurately ripped
11 | (18/19) Accurately ripped
==== Log checksum 0033CF080978E8E93D407247A45FD2355F3B2EC22355BEA97C7D3DF62F8B5249 ====
Доп. информация: Track 9 produced by Booker T.
 
Об исполнителе (группе)
Exact Audio Copy V1.1 from 23. June 2015
EAC extraction logfile from 27. August 2015, 4:08
Soul II Soul / Time For Change
Used drive : TSSTcorpCDDVDW TS-L633C Adapter: 1 ID: 0
Read mode : Secure
Utilize accurate stream : Yes
Defeat audio cache : Yes
Make use of C2 pointers : No
Read offset correction : 6
Overread into Lead-In and Lead-Out : No
Fill up missing offset samples with silence : Yes
Delete leading and trailing silent blocks : No
Null samples used in CRC calculations : Yes
Used interface : Native Win32 interface for Win NT & 2000
Used output format : User Defined Encoder
Selected bitrate : 768 kBit/s
Quality : High
Add ID3 tag : No
Command line compressor : C:\Program Files (x86)\Exact Audio Copy\Flac\flac.exe
Additional command line options : -V -8 -T "Date=%year%" -T "Genre=%genre%" %source%
TOC of the extracted CD
Track | Start | Length | Start sector | End sector
---------------------------------------------------------
1 | 0:00.00 | 7:44.12 | 0 | 34811
2 | 7:44.12 | 4:36.60 | 34812 | 55571
3 | 12:20.72 | 5:22.03 | 55572 | 79724
4 | 17:43.00 | 4:36.72 | 79725 | 100496
5 | 22:19.72 | 4:47.58 | 100497 | 122079
6 | 27:07.55 | 4:47.67 | 122080 | 143671
7 | 31:55.47 | 6:49.68 | 143672 | 174414
8 | 38:45.40 | 4:15.55 | 174415 | 193594
9 | 43:01.20 | 6:43.20 | 193595 | 223839
10 | 49:44.40 | 5:13.37 | 223840 | 247351
11 | 54:58.02 | 6:44.25 | 247352 | 277676
Range status and errors
Selected range
Filename C:\Users\Xylenefree\Music\12.RIPS\Soul II Soul - Time For Change.wav
Peak level 100.0 %
Extraction speed 4.6 X
Range quality 100.0 %
Test CRC F7AA9311
Copy CRC F7AA9311
Copy OK
No errors occurred
AccurateRip summary
Track 1 accurately ripped (confidence 18) [0A49D070] (AR v2)
Track 2 accurately ripped (confidence 15) [2C14E605] (AR v2)
Track 3 accurately ripped (confidence 18) [AB393E0B] (AR v2)
Track 4 accurately ripped (confidence 18) [FD0D88FF] (AR v2)
Track 5 accurately ripped (confidence 18) [0BF7FC38] (AR v2)
Track 6 accurately ripped (confidence 18) [FC0F6D07] (AR v2)
Track 7 accurately ripped (confidence 18) [86D3EDAB] (AR v2)
Track 8 accurately ripped (confidence 18) [D7501689] (AR v2)
Track 9 accurately ripped (confidence 18) [AD930C57] (AR v2)
Track 10 accurately ripped (confidence 17) [8A0FC3E9] (AR v2)
Track 11 accurately ripped (confidence 18) [443C6D24] (AR v2)
All tracks accurately ripped
End of status report
---- CUETools DB Plugin V2.1.6
[CTDB TOCID: uSjTaARxa7a1sLJLNKtmONUFCPs-] found
Submit result: uSjTaARxa7a1sLJLNKtmONUFCPs- has been confirmed
Track | CTDB Status
1 | (18/19) Accurately ripped
2 | (18/19) Accurately ripped
3 | (18/19) Accurately ripped
4 | (18/19) Accurately ripped
5 | (18/19) Accurately ripped
6 | (18/19) Accurately ripped
7 | (18/19) Accurately ripped
8 | (18/19) Accurately ripped
9 | (18/19) Accurately ripped
10 | (18/19) Accurately ripped
11 | (18/19) Accurately ripped
==== Log checksum 0033CF080978E8E93D407247A45FD2355F3B2EC22355BEA97C7D3DF62F8B5249 ====
Приватный:
Нет (DHT включён)
Размер:
375.05 Мб (393,267,325 байт) » файлов: 7
Участники:
0 раздают, 0 качают (0 участников всего)
Внешние участники:
1 раздают, 0 качают (1 участников всего) [ Обновить ]
Есть вопросы - пишите личное сообщение пользователю M0p94ok.
08:14
84
Нет комментариев. Ваш будет первым!