Поиск

(Afro-Funk, Psychedelic Rock, Zamrock, World Fusion) [CD] Witch (WITCH) - Introduction 1973 - 2010, FLAC (tracks+.cue), lossless

(Afro-Funk, Psychedelic Rock, Zamrock, World Fusion) [CD] Witch (WITCH) - Introduction 1973 - 2010, FLAC (tracks+.cue), lossless
Треклист:
Witch (WITCH) / Introduction
Жанр: Afro-Funk, Psychedelic Rock, Zamrock, World Fusion
Носитель: CD
Год издания: 2010
Издатель (лейбл): Q.D.K. Media / QDK 053CD
Страна исполнителя (группы): Zambia
Аудиокодек: FLAC (*.flac)
Тип рипа: tracks+.cue
Битрейт аудио: lossless
Продолжительность: 00:35:02
Источник (релизер): mookie86 (what.cd)
Наличие сканов в содержимом раздачи: нет
Треклист:
01 Introduction
02 Home Town
03 You Better Know
04 Feeling High
05 Like A Chicken
06 See Your Mama
07 That's What I Want
08 Try Me
09 No Time
 
Лог создания рипа
X Lossless Decoder version 20110703 (135.1)
XLD extraction logfile from 2011-07-04 23:45:37 -0500
WITCH / Introduction
Used drive : MATSHITA DVD-R UJ-85J (revision FM0S)
Ripper mode : XLD Secure Ripper
Disable audio cache : OK for the drive with a cache less than 1375KiB
Make use of C2 pointers : NO
Read offset correction : 102
Max retry count : 100
Gap status : Analyzed, Appended
TOC of the extracted CD
Track | Start | Length | Start sector | End sector
---------------------------------------------------------
1 | 00:00:00 | 03:46:12 | 0 | 16961
2 | 03:46:12 | 04:26:54 | 16962 | 36965
3 | 08:12:66 | 03:31:19 | 36966 | 52809
4 | 11:44:10 | 03:37:44 | 52810 | 69128
5 | 15:21:54 | 03:10:20 | 69129 | 83398
6 | 18:31:74 | 04:34:50 | 83399 | 103998
7 | 23:06:49 | 03:01:18 | 103999 | 117591
8 | 26:07:67 | 04:24:23 | 117592 | 137414
9 | 30:32:15 | 04:29:42 | 137415 | 157631
AccurateRip Summary
Disc not found in AccurateRip DB.
All Tracks
Album gain : -1.00 dB
Peak : 0.977570
Statistics
Read error : 0
Jitter error (maybe fixed) : 0
Retry sector count : 0
Damaged sector count : 0
Track 01
Filename : /Users/phillmulnick/Desktop/Rips/WITCH - Introduction (1973) [FLAC]/01 Introduction.flac
Pre-gap length : 00:02:00
Track gain : -1.87 dB
Peak : 0.589783
CRC32 hash (test run) : C3D4AB6C
CRC32 hash : C3D4AB6C
CRC32 hash (skip zero) : 0FEBF15D
AccurateRip signature : 13F70402
->Track not present in AccurateRip database.
Statistics
Read error : 0
Jitter error (maybe fixed) : 0
Retry sector count : 0
Damaged sector count : 0
Track 02
Filename : /Users/phillmulnick/Desktop/Rips/WITCH - Introduction (1973) [FLAC]/02 Home Town.flac
Track gain : -0.21 dB
Peak : 0.977570
CRC32 hash (test run) : 794B16DB
CRC32 hash : 794B16DB
CRC32 hash (skip zero) : E6DE0210
AccurateRip signature : FAD419C5
->Track not present in AccurateRip database.
Statistics
Read error : 0
Jitter error (maybe fixed) : 0
Retry sector count : 0
Damaged sector count : 0
Track 03
Filename : /Users/phillmulnick/Desktop/Rips/WITCH - Introduction (1973) [FLAC]/03 You Better Know.flac
Track gain : -0.76 dB
Peak : 0.815186
CRC32 hash (test run) : CB240245
CRC32 hash : CB240245
CRC32 hash (skip zero) : F83D0363
AccurateRip signature : 185E6BA7
->Track not present in AccurateRip database.
Statistics
Read error : 0
Jitter error (maybe fixed) : 0
Retry sector count : 0
Damaged sector count : 0
Track 04
Filename : /Users/phillmulnick/Desktop/Rips/WITCH - Introduction (1973) [FLAC]/04 Feeling High.flac
Track gain : 0.29 dB
Peak : 0.481018
CRC32 hash (test run) : 8328A7EB
CRC32 hash : 8328A7EB
CRC32 hash (skip zero) : C7608EA6
AccurateRip signature : 6D3A1D24
->Track not present in AccurateRip database.
Statistics
Read error : 0
Jitter error (maybe fixed) : 0
Retry sector count : 0
Damaged sector count : 0
Track 05
Filename : /Users/phillmulnick/Desktop/Rips/WITCH - Introduction (1973) [FLAC]/05 Like A Chicken.flac
Track gain : -0.51 dB
Peak : 0.647980
CRC32 hash (test run) : F48312DD
CRC32 hash : F48312DD
CRC32 hash (skip zero) : 60CA2F8D
AccurateRip signature : 0682F851
->Track not present in AccurateRip database.
Statistics
Read error : 0
Jitter error (maybe fixed) : 0
Retry sector count : 0
Damaged sector count : 0
Track 06
Filename : /Users/phillmulnick/Desktop/Rips/WITCH - Introduction (1973) [FLAC]/06 See Your Mama.flac
Pre-gap length : 00:02:00
Track gain : -0.32 dB
Peak : 0.574219
CRC32 hash (test run) : BA92857E
CRC32 hash : BA92857E
CRC32 hash (skip zero) : 1E569904
AccurateRip signature : 8D88AE6C
->Track not present in AccurateRip database.
Statistics
Read error : 0
Jitter error (maybe fixed) : 0
Retry sector count : 0
Damaged sector count : 0
Track 07
Filename : /Users/phillmulnick/Desktop/Rips/WITCH - Introduction (1973) [FLAC]/07 That's What I Want.flac
Track gain : -0.17 dB
Peak : 0.426544
CRC32 hash (test run) : 2ABEA7E0
CRC32 hash : 2ABEA7E0
CRC32 hash (skip zero) : C6B5766E
AccurateRip signature : 247449DB
->Track not present in AccurateRip database.
Statistics
Read error : 0
Jitter error (maybe fixed) : 0
Retry sector count : 0
Damaged sector count : 0
Track 08
Filename : /Users/phillmulnick/Desktop/Rips/WITCH - Introduction (1973) [FLAC]/08 Try Me.flac
Track gain : 2.11 dB
Peak : 0.599030
CRC32 hash (test run) : EF91A44E
CRC32 hash : EF91A44E
CRC32 hash (skip zero) : 9A4305A8
AccurateRip signature : 0DF93BC3
->Track not present in AccurateRip database.
Statistics
Read error : 0
Jitter error (maybe fixed) : 0
Retry sector count : 0
Damaged sector count : 0
Track 09
Filename : /Users/phillmulnick/Desktop/Rips/WITCH - Introduction (1973) [FLAC]/09 No Time.flac
Track gain : -3.80 dB
Peak : 0.697174
CRC32 hash (test run) : 394F0D77
CRC32 hash : 394F0D77
CRC32 hash (skip zero) : A4DE309F
AccurateRip signature : 50B19F0C
->Track not present in AccurateRip database.
Statistics
Read error : 0
Jitter error (maybe fixed) : 0
Retry sector count : 0
Damaged sector count : 0
No errors occurred
End of status report
 
Содержание индексной карты (.CUE)
TITLE "Introduction"
PERFORMER "WITCH"
REM GENRE "Afro-rock"
REM DATE "1973"
REM DISCNUMBER 9
REM TOTALDISCS 9
REM DISCID 79083509
REM REPLAYGAIN_ALBUM_GAIN -1.00 dB
REM REPLAYGAIN_ALBUM_PEAK 0.977570
FILE "01 Introduction.flac" WAVE
TRACK 01 AUDIO
TITLE "Introduction"
REM REPLAYGAIN_TRACK_GAIN -1.87 dB
REM REPLAYGAIN_TRACK_PEAK 0.589783
INDEX 01 00:00:00
FILE "02 Home Town.flac" WAVE
TRACK 02 AUDIO
TITLE "Home Town"
REM REPLAYGAIN_TRACK_GAIN -0.21 dB
REM REPLAYGAIN_TRACK_PEAK 0.977570
INDEX 01 00:00:00
FILE "03 You Better Know.flac" WAVE
TRACK 03 AUDIO
TITLE "You Better Know"
REM REPLAYGAIN_TRACK_GAIN -0.76 dB
REM REPLAYGAIN_TRACK_PEAK 0.815186
INDEX 01 00:00:00
FILE "04 Feeling High.flac" WAVE
TRACK 04 AUDIO
TITLE "Feeling High"
REM REPLAYGAIN_TRACK_GAIN 0.29 dB
REM REPLAYGAIN_TRACK_PEAK 0.481018
INDEX 01 00:00:00
FILE "05 Like A Chicken.flac" WAVE
TRACK 05 AUDIO
TITLE "Like A Chicken"
REM REPLAYGAIN_TRACK_GAIN -0.51 dB
REM REPLAYGAIN_TRACK_PEAK 0.647980
INDEX 01 00:00:00
TRACK 06 AUDIO
TITLE "See Your Mama"
REM REPLAYGAIN_TRACK_GAIN -0.32 dB
REM REPLAYGAIN_TRACK_PEAK 0.574219
INDEX 00 03:08:20
FILE "06 See Your Mama.flac" WAVE
INDEX 01 00:00:00
FILE "07 That's What I Want.flac" WAVE
TRACK 07 AUDIO
TITLE "That's What I Want"
REM REPLAYGAIN_TRACK_GAIN -0.17 dB
REM REPLAYGAIN_TRACK_PEAK 0.426544
INDEX 01 00:00:00
FILE "08 Try Me.flac" WAVE
TRACK 08 AUDIO
TITLE "Try Me"
REM REPLAYGAIN_TRACK_GAIN 2.11 dB
REM REPLAYGAIN_TRACK_PEAK 0.599030
INDEX 01 00:00:00
FILE "09 No Time.flac" WAVE
TRACK 09 AUDIO
TITLE "No Time"
REM REPLAYGAIN_TRACK_GAIN -3.80 dB
REM REPLAYGAIN_TRACK_PEAK 0.697174
INDEX 01 00:00:00
 
Об исполнителе (группе)
Zamrock emerged in 1970s Zambia out of the dual influence of Jimi Hendrix‘s acid guitar and James Brown‘s funk. Lusaka-based ensemble WITCH were one of the young scene’s most popular groups coupling experimental tendencies, fuzz guitars and psychedlics grooves with traditional Zambian rhythms.
 
Об альбоме (сборнике)
 
Состав
Lead Vocals: Emmanuel “Jagari” Chanda
Drums: Boyd “Star MacBoyd” Sinkala
Bass Guitar: Gedeon “Giddy King” Mwamulenga
Rhythm Guitar & Vocals: John “Music” Muma
Lead Guitar & Vocals: Chris “Kims” Mbewe
Keyboard: Paul “Jones” Mumba
Приватный:
Нет (DHT включён)
Размер:
188.32 Мб (197,472,916 байт) » файлов: 13
Участники:
0 раздают, 0 качают (0 участников всего)
Внешние участники:
3 раздают, 1 качают (4 участников всего) [ Обновить ]
Есть вопросы - пишите личное сообщение пользователю M0p94ok.
08:15
57
Нет комментариев. Ваш будет первым!