Поиск

(Funk, Soul) [CD] Black Heat - Keep On Runnin' (1975) - 2009, FLAC (tracks+.cue), lossless

(Funk, Soul) [CD] Black Heat - Keep On Runnin' (1975) - 2009, FLAC (tracks+.cue), lossless
Треклист:
Black Heat - Keep On Runnin' (1975)
Жанр: Funk, Soul
Носитель: CD
Год издания: 2009
Издатель (лейбл): Atlantic/Wounded Bird Records
Номер по каталогу: WOU 1812
Аудиокодек: FLAC (*.flac)
Тип рипа: tracks+.cue
Битрейт аудио: lossless
Продолжительность: 42:59
Источник (релизер): ruskaval
Наличие сканов в содержимом раздачи: да
Треклист:
01. Drive My Car (3:11)
02. Zimba Ku (4:37)
03. Questions & Conclusions (4:15)
04. Something Extra (3:58)
05. Feel Like A Child (3:51)
06. Last Dance (2:44)
07. Baby You'll See (4:08)
08. Love (3:15)
09. Prince Duval (4:21)
10. Live Together (2:49)
11. Keep On Runnin' (5:50)
 
 
Лог создания рипа
Exact Audio Copy V1.0 beta 3 from 29. August 2011
EAC extraction logfile from 28. April 2014, 9:01
Black Heat / Keep On Runnin'
Used drive : SONY DVD RW DRU-810A Adapter: 1 ID: 0
Read mode : Secure
Utilize accurate stream : Yes
Defeat audio cache : Yes
Make use of C2 pointers : No
Read offset correction : 618
Overread into Lead-In and Lead-Out : No
Fill up missing offset samples with silence : Yes
Delete leading and trailing silent blocks : No
Null samples used in CRC calculations : Yes
Used interface : Native Win32 interface for Win NT & 2000
Gap handling : Appended to previous track
Used output format : User Defined Encoder
Selected bitrate : 128 kBit/s
Quality : High
Add ID3 tag : No
Command line compressor : C:\Program Files (x86)\Exact Audio Copy\Flac\flac.exe
Additional command line options : -8 -V -T "ARTIST=%artist%" -T "TITLE=%title%" -T "ALBUM=%albumtitle%" -T "DATE=%year%" -T "TRACKNUMBER=%tracknr%" -T "TOTALTRACKS=%numtracks%" -T "GENRE=%genre%" -T "ALBUMARTIST=%albumartist%" -T "ALBUM ARTIST=%albumartist%" -T "COMMENT=EAC Secure Mode, Test & Copy, AccurateRip, FLAC -8" %source%
TOC of the extracted CD
Track | Start | Length | Start sector | End sector
---------------------------------------------------------
1 | 0:00.00 | 3:11.29 | 0 | 14353
2 | 3:11.29 | 4:36.65 | 14354 | 35118
3 | 7:48.19 | 4:15.27 | 35119 | 54270
4 | 12:03.46 | 3:58.10 | 54271 | 72130
5 | 16:01.56 | 3:50.59 | 72131 | 89439
6 | 19:52.40 | 2:44.10 | 89440 | 101749
7 | 22:36.50 | 4:07.57 | 101750 | 120331
8 | 26:44.32 | 3:14.48 | 120332 | 134929
9 | 29:59.05 | 4:20.70 | 134930 | 154499
10 | 34:20.00 | 2:49.25 | 154500 | 167199
11 | 37:09.25 | 5:49.46 | 167200 | 193420
Track 1
Filename F:\New Rips\Black Heat - Keep On Runnin' (1975) [FLAC]\01 - Drive My Car.wav
Pre-gap length 0:00:02.00
Peak level 95.9 %
Extraction speed 4.1 X
Track quality 100.0 %
Test CRC 857338EA
Copy CRC 857338EA
Accurately ripped (confidence 2) [DAD05FF0] (AR v2)
Copy OK
Track 2
Filename F:\New Rips\Black Heat - Keep On Runnin' (1975) [FLAC]\02 - Zimba Ku.wav
Pre-gap length 0:00:02.00
Peak level 95.9 %
Extraction speed 4.2 X
Track quality 99.9 %
Test CRC 7B7971D4
Copy CRC 7B7971D4
Accurately ripped (confidence 2) [8D9FE87B] (AR v2)
Copy OK
Track 3
Filename F:\New Rips\Black Heat - Keep On Runnin' (1975) [FLAC]\03 - Questions & Conclusions.wav
Pre-gap length 0:00:02.00
Peak level 95.9 %
Extraction speed 5.3 X
Track quality 100.0 %
Test CRC 39A89C8B
Copy CRC 39A89C8B
Accurately ripped (confidence 2) [511A6C9C] (AR v2)
Copy OK
Track 4
Filename F:\New Rips\Black Heat - Keep On Runnin' (1975) [FLAC]\04 - Something Extra.wav
Pre-gap length 0:00:02.00
Peak level 95.9 %
Extraction speed 5.6 X
Track quality 100.0 %
Test CRC 5C77D41F
Copy CRC 5C77D41F
Accurately ripped (confidence 2) [BA5689D0] (AR v2)
Copy OK
Track 5
Filename F:\New Rips\Black Heat - Keep On Runnin' (1975) [FLAC]\05 - Feel Like A Child.wav
Pre-gap length 0:00:02.00
Peak level 95.9 %
Extraction speed 5.9 X
Track quality 100.0 %
Test CRC 35745ED4
Copy CRC 35745ED4
Accurately ripped (confidence 2) [6FB1A7E8] (AR v2)
Copy OK
Track 6
Filename F:\New Rips\Black Heat - Keep On Runnin' (1975) [FLAC]\06 - Last Dance.wav
Pre-gap length 0:00:02.00
Peak level 95.9 %
Extraction speed 5.9 X
Track quality 100.0 %
Test CRC 62EB8539
Copy CRC 62EB8539
Accurately ripped (confidence 2) [4FE097DF] (AR v2)
Copy OK
Track 7
Filename F:\New Rips\Black Heat - Keep On Runnin' (1975) [FLAC]\07 - Baby You'll See.wav
Pre-gap length 0:00:02.00
Peak level 95.9 %
Extraction speed 6.5 X
Track quality 100.0 %
Test CRC 00A0CADA
Copy CRC 00A0CADA
Accurately ripped (confidence 2) [8F97B6F7] (AR v2)
Copy OK
Track 8
Filename F:\New Rips\Black Heat - Keep On Runnin' (1975) [FLAC]\08 - Love.wav
Pre-gap length 0:00:02.00
Peak level 95.9 %
Extraction speed 6.5 X
Track quality 100.0 %
Test CRC E8FF1225
Copy CRC E8FF1225
Accurately ripped (confidence 2) [57D1BD2A] (AR v2)
Copy OK
Track 9
Filename F:\New Rips\Black Heat - Keep On Runnin' (1975) [FLAC]\09 - Prince Duval.wav
Pre-gap length 0:00:02.00
Peak level 95.9 %
Extraction speed 6.1 X
Track quality 99.9 %
Test CRC 006AAC08
Copy CRC 006AAC08
Accurately ripped (confidence 2) [A3E6BE6B] (AR v2)
Copy OK
Track 10
Filename F:\New Rips\Black Heat - Keep On Runnin' (1975) [FLAC]\10 - Live Together.wav
Pre-gap length 0:00:02.00
Peak level 95.9 %
Extraction speed 5.5 X
Track quality 99.9 %
Test CRC 61995DF4
Copy CRC 61995DF4
Accurately ripped (confidence 2) [4A428073] (AR v2)
Copy OK
Track 11
Filename F:\New Rips\Black Heat - Keep On Runnin' (1975) [FLAC]\11 - Keep On Runnin'.wav
Peak level 95.9 %
Extraction speed 6.9 X
Track quality 99.9 %
Test CRC AC06BA8E
Copy CRC AC06BA8E
Accurately ripped (confidence 2) [5FDA956D] (AR v2)
Copy OK
All tracks accurately ripped
No errors occurred
End of status report
---- CUETools DB Plugin V2.1.3
[CTDB TOCID: aZzuluy.EkWV5WjbvkAzfR0XKe0-] found, Submit result: aZzuluy.EkWV5WjbvkAzfR0XKe0- has been confirmed
[175f73a0] (2/2) Accurately ripped
==== Log checksum 0C4C00B41FE8D99FC4881225C36100AA14C052BC8EE184CFCDD0BBE58388C6FA ====
 
Содержание индексной карты (.CUE)
REM GENRE Funk
REM DATE 1975
REM DISCID 830A120B
REM COMMENT "ExactAudioCopy v1.0b3"
PERFORMER "Black Heat"
TITLE "Keep On Runnin'"
FILE "01 - Drive My Car.wav" WAVE
TRACK 01 AUDIO
TITLE "Drive My Car"
PERFORMER "Black Heat"
INDEX 01 00:00:00
TRACK 02 AUDIO
TITLE "Zimba Ku"
PERFORMER "Black Heat"
FLAGS DCP
INDEX 00 03:09:29
FILE "02 - Zimba Ku.wav" WAVE
INDEX 01 00:00:00
TRACK 03 AUDIO
TITLE "Questions & Conclusions"
PERFORMER "Black Heat"
FLAGS DCP
INDEX 00 04:34:65
FILE "03 - Questions & Conclusions.wav" WAVE
INDEX 01 00:00:00
TRACK 04 AUDIO
TITLE "Something Extra"
PERFORMER "Black Heat"
FLAGS DCP
INDEX 00 04:13:27
FILE "04 - Something Extra.wav" WAVE
INDEX 01 00:00:00
TRACK 05 AUDIO
TITLE "Feel Like A Child"
PERFORMER "Black Heat"
FLAGS DCP
INDEX 00 03:56:10
FILE "05 - Feel Like A Child.wav" WAVE
INDEX 01 00:00:00
TRACK 06 AUDIO
TITLE "Last Dance"
PERFORMER "Black Heat"
FLAGS DCP
INDEX 00 03:48:59
FILE "06 - Last Dance.wav" WAVE
INDEX 01 00:00:00
TRACK 07 AUDIO
TITLE "Baby You'll See"
PERFORMER "Black Heat"
FLAGS DCP
INDEX 00 02:42:10
FILE "07 - Baby You'll See.wav" WAVE
INDEX 01 00:00:00
TRACK 08 AUDIO
TITLE "Love"
PERFORMER "Black Heat"
FLAGS DCP
INDEX 00 04:05:57
FILE "08 - Love.wav" WAVE
INDEX 01 00:00:00
TRACK 09 AUDIO
TITLE "Prince Duval"
PERFORMER "Black Heat"
FLAGS DCP
INDEX 00 03:12:48
FILE "09 - Prince Duval.wav" WAVE
INDEX 01 00:00:00
TRACK 10 AUDIO
TITLE "Live Together"
PERFORMER "Black Heat"
FLAGS DCP
INDEX 00 04:18:70
FILE "10 - Live Together.wav" WAVE
INDEX 01 00:00:00
FILE "11 - Keep On Runnin'.wav" WAVE
TRACK 11 AUDIO
TITLE "Keep On Runnin'"
PERFORMER "Black Heat"
FLAGS DCP
INDEX 01 00:00:00
Приватный:
Нет (DHT включён)
Размер:
302.74 Мб (317,445,775 байт) » файлов: 20
Участники:
2 раздают, 0 качают (2 участников всего)
Внешние участники:
2 раздают, 1 качают (3 участников всего) [ Обновить ]
No seeders - write a personal message to user M0p94ok. Нет сидеров - пишите личное сообщение пользователю M0p94ok.
08:15
209
Нет комментариев. Ваш будет первым!