Поиск

(R&B, Soul, Black Vocal Harmony Group, Acappella) [CD] The Persuasions - Acappella 1970 - 1989, FLAC (tracks), lossless

(R&B, Soul, Black Vocal Harmony Group, Acappella) [CD] The Persuasions - Acappella 1970 - 1989, FLAC (tracks), lossless
Треклист:
The Persuasions / Acappella
Жанр: R&B, Soul, Black Vocal Harmony Group, Acappella
Носитель: CD
Год издания: 1989
Издатель (лейбл): Rhino
Номер по каталогу: R2 70362
Аудиокодек: FLAC (*.flac)
Тип рипа: tracks
Битрейт аудио: lossless
Продолжительность: 00:38:17
Источник (релизер): KnowWonder
Наличие сканов в содержимом раздачи: нет
Треклист:
01 Introduction (Persuasions) 0:37
02 Searchin' for My Baby (Lovett) 4:39
03 I Just Can't Work No Longer (Persuasions) 2:25
04 Old Man River (Hammerstein, Kern) 5:48
05 Monologue Introductions (Robinson, White) 2:42
06 Don't Look Back (Robinson, White) 4:02
07 Drip Drop (Leiber, Stoller) 1:58
08 The Whole World Is a Stage (Hamilton, Savoy, Windgate) 2:39
09 Up on the Roof (Goffin, King) 3:03
10 The Bounce (Fizer, Lewis, Ward) 1:47
11 Since I Fell for You (Johnson) 2:23
12 Too Late (Persuasions) 2:41
13 It's All Right (Persuasions) 3:28
 
Лог проверки качества
Exact Audio Copy V0.99 prebeta 5 from 4. May 2009
EAC extraction logfile from 12. June 2011, 2:35
The Persuasions / Acappella
Used drive : HL-DT-STDVD-RAM GH20LP20 Adapter: 0 ID: 1
Read mode : Secure
Utilize accurate stream : Yes
Defeat audio cache : Yes
Make use of C2 pointers : No
Read offset correction : 102
Overread into Lead-In and Lead-Out : No
Fill up missing offset samples with silence : Yes
Delete leading and trailing silent blocks : No
Null samples used in CRC calculations : Yes
Used interface : Native Win32 interface for Win NT & 2000
Gap handling : Appended to previous track
Used output format : User Defined Encoder
Selected bitrate : 128 kBit/s
Quality : High
Add ID3 tag : No
Command line compressor : C:\Program Files\Exact Audio Copy\flac.exe
Additional command line options : -V -8 -T "artist=%a" -T "title=%t" -T "album=%g" -T "date=%y" -T "tracknumber=%n" -T "genre=%m" %s
TOC of the extracted CD
Track | Start | Length | Start sector | End sector
---------------------------------------------------------
1 | 0:00.33 | 0:37.35 | 33 | 2842
2 | 0:37.68 | 4:39.20 | 2843 | 23787
3 | 5:17.13 | 2:25.52 | 23788 | 34714
4 | 7:42.65 | 5:48.15 | 34715 | 60829
5 | 13:31.05 | 2:42.60 | 60830 | 73039
6 | 16:13.65 | 4:01.65 | 73040 | 91179
7 | 20:15.55 | 1:58.60 | 91180 | 100089
8 | 22:14.40 | 2:39.13 | 100090 | 112027
9 | 24:53.53 | 3:03.02 | 112028 | 125754
10 | 27:56.55 | 1:46.65 | 125755 | 133769
11 | 29:43.45 | 2:24.00 | 133770 | 144569
12 | 32:07.45 | 2:41.68 | 144570 | 156712
13 | 34:49.38 | 3:28.20 | 156713 | 172332
Track 1
Filename C:\uber\rip\FLAC\The Persuasions - 1970 - Acappella\01 - Introduction.wav
Pre-gap length 0:00:02.44
Peak level 57.5 %
Track quality 100.0 %
Test CRC 4A4E56C2
Copy CRC 4A4E56C2
Track not present in AccurateRip database
Copy OK
Track 2
Filename C:\uber\rip\FLAC\The Persuasions - 1970 - Acappella\02 - Searchin' for My Baby.wav
Peak level 69.6 %
Track quality 99.9 %
Test CRC 70F83EDB
Copy CRC 70F83EDB
Track not present in AccurateRip database
Copy OK
Track 3
Filename C:\uber\rip\FLAC\The Persuasions - 1970 - Acappella\03 - I Just Can't Work No Longer.wav
Peak level 52.2 %
Track quality 100.0 %
Test CRC AD9E507E
Copy CRC AD9E507E
Track not present in AccurateRip database
Copy OK
Track 4
Filename C:\uber\rip\FLAC\The Persuasions - 1970 - Acappella\04 - Old Man River.wav
Peak level 74.1 %
Track quality 100.0 %
Test CRC 66D662DC
Copy CRC 66D662DC
Track not present in AccurateRip database
Copy OK
Track 5
Filename C:\uber\rip\FLAC\The Persuasions - 1970 - Acappella\05 - Monologue Introduction.wav
Peak level 61.5 %
Track quality 100.0 %
Test CRC 63F42E59
Copy CRC 63F42E59
Track not present in AccurateRip database
Copy OK
Track 6
Filename C:\uber\rip\FLAC\The Persuasions - 1970 - Acappella\06 - Don't Look Back.wav
Peak level 77.2 %
Track quality 100.0 %
Test CRC 1A66D08F
Copy CRC 1A66D08F
Track not present in AccurateRip database
Copy OK
Track 7
Filename C:\uber\rip\FLAC\The Persuasions - 1970 - Acappella\07 - Drip Drop.wav
Pre-gap length 0:00:02.20
Peak level 56.9 %
Track quality 100.0 %
Test CRC 4C1E2672
Copy CRC 4C1E2672
Track not present in AccurateRip database
Copy OK
Track 8
Filename C:\uber\rip\FLAC\The Persuasions - 1970 - Acappella\08 - The Whole World Is a Stage.wav
Pre-gap length 0:00:04.46
Peak level 67.6 %
Track quality 100.0 %
Test CRC 7258A3D0
Copy CRC 7258A3D0
Track not present in AccurateRip database
Copy OK
Track 9
Filename C:\uber\rip\FLAC\The Persuasions - 1970 - Acappella\09 - Up on the Roof.wav
Pre-gap length 0:00:03.90
Peak level 54.8 %
Track quality 100.0 %
Test CRC C616D015
Copy CRC C616D015
Track not present in AccurateRip database
Copy OK
Track 10
Filename C:\uber\rip\FLAC\The Persuasions - 1970 - Acappella\10 - The Bounce.wav
Pre-gap length 0:00:04.80
Peak level 72.6 %
Track quality 100.0 %
Test CRC 6198F775
Copy CRC 6198F775
Track not present in AccurateRip database
Copy OK
Track 11
Filename C:\uber\rip\FLAC\The Persuasions - 1970 - Acappella\11 - Since I Fell for You.wav
Pre-gap length 0:00:04.73
Peak level 58.3 %
Track quality 100.0 %
Test CRC 5153AA62
Copy CRC 5153AA62
Track not present in AccurateRip database
Copy OK
Track 12
Filename C:\uber\rip\FLAC\The Persuasions - 1970 - Acappella\12 - Too Late.wav
Pre-gap length 0:00:04.16
Peak level 55.9 %
Track quality 100.0 %
Test CRC 00831978
Copy CRC 00831978
Track not present in AccurateRip database
Copy OK
Track 13
Filename C:\uber\rip\FLAC\The Persuasions - 1970 - Acappella\13 - It's All Right.wav
Pre-gap length 0:00:04.37
Peak level 48.1 %
Track quality 100.0 %
Test CRC 9884316F
Copy CRC 9884316F
Track not present in AccurateRip database
Copy OK
None of the tracks are present in the AccurateRip database
No errors occurred
End of status report
 
Об исполнителе (группе)
 
Об альбоме (сборнике)
AMG Review by Rob Bowman
The first Persuasions release, recorded live in Los Angeles. The sound is a little two-dimensional, but this recording captures the spirit of joy in live harmonizing, which is the very essence of The Persuasions. Includes great takes on The Temptations's "Don't Look Back" and The Drifters's "Up on the Roof," making manifest the intrinsic connection between '50s doo wop and '60s group singing.
Приватный:
Нет (DHT включён)
Размер:
195.21 Мб (204,692,392 байт) » файлов: 16
Участники:
0 раздают, 0 качают (0 участников всего)
Внешние участники:
2 раздают, 1 качают (3 участников всего) [ Обновить ]
No seeders - write personal message to user M0p94ok. Нет сидеров - пишите личное сообщение пользователю M0p94ok.
04:29
57
Нет комментариев. Ваш будет первым!