Поиск

(Funk, Soul, R&B) [CD] Moon Baker - ABC Of Romance - 2007, FLAC (image+.cue), lossless

(Funk, Soul, R&B) [CD] Moon Baker - ABC Of Romance - 2007, FLAC (image+.cue), lossless
Треклист:
Moon Baker - ABC Of Romance
Жанр: Funk, Soul, R&B
Носитель: CD
Страна-производитель диска (релиза): Netherlands
Год издания: 2007
Издатель (лейбл): Supertracks Records
Номер по каталогу: ST75737
Аудиокодек: FLAC (*.flac)
Тип рипа: image+.cue
Битрейт аудио: lossless
Продолжительность: 67:28
Rip by ЯRDx
Наличие сканов в содержимом раздачи: да
Треклист:
01. Memorylane Of Hidden Treasures (1:21)
02. Shot Deep (5:53)
03. The Light (4:24)
04. Body (3:27)
05. You Are (4:21)
06. That's All (4:30)
07. ABC Of Romance (4:22)
08. God's Lonely Crusade (5:10)
09. Stay (3:40)
10. Those Were The Days (3:29)
11. Something Sweet (4:07)
12. Sweet Papa (4:18)
13. Keep It Cool (5:48)
14. Caught Up In A C-Minor Blues (12:39)
 
 
Лог создания рипа
Exact Audio Copy V1.0 beta 3 from 29. August 2011
EAC extraction logfile from 2. March 2015, 0:42
Moon Baker / ABC of Romance
Used drive : TSSTcorpBDDVDW SE-506BB Adapter: 0 ID: 0
Read mode : Secure
Utilize accurate stream : Yes
Defeat audio cache : Yes
Make use of C2 pointers : No
Read offset correction : 6
Overread into Lead-In and Lead-Out : No
Fill up missing offset samples with silence : Yes
Delete leading and trailing silent blocks : No
Null samples used in CRC calculations : Yes
Used interface : Native Win32 interface for Win NT & 2000
Used output format : User Defined Encoder
Selected bitrate : 896 kBit/s
Quality : High
Add ID3 tag : No
Command line compressor : C:\Program Files (x86)\FLAC\flac.exe
Additional command line options : -V -8 -T "Date=%year%" -T "Genre=%genre%" %source%
TOC of the extracted CD
Track | Start | Length | Start sector | End sector
---------------------------------------------------------
1 | 0:00.00 | 1:20.43 | 0 | 6042
2 | 1:20.43 | 5:53.29 | 6043 | 32546
3 | 7:13.72 | 4:24.30 | 32547 | 52376
4 | 11:38.27 | 3:27.16 | 52377 | 67917
5 | 15:05.43 | 4:20.72 | 67918 | 87489
6 | 19:26.40 | 4:29.51 | 87490 | 107715
7 | 23:56.16 | 4:22.06 | 107716 | 127371
8 | 28:18.22 | 5:09.71 | 127372 | 150617
9 | 33:28.18 | 3:39.53 | 150618 | 167095
10 | 37:07.71 | 3:28.45 | 167096 | 182740
11 | 40:36.41 | 4:06.40 | 182741 | 201230
12 | 44:43.06 | 4:18.33 | 201231 | 220613
13 | 49:01.39 | 5:47.59 | 220614 | 246697
14 | 54:49.23 | 12:38.70 | 246698 | 303617
Range status and errors
Selected range
Filename C:\Users\Sony\Downloads\MoonBaker\EACrip FLAC (image) Moon Baker - ABC of Romance (2007)\Moon Baker - ABC of Romance.wav
Peak level 98.8 %
Extraction speed 2.0 X
Range quality 99.9 %
Copy CRC F1BFFF63
Copy OK
No errors occurred
AccurateRip summary
Track 1 accurately ripped (confidence 3) [11111A6A] (AR v2)
Track 2 accurately ripped (confidence 3) [986B96C5] (AR v2)
Track 3 accurately ripped (confidence 3) [1F01CF07] (AR v2)
Track 4 accurately ripped (confidence 3) [3AE317A0] (AR v2)
Track 5 accurately ripped (confidence 3) [0112BDD2] (AR v2)
Track 6 accurately ripped (confidence 3) [D39F9B34] (AR v2)
Track 7 accurately ripped (confidence 3) [4A3F37BC] (AR v2)
Track 8 accurately ripped (confidence 3) [FBBA8B75] (AR v2)
Track 9 accurately ripped (confidence 3) [5D792457] (AR v2)
Track 10 accurately ripped (confidence 3) [D5AE8254] (AR v2)
Track 11 accurately ripped (confidence 3) [D86EF3D5] (AR v2)
Track 12 accurately ripped (confidence 3) [9C0ABFA9] (AR v2)
Track 13 accurately ripped (confidence 3) [770189E7] (AR v2)
Track 14 accurately ripped (confidence 3) [A79691FF] (AR v2)
All tracks accurately ripped
End of status report
==== Log checksum 4E9FBB1D42D8C32DEB31F546AB8CB4535B8A9920D25F2EABCB3DC8AAC3CE99AE ====
 
Содержание индексной карты (.CUE)
REM GENRE Jazz
REM DATE 2007
REM DISCID B00FD00E
REM COMMENT "ExactAudioCopy v1.0b3"
PERFORMER "Moon Baker"
TITLE "ABC Of Romance"
FILE "Moon Baker - ABC Of Romance.flac" WAVE
TRACK 01 AUDIO
TITLE "Memorylane Of Hidden Treasures"
PERFORMER "Moon Baker"
INDEX 01 00:00:00
TRACK 02 AUDIO
TITLE "Shot Deep"
PERFORMER "Moon Baker"
INDEX 01 01:20:43
TRACK 03 AUDIO
TITLE "The Light"
PERFORMER "Moon Baker"
INDEX 01 07:13:72
TRACK 04 AUDIO
TITLE "Body"
PERFORMER "Moon Baker"
INDEX 01 11:38:27
TRACK 05 AUDIO
TITLE "You Are"
PERFORMER "Moon Baker"
INDEX 01 15:05:43
TRACK 06 AUDIO
TITLE "That's All"
PERFORMER "Moon Baker"
INDEX 01 19:26:40
TRACK 07 AUDIO
TITLE "ABC Of Romance"
PERFORMER "Moon Baker"
INDEX 01 23:56:16
TRACK 08 AUDIO
TITLE "God's Lonely Crusade"
PERFORMER "Moon Baker"
INDEX 01 28:18:22
TRACK 09 AUDIO
TITLE "Stay"
PERFORMER "Moon Baker"
INDEX 01 33:28:18
TRACK 10 AUDIO
TITLE "Those Were The Days"
PERFORMER "Moon Baker"
INDEX 01 37:07:71
TRACK 11 AUDIO
TITLE "Something Sweet"
PERFORMER "Moon Baker"
INDEX 01 40:36:41
TRACK 12 AUDIO
TITLE "Sweet Papa"
PERFORMER "Moon Baker"
INDEX 01 44:43:06
TRACK 13 AUDIO
TITLE "Keep It Cool"
PERFORMER "Moon Baker"
INDEX 01 49:01:39
TRACK 14 AUDIO
TITLE "Caught Up In A C-Minor Blues"
PERFORMER "Moon Baker"
INDEX 01 54:49:23
 
Об исполнителе (группе)
Monique Bakker родилась в Голландской деревне Steenwijk в семье поп-музыканта. Moon Baker в детстве жила рабочих районах Амстердама. В музыке она начала с участия в funk-hiphop-soul группе U-Gene & O-Jay в период с 1998 по 2000 годы. После этого она в течении 2-х лет была лидер-певицей в группе Funky Stuff - группы Candy Dulfer (как ученица джазовой певицы Trijntje Oosterhuis). С Funky Stuff, Moon Baker гастролировала в Европе и Японии. На знаменитом North Sea Jazz Festival в 2005 она сверкнула в шоу с Sheila E, Chance Howard и John Blackwell (оба из команды Prince). Она не хотела раставаться с друзьями, чтобы выступать профессионально сольно в Нидерландах.
За все это время Moon Baker зарекомендовала себя отличным исполнителем, поющим только "в живую". Она какое-то время выступала с некоторыми знаменитостями дома и за границей. Например с New Cool Collective Bigband, Tower of Power и Sandra St. Victor. Кроме того, Moon работала в дуэте с Dave Stewart и она была приглашенным гостем на концертах George Clinton в Paradiso (Нидерланды).
Приватный:
Нет (DHT включён)
Размер:
426.88 Мб (447,617,609 байт) » файлов: 9
Участники:
0 раздают, 0 качают (0 участников всего)
Внешние участники:
1 раздают, 0 качают (1 участников всего) [ Обновить ]
Есть вопросы - пишите личное сообщение пользователю M0p94ok.
04:28
62
Нет комментариев. Ваш будет первым!