Поиск

(Funk) [CD] Moment Of Truth - Moment Of Truth - 2012 Remastered (1977), FLAC (tracks+.cue), lossless

(Funk) [CD] Moment Of Truth - Moment Of Truth - 2012 Remastered (1977), FLAC (tracks+.cue), lossless
Треклист:
Moment Of Truth - Moment Of Truth
Жанр: Funk
Носитель: CD
Страна-производитель диска (релиза): Japan
Год издания: 2012 (1977)
Издатель (лейбл): Octave Lab
Номер по каталогу: OTLCD-5018
Страна исполнителя (группы): USA
Аудиокодек: FLAC (*.flac)
Тип рипа: tracks+.cue
Битрейт аудио: lossless
Продолжительность: 01:13:47
Источник (релизер): what.cd
Наличие сканов в содержимом раздачи: нет
Треклист:
02. Chained To Your Love [00:04:22]
01. Lovin' You Is Killin' Me [00:05:06]
03. At Long Last [00:03:56]
04. You Got Me Hummin' [00:04:12]
05. Helplessly [00:03:45]
06. You're All I Want To Be [00:03:54]
07. Come On In [00:06:04]
08. So Much For Love [00:03:39]
09. Lovin' You Is Killin' Me (Original 12" Version) [00:07:05]
10. Lovin' You Is Killin' Me (Original Tom Moulton Mix) [00:06:54]
11. You Got Me Hummin' (Original Rafael Charres 12" Mix) [00:08:03]
12. Helplessly (Original Tom Moulton 12" Mix) [00:06:26]
13. So Much For Love (Original Tom Moulton 12" Mix) [00:06:38]
14. Lovin' You Is Killin' Me (Original Single Version) [00:03:37]
 
Лог создания рипа
Exact Audio Copy V1.0 beta 3 from 29. August 2011
EAC extraction logfile from 25. April 2013, 5:38
Moment Of Truth / Moment Of Truth (2012 Remastered)
Used drive : PIONEER DVD-RW DVR-116L Adapter: 3 ID: 0
Read mode : Secure
Utilize accurate stream : Yes
Defeat audio cache : Yes
Make use of C2 pointers : No
Read offset correction : 96
Overread into Lead-In and Lead-Out : No
Fill up missing offset samples with silence : Yes
Delete leading and trailing silent blocks : No
Null samples used in CRC calculations : Yes
Used interface : Native Win32 interface for Win NT & 2000
Gap handling : Appended to previous track
Used output format : User Defined Encoder
Selected bitrate : 128 kBit/s
Quality : High
Add ID3 tag : No
Command line compressor : C:\Program Files (x86)\Exact Audio Copy\Flac\flac.exe
Additional command line options : -T "artist=%artist%" -T "title=%title%" -T "album=%albumtitle%" -T "date=%year%" -T "tracknumber=%tracknr%" -T "genre=%genre%" -5 %source%
TOC of the extracted CD
Track | Start | Length | Start sector | End sector
---------------------------------------------------------
1 | 0:00.00 | 5:06.13 | 0 | 22962
2 | 5:06.13 | 4:22.71 | 22963 | 42683
3 | 9:29.09 | 3:56.35 | 42684 | 60418
4 | 13:25.44 | 4:12.36 | 60419 | 79354
5 | 17:38.05 | 3:45.29 | 79355 | 96258
6 | 21:23.34 | 3:54.73 | 96259 | 113881
7 | 25:18.32 | 6:04.33 | 113882 | 141214
8 | 31:22.65 | 3:39.68 | 141215 | 157707
9 | 35:02.58 | 7:05.47 | 157708 | 189629
10 | 42:08.30 | 6:54.45 | 189630 | 220724
11 | 49:03.00 | 8:03.25 | 220725 | 256974
12 | 57:06.25 | 6:26.44 | 256975 | 285968
13 | 63:32.69 | 6:38.03 | 285969 | 315821
14 | 70:10.72 | 3:37.03 | 315822 | 332099
Track 1
Filename C:\EACRips\01 Lovin' You Is Killin' Me.wav
Pre-gap length 0:00:02.00
Peak level 98.3 %
Extraction speed 5.0 X
Track quality 100.0 %
Test CRC 96835EBC
Copy CRC 96835EBC
Track not present in AccurateRip database
Copy OK
Track 2
Filename C:\EACRips\02 Chained To Your Love.wav
Peak level 98.3 %
Extraction speed 4.8 X
Track quality 99.9 %
Test CRC F5DF75C4
Copy CRC F5DF75C4
Track not present in AccurateRip database
Copy OK
Track 3
Filename C:\EACRips\03 At Long Last.wav
Peak level 98.3 %
Extraction speed 5.7 X
Track quality 100.0 %
Test CRC 92C3B7A8
Copy CRC 92C3B7A8
Track not present in AccurateRip database
Copy OK
Track 4
Filename C:\EACRips\04 You Got Me Hummin'.wav
Peak level 98.3 %
Extraction speed 6.2 X
Track quality 100.0 %
Test CRC B0A96AD1
Copy CRC B0A96AD1
Track not present in AccurateRip database
Copy OK
Track 5
Filename C:\EACRips\05 Helplessly.wav
Peak level 98.3 %
Extraction speed 6.4 X
Track quality 100.0 %
Test CRC B789C6FF
Copy CRC B789C6FF
Track not present in AccurateRip database
Copy OK
Track 6
Filename C:\EACRips\06 You're All I Want To Be.wav
Peak level 98.3 %
Extraction speed 6.7 X
Track quality 100.0 %
Test CRC 1FDCC65B
Copy CRC 1FDCC65B
Track not present in AccurateRip database
Copy OK
Track 7
Filename C:\EACRips\07 Come On In.wav
Peak level 98.3 %
Extraction speed 7.3 X
Track quality 100.0 %
Test CRC AB12EB34
Copy CRC AB12EB34
Track not present in AccurateRip database
Copy OK
Track 8
Filename C:\EACRips\08 So Much For Love.wav
Peak level 98.3 %
Extraction speed 7.3 X
Track quality 100.0 %
Test CRC C4C66FD2
Copy CRC C4C66FD2
Track not present in AccurateRip database
Copy OK
Track 9
Filename C:\EACRips\09 Lovin' You Is Killin' Me (Original 12'' Mix) (Bonus Track).wav
Peak level 98.3 %
Extraction speed 7.6 X
Track quality 99.9 %
Test CRC 7B57E4CF
Copy CRC 7B57E4CF
Track not present in AccurateRip database
Copy OK
Track 10
Filename C:\EACRips\10 Lovin' You Is Killin' Me (Original Tom Moulton 12'' Mix) (Bonus Track).wav
Peak level 98.3 %
Extraction speed 8.7 X
Track quality 100.0 %
Test CRC B39BAE8D
Copy CRC B39BAE8D
Track not present in AccurateRip database
Copy OK
Track 11
Filename C:\EACRips\11 You Got Me Hummin' (Original Rafael Charres 12'' Mix) (Bonus Track).wav
Peak level 98.3 %
Extraction speed 9.2 X
Track quality 100.0 %
Test CRC 11EC812C
Copy CRC 11EC812C
Track not present in AccurateRip database
Copy OK
Track 12
Filename C:\EACRips\12 Helplessly (Original Tom Moulton 12'' Mix) (Bonus Track).wav
Peak level 98.3 %
Extraction speed 9.4 X
Track quality 100.0 %
Test CRC 96F01840
Copy CRC 96F01840
Track not present in AccurateRip database
Copy OK
Track 13
Filename C:\EACRips\13 So Much For Love (Original Tom Moulton 12'' Mix) (Bonus Track).wav
Peak level 98.3 %
Extraction speed 9.0 X
Track quality 99.9 %
Test CRC AD34D978
Copy CRC AD34D978
Track not present in AccurateRip database
Copy OK
Track 14
Filename C:\EACRips\14 Lovin' You Is Killin' Me (Original Single Version) (Bonus Track).wav
Peak level 98.3 %
Extraction speed 9.3 X
Track quality 100.0 %
Test CRC EE9C8869
Copy CRC EE9C8869
Track not present in AccurateRip database
Copy OK
None of the tracks are present in the AccurateRip database
No errors occurred
End of status report
==== Log checksum AB4F4AB4B64C8E9B3DAB3734B43B19ECE29FB0EB06462068BAA00E16057511B8 ====
 
Содержание индексной карты (.CUE)
REM GENRE Funk
REM DATE 1977
REM DISCID AC114C0E
REM COMMENT "ExactAudioCopy v1.0b3"
FILE "01. Chained To Your Love.wav" WAVE
TRACK 01 AUDIO
INDEX 01 00:00:00
FILE "02. Lovin' You Is Killin' Me.wav" WAVE
TRACK 02 AUDIO
INDEX 01 00:00:00
FILE "03. At Long Last.wav" WAVE
TRACK 03 AUDIO
INDEX 01 00:00:00
FILE "04. You Got Me Hummin'.wav" WAVE
TRACK 04 AUDIO
INDEX 01 00:00:00
FILE "05. Helplessly.wav" WAVE
TRACK 05 AUDIO
INDEX 01 00:00:00
FILE "06. You're All I Want To Be.wav" WAVE
TRACK 06 AUDIO
INDEX 01 00:00:00
FILE "07. Come On In.wav" WAVE
TRACK 07 AUDIO
INDEX 01 00:00:00
FILE "08. So Much For Love.wav" WAVE
TRACK 08 AUDIO
INDEX 01 00:00:00
FILE "009. Lovin' You Is Killin' Me (Original 12' Version).wav" WAVE
TRACK 09 AUDIO
INDEX 01 00:00:00
FILE "10. Lovin' You Is Killin' Me (Original Tom Moulton Mix).wav" WAVE
TRACK 10 AUDIO
INDEX 01 00:00:00
FILE "11. You Got Me Hummin' (Original Rafael Charres 12' Mix).wav" WAVE
TRACK 11 AUDIO
INDEX 01 00:00:00
FILE "12. Helplessly (Original Tom Moulton 12' Mix).wav" WAVE
TRACK 12 AUDIO
INDEX 01 00:00:00
FILE "13. So Much For Love (Original Tom Moulton 12' Mix).wav" WAVE
TRACK 13 AUDIO
INDEX 01 00:00:00
FILE "14. Lovin' You Is Killin' Me (Original Single Version).wav" WAVE
TRACK 14 AUDIO
INDEX 01 00:00:00
 
Об исполнителе (группе)
Soul - disco vocal quartet
Formed in New York in the mid 70s. Produced by Reid Whitelaw and Norman Bergen, recorded one album for Salsoul Records before splitting.
 
Состав
Billy Jones, George Meyer, Ivery "Caprice" Bell, Michael Garrison, Norris Harris
Приватный:
Нет (DHT включён)
Размер:
541.88 Мб (568,202,337 байт) » файлов: 18
Участники:
0 раздают, 0 качают (0 участников всего)
Внешние участники:
2 раздают, 1 качают (3 участников всего) [ Обновить ]
Есть вопросы - пишите личное сообщение пользователю M0p94ok.
04:30
61
Нет комментариев. Ваш будет первым!