Поиск

(R&B,Funk-Soul,Downtempo,New Jack Swing,House) [CD] Melanie Williams - Human Cradle - 1994, FLAC (image+.cue), lossless

(R&B,Funk-Soul,Downtempo,New Jack Swing,House) [CD] Melanie Williams - Human Cradle - 1994, FLAC (image+.cue), lossless
Треклист:
Melanie Williams / Human Cradle
Жанр: R&B,Funk-Soul,Downtempo,New Jack Swing,House
Носитель: CD
Страна-производитель диска (релиза): UK
Год издания: 1994
Издатель (лейбл): Columbia/Sony UK
Номер по каталогу: 476579 2
Страна исполнителя (группы): UK
Аудиокодек: FLAC (*.flac)
Тип рипа: image+.cue
Битрейт аудио: lossless
Продолжительность: 00:49:57
Источник (релизер): собственный рип
Наличие сканов в содержимом раздачи: нет
Треклист:
1 Everyday Thang
2 Not Enough?
3 You Are Everything
4 Walk Along Side
5 Terrified
6 Keep It In The Family
7 All Cried Out
8 Fairweather
9 Building Up Love
10 Crave It
11 How D'You Make Love Stay?
 
Лог создания рипа
Exact Audio Copy V1.1 from 23. June 2015
EAC extraction logfile from 16. December 2015, 1:04
Melanie Williams / Human Cradle
Used drive : TSSTcorpCDDVDW TS-L633C Adapter: 1 ID: 0
Read mode : Secure
Utilize accurate stream : Yes
Defeat audio cache : Yes
Make use of C2 pointers : No
Read offset correction : 6
Overread into Lead-In and Lead-Out : No
Fill up missing offset samples with silence : Yes
Delete leading and trailing silent blocks : No
Null samples used in CRC calculations : Yes
Used interface : Native Win32 interface for Win NT & 2000
Used output format : User Defined Encoder
Selected bitrate : 768 kBit/s
Quality : High
Add ID3 tag : No
Command line compressor : C:\Program Files (x86)\Exact Audio Copy\Flac\flac.exe
Additional command line options : -V -8 -T "Date=%year%" -T "Genre=%genre%" %source%
TOC of the extracted CD
Track | Start | Length | Start sector | End sector
---------------------------------------------------------
1 | 0:00.00 | 4:25.22 | 0 | 19896
2 | 4:25.22 | 4:08.20 | 19897 | 38516
3 | 8:33.42 | 3:38.28 | 38517 | 54894
4 | 12:11.70 | 5:01.20 | 54895 | 77489
5 | 17:13.15 | 4:17.35 | 77490 | 96799
6 | 21:30.50 | 5:03.15 | 96800 | 119539
7 | 26:33.65 | 4:07.10 | 119540 | 138074
8 | 30:41.00 | 5:30.05 | 138075 | 162829
9 | 36:11.05 | 4:15.57 | 162830 | 182011
10 | 40:26.62 | 3:47.00 | 182012 | 199036
11 | 44:13.62 | 5:43.53 | 199037 | 224814
Range status and errors
Selected range
Filename C:\Users\Music\12.RIPS\Melanie Williams - Human Cradle.wav
Peak level 100.0 %
Extraction speed 4.2 X
Range quality 100.0 %
Test CRC 302193E8
Copy CRC 302193E8
Copy OK
No errors occurred
AccurateRip summary
Track 1 accurately ripped (confidence 3) [0A6B04D6] (AR v1)
Track 2 accurately ripped (confidence 3) [F879EB96] (AR v1)
Track 3 accurately ripped (confidence 3) [9FCF50F4] (AR v1)
Track 4 accurately ripped (confidence 3) [18646EA1] (AR v1)
Track 5 accurately ripped (confidence 3) [B4D80961] (AR v1)
Track 6 accurately ripped (confidence 3) [CD3DA633] (AR v1)
Track 7 accurately ripped (confidence 3) [09C6CDC9] (AR v1)
Track 8 accurately ripped (confidence 3) [916A2B96] (AR v1)
Track 9 accurately ripped (confidence 3) [5BC713F6] (AR v1)
Track 10 accurately ripped (confidence 3) [46CD0C23] (AR v1)
Track 11 accurately ripped (confidence 3) [972BB3EF] (AR v1)
All tracks accurately ripped
End of status report
---- CUETools DB Plugin V2.1.6
[CTDB TOCID: M4FlcgCx_KI.Fn6L81qVdEzQ2mQ-] disk not present in database
Submit result: M4FlcgCx_KI.Fn6L81qVdEzQ2mQ- has been uploaded
==== Log checksum 0CADF6A45355C6CE1FF4C0408AD16124DF5BC9063382309152B2DBBDDF7F4688 ====
 
Об исполнителе (группе)
Melanie Williams is a British singer. She sang on the hit single, "Ain't No Love (Ain't No Use)" alongside the Manchester dance outfit Sub Sub.Williams was a friend of Sub Sub at the time, and the band, searching for a female guest vocalist, featured her vocals. This helped expose her talents to the public, and was followed by further critical success.
Williams and her writing colleague Eric Gooden, found Square One Studios in Bury, Greater Manchester. The proprietor Trevor Taylor, liked what he heard and they began recording a string of tracks assisted by house engineer and musician Stephen Boyce-Buckley, subsequently landing a recording contract with 10 Records; a sub-division of Virgin Records.
Williams launched a solo career in 1994 as a soul/dance singer, signed to Columbia Records. Her debut solo single, "All Cried Out!" peaked at No. 60 in the UK Singles Chart.[3] The follow-up, "Everyday Thang", did better, hitting the UK Top 40. It peaked at No. 38. Her next single, the ballad "Not Enough?" managed a No. 65 chart placing. Her debut album, Human Cradle, failed to reach the UK Albums Chart.
Williams has also featured on the Adrian Snell album, Father, in which she read Psalm 139.
Early in 1995, Williams returned to the UK Top 40 with a cover of "You Are Everything" (a duet with Joe Roberts). The song reached No. 28.
The Other Two's second album, Super Highways, featured Williams on some tracks as co-writer and guest vocalist. Discography
1990 Father
1991 Eric Gooden & Melanie Williams – Temper Temper
1994 Human Cradle
2001 Dark Flower (Joe Roberts & Melanie Williams) – Feed My Soul
2007 Bodhi
Приватный:
Нет (DHT включён)
Размер:
334.94 Мб (351,206,776 байт) » файлов: 9
Участники:
0 раздают, 0 качают (0 участников всего)
Внешние участники:
2 раздают, 1 качают (3 участников всего) [ Обновить ]
No seeders - write personal message to user M0p94ok. Нет сидеров - пишите личное сообщение пользователю M0p94ok.
09:04
62
Нет комментариев. Ваш будет первым!