Поиск

(Soul-Funk,R&B,Downtempo,Garage House) [CDS] Melanie Williams & Joe Roberts - You Are Everything - 1995, FLAC (image+.cue), lossless

(Soul-Funk,R&B,Downtempo,Garage House) [CDS] Melanie Williams & Joe Roberts - You Are Everything - 1995, FLAC (image+.cue), lossless
Треклист:
Melanie Williams & Joe Roberts / You Are Everything
Жанр: Soul-Funk,R&B,Downtempo,Garage House
Носитель: CDS
Страна-производитель диска (релиза): Austria
Год издания: 1995
Издатель (лейбл): Columbia/Sony
Номер по каталогу: 661175 2
Страна исполнителя (группы): UK
Аудиокодек: FLAC (*.flac)
Тип рипа: image+.cue
Битрейт аудио: lossless
Продолжительность: 00:20:25
Источник (релизер): собственный рип
Наличие сканов в содержимом раздачи: нет
Треклист:
1 You Are Everything
2 You Are Everything (Absolute 12" Mix)
3 You Are Everything (Absolute Mix)
4 Walk Along Side (Frankie Foncett's House Mix)
 
Лог создания рипа
Exact Audio Copy V1.1 from 23. June 2015
EAC extraction logfile from 16. December 2015, 0:03
Melanie Williams & Joe Roberts / You Are Everything
Used drive : TSSTcorpCDDVDW TS-L633C Adapter: 1 ID: 0
Read mode : Secure
Utilize accurate stream : Yes
Defeat audio cache : Yes
Make use of C2 pointers : No
Read offset correction : 6
Overread into Lead-In and Lead-Out : No
Fill up missing offset samples with silence : Yes
Delete leading and trailing silent blocks : No
Null samples used in CRC calculations : Yes
Used interface : Native Win32 interface for Win NT & 2000
Used output format : User Defined Encoder
Selected bitrate : 768 kBit/s
Quality : High
Add ID3 tag : No
Command line compressor : C:\Program Files (x86)\Exact Audio Copy\Flac\flac.exe
Additional command line options : -V -8 -T "Date=%year%" -T "Genre=%genre%" %source%
TOC of the extracted CD
Track | Start | Length | Start sector | End sector
---------------------------------------------------------
1 | 0:00.00 | 3:40.00 | 0 | 16499
2 | 3:40.00 | 5:43.00 | 16500 | 42224
3 | 9:23.00 | 4:10.00 | 42225 | 60974
4 | 13:33.00 | 6:52.27 | 60975 | 91901
Range status and errors
Selected range
Filename C:\Users\Music\12.RIPS\Melanie Williams & Joe Roberts - You Are Everything.wav
Peak level 94.8 %
Extraction speed 3.4 X
Range quality 100.0 %
Test CRC F9497F34
Copy CRC F9497F34
Copy OK
No errors occurred
AccurateRip summary
Track 1 not present in database
Track 2 not present in database
Track 3 not present in database
Track 4 not present in database
None of the tracks are present in the AccurateRip database
End of status report
---- CUETools DB Plugin V2.1.6
[CTDB TOCID: KGzKv_Meg4_4SA1xV2ttcbh5q5c-] disk not present in database
Submit result: KGzKv_Meg4_4SA1xV2ttcbh5q5c- has been uploaded
==== Log checksum C35CD37A9BCB32450020E9EC30AAE729A121FB68CB7DE207CD3620FA8026337F ====
 
Об исполнителе (группе)
Melanie Williams is a British singer. She sang on the hit single, "Ain't No Love (Ain't No Use)" alongside the Manchester dance outfit Sub Sub.Williams was a friend of Sub Sub at the time, and the band, searching for a female guest vocalist, featured her vocals. This helped expose her talents to the public, and was followed by further critical success.
Williams and her writing colleague Eric Gooden, found Square One Studios in Bury, Greater Manchester. The proprietor Trevor Taylor, liked what he heard and they began recording a string of tracks assisted by house engineer and musician Stephen Boyce-Buckley, subsequently landing a recording contract with 10 Records; a sub-division of Virgin Records.
Williams launched a solo career in 1994 as a soul/dance singer, signed to Columbia Records. Her debut solo single, "All Cried Out!" peaked at No. 60 in the UK Singles Chart.[3] The follow-up, "Everyday Thang", did better, hitting the UK Top 40. It peaked at No. 38. Her next single, the ballad "Not Enough?" managed a No. 65 chart placing. Her debut album, Human Cradle, failed to reach the UK Albums Chart.
Williams has also featured on the Adrian Snell album, Father, in which she read Psalm 139.
Early in 1995, Williams returned to the UK Top 40 with a cover of "You Are Everything" (a duet with Joe Roberts). The song reached No. 28.
The Other Two's second album, Super Highways, featured Williams on some tracks as co-writer and guest vocalist. Discography
1990 Father
1991 Eric Gooden & Melanie Williams – Temper Temper
1994 Human Cradle
2001 Dark Flower (Joe Roberts & Melanie Williams) – Feed My Soul
2007 Bodhi
 
Об альбоме (сборнике)
Трэк 4: за основу взята музыка с трэка "Waterfall (Nellee Hooper Remix)" присутствующего на альбомe Wendy & Lisa "Re-Mix-In-A-Carnation"(1991)
Приватный:
Нет (DHT включён)
Размер:
128.40 Мб (134,632,941 байт) » файлов: 7
Участники:
0 раздают, 0 качают (0 участников всего)
Внешние участники:
2 раздают, 1 качают (3 участников всего) [ Обновить ]
No seeders - write a personal message to user M0p94ok. Нет сидеров - пишите личное сообщение пользователю M0p94ok.
09:03
78
Нет комментариев. Ваш будет первым!