Поиск

(Funk, Soul, R&B, Christmas) [CD] James Brown - James Brown's Funky Christmas - 1995, FLAC (tracks+.cue), lossless

(Funk, Soul, R&B, Christmas) [CD] James Brown - James Brown's Funky Christmas - 1995, FLAC (tracks+.cue), lossless
Треклист:
James Brown - James Brown's Funky Christmas Жанр: Funk, Soul, R&B, Christmas
Носитель: CD
Год издания: 1995
Издатель (лейбл): Polydor
Номер по каталогу: 31452 7988-2
Аудиокодек: FLAC (*.flac)
Тип рипа: tracks+.cue
Битрейт аудио: lossless
Продолжительность: 65:48
Источник (релизер): TestTickles
Наличие сканов в содержимом раздачи: да
Треклист:
01. Go Power At Christmas Time (3:13)
02. Let's Unite The Whole World At Christmas (2:45)
03. Santa Claus Go Straight To The Ghetto (3:03)
04. Merry Christmas Baby (3:56)
05. Let's Make Christmas Mean Something This Year (6:32)
06. Soulful Christmas (3:09)
07. The Christmas Song (Version 1) (2:44)
08. Sweet Little Baby Boy (5:18)
09. Christmas Is Love (6:02)
10. Please Come Home For Christmas (3:24)
11. Santa Claus Is Definitely Here To Stay (4:25)
12. Tit For Tat (Ain't No Taking Back) (3:07)
13. Santa Claus, Santa Claus (4:04)
14. Merry Christmas, I Love You (2:33)
15. Signs Of Christmas (4:39)
16. Christmas In Heaven (2:57)
17. Hey America (3:56)
 
 
Лог создания рипа
EAC extraction logfile from 28. November 2005, 6:29 for CD
James Brown / James Brown's Funky Christmas
Used drive : LITE-ON DVDRW SOHW-1633S Adapter: 0 ID: 0
Read mode : Secure with NO C2, accurate stream, disable cache
Read offset correction : 12
Overread into Lead-In and Lead-Out : No
Used output format : Internal WAV Routines
44.100 Hz; 16 Bit; Stereo
Other options :
Fill up missing offset samples with silence : Yes
Delete leading and trailing silent blocks : No
Installed external ASPI interface
Track 1
Filename C:\FLAC\James Brown - James Brown's Funky Christmas (1995) [FLAC]\01 - Go Power At Christmas Time.wav
Pre-gap length 0:00:02.00
Peak level 96.7 %
Track quality 100.0 %
Test CRC 7BC82192
Copy CRC 7BC82192
Copy OK
Track 2
Filename C:\FLAC\James Brown - James Brown's Funky Christmas (1995) [FLAC]\02 - Let's Unite The Whole World At Christmas.wav
Pre-gap length 0:00:02.62
Peak level 98.7 %
Track quality 100.0 %
Test CRC FBDF1265
Copy CRC FBDF1265
Copy OK
Track 3
Filename C:\FLAC\James Brown - James Brown's Funky Christmas (1995) [FLAC]\03 - Santa Claus Go Straight To The Ghetto.wav
Pre-gap length 0:00:02.65
Peak level 100.0 %
Track quality 100.0 %
Test CRC F4B57F86
Copy CRC F4B57F86
Copy OK
Track 4
Filename C:\FLAC\James Brown - James Brown's Funky Christmas (1995) [FLAC]\04 - Merry Christmas Baby.wav
Pre-gap length 0:00:02.69
Peak level 100.0 %
Track quality 99.9 %
Test CRC F2C53574
Copy CRC F2C53574
Copy OK
Track 5
Filename C:\FLAC\James Brown - James Brown's Funky Christmas (1995) [FLAC]\05 - Let's Make Christmas Mean Something This Year.wav
Pre-gap length 0:00:02.45
Peak level 97.1 %
Track quality 100.0 %
Test CRC 07359F47
Copy CRC 07359F47
Copy OK
Track 6
Filename C:\FLAC\James Brown - James Brown's Funky Christmas (1995) [FLAC]\06 - Soulful Christmas.wav
Pre-gap length 0:00:02.68
Peak level 89.3 %
Track quality 100.0 %
Test CRC 9955AD78
Copy CRC 9955AD78
Copy OK
Track 7
Filename C:\FLAC\James Brown - James Brown's Funky Christmas (1995) [FLAC]\07 - The Christmas Song ( Version 1).wav
Pre-gap length 0:00:02.45
Peak level 99.9 %
Track quality 100.0 %
Test CRC BC6DD8D6
Copy CRC BC6DD8D6
Copy OK
Track 8
Filename C:\FLAC\James Brown - James Brown's Funky Christmas (1995) [FLAC]\08 - Sweet Little Baby Boy.wav
Pre-gap length 0:00:03.00
Peak level 66.4 %
Track quality 100.0 %
Test CRC 71CB70C9
Copy CRC 71CB70C9
Copy OK
Track 9
Filename C:\FLAC\James Brown - James Brown's Funky Christmas (1995) [FLAC]\09 - Christmas Is Love.wav
Pre-gap length 0:00:02.57
Peak level 100.0 %
Track quality 100.0 %
Test CRC C44D3730
Copy CRC C44D3730
Copy OK
Track 10
Filename C:\FLAC\James Brown - James Brown's Funky Christmas (1995) [FLAC]\10 - Please Come Home For Christmas.wav
Pre-gap length 0:00:02.60
Peak level 99.9 %
Track quality 100.0 %
Test CRC 6A772BEE
Copy CRC 6A772BEE
Copy OK
Track 11
Filename C:\FLAC\James Brown - James Brown's Funky Christmas (1995) [FLAC]\11 - Santa Claus Is Definitely Here To Stay.wav
Pre-gap length 0:00:02.70
Peak level 100.0 %
Track quality 100.0 %
Test CRC CECB3C06
Copy CRC CECB3C06
Copy OK
Track 12
Filename C:\FLAC\James Brown - James Brown's Funky Christmas (1995) [FLAC]\12 - Tit For Tat (Ain't No Taking Back).wav
Pre-gap length 0:00:02.65
Peak level 100.0 %
Track quality 100.0 %
Test CRC C74704C7
Copy CRC C74704C7
Copy OK
Track 13
Filename C:\FLAC\James Brown - James Brown's Funky Christmas (1995) [FLAC]\13 - Santa Claus, Santa Claus.wav
Pre-gap length 0:00:02.67
Peak level 100.0 %
Track quality 99.9 %
Test CRC E100A508
Copy CRC E100A508
Copy OK
Track 14
Filename C:\FLAC\James Brown - James Brown's Funky Christmas (1995) [FLAC]\14 - Merry Christmas, I Love You.wav
Pre-gap length 0:00:02.68
Peak level 100.0 %
Track quality 100.0 %
Test CRC 0B40F8D1
Copy CRC 0B40F8D1
Copy OK
Track 15
Filename C:\FLAC\James Brown - James Brown's Funky Christmas (1995) [FLAC]\15 - Signs Of Christmas.wav
Pre-gap length 0:00:02.60
Peak level 94.5 %
Track quality 100.0 %
Test CRC 3AF186B1
Copy CRC 3AF186B1
Copy OK
Track 16
Filename C:\FLAC\James Brown - James Brown's Funky Christmas (1995) [FLAC]\16 - Christmas In Heaven.wav
Pre-gap length 0:00:03.02
Peak level 99.9 %
Track quality 100.0 %
Test CRC 2D6B00AB
Copy CRC 2D6B00AB
Copy OK
Track 17
Filename C:\FLAC\James Brown - James Brown's Funky Christmas (1995) [FLAC]\17 - Hey America.wav
Pre-gap length 0:00:02.60
Peak level 98.1 %
Track quality 100.0 %
Test CRC D19BA2A2
Copy CRC D19BA2A2
Copy OK
No errors occured
End of status report
 
Содержание индексной карты (.CUE)
REM GENRE Christmas
REM DATE 1995
PERFORMER "James Brown"
TITLE "James Brown's Funky Christmas"
FILE "01 - Go Power At Christmas Time.wav" WAVE
TRACK 01 AUDIO
TITLE "Go Power At Christmas Time"
PERFORMER "James Brown"
INDEX 01 00:00:00
TRACK 02 AUDIO
TITLE "Let's Unite The Whole World At Christmas"
PERFORMER "James Brown"
INDEX 00 03:10:03
FILE "02 - Let's Unite The Whole World At Christmas.wav" WAVE
INDEX 01 00:00:00
TRACK 03 AUDIO
TITLE "Santa Claus Go Straight To The Ghetto"
PERFORMER "James Brown"
INDEX 00 02:42:02
FILE "03 - Santa Claus Go Straight To The Ghetto.wav" WAVE
INDEX 01 00:00:00
TRACK 04 AUDIO
TITLE "Merry Christmas Baby"
PERFORMER "James Brown"
INDEX 00 03:00:36
FILE "04 - Merry Christmas Baby.wav" WAVE
INDEX 01 00:00:00
TRACK 05 AUDIO
TITLE "Let's Make Christmas Mean Something This Year"
PERFORMER "James Brown"
INDEX 00 03:53:63
FILE "05 - Let's Make Christmas Mean Something This Year.wav" WAVE
INDEX 01 00:00:00
TRACK 06 AUDIO
TITLE "Soulful Christmas"
PERFORMER "James Brown"
INDEX 00 06:28:62
FILE "06 - Soulful Christmas.wav" WAVE
INDEX 01 00:00:00
TRACK 07 AUDIO
TITLE "The Christmas Song (Version 1)"
PERFORMER "James Brown"
INDEX 00 03:06:40
FILE "07 - The Christmas Song (Version 1).wav" WAVE
INDEX 01 00:00:00
TRACK 08 AUDIO
TITLE "Sweet Little Baby Boy"
PERFORMER "James Brown"
INDEX 00 02:41:05
FILE "08 - Sweet Little Baby Boy.wav" WAVE
INDEX 01 00:00:00
TRACK 09 AUDIO
TITLE "Christmas Is Love"
PERFORMER "James Brown"
INDEX 00 05:14:70
FILE "09 - Christmas Is Love.wav" WAVE
INDEX 01 00:00:00
TRACK 10 AUDIO
TITLE "Please Come Home For Christmas"
PERFORMER "James Brown"
INDEX 00 05:59:43
FILE "10 - Please Come Home For Christmas.wav" WAVE
INDEX 01 00:00:00
TRACK 11 AUDIO
TITLE "Santa Claus Is Definitely Here To Stay"
PERFORMER "James Brown"
INDEX 00 03:21:05
FILE "11 - Santa Claus Is Definitely Here To Stay.wav" WAVE
INDEX 01 00:00:00
TRACK 12 AUDIO
TITLE "Tit For Tat (Ain't No Taking Back)"
PERFORMER "James Brown"
INDEX 00 04:21:65
FILE "12 - Tit For Tat (Ain't No Taking Back).wav" WAVE
INDEX 01 00:00:00
TRACK 13 AUDIO
TITLE "Santa Claus, Santa Claus"
PERFORMER "James Brown"
INDEX 00 03:04:10
FILE "13 - Santa Claus, Santa Claus.wav" WAVE
INDEX 01 00:00:00
TRACK 14 AUDIO
TITLE "Merry Christmas, I Love You"
PERFORMER "James Brown"
INDEX 00 04:01:10
FILE "14 - Merry Christmas, I Love You.wav" WAVE
INDEX 01 00:00:00
TRACK 15 AUDIO
TITLE "Signs Of Christmas"
PERFORMER "James Brown"
INDEX 00 02:30:52
FILE "15 - Signs Of Christmas.wav" WAVE
INDEX 01 00:00:00
TRACK 16 AUDIO
TITLE "Christmas In Heaven"
PERFORMER "James Brown"
INDEX 00 04:36:13
FILE "16 - Christmas In Heaven.wav" WAVE
INDEX 01 00:00:00
TRACK 17 AUDIO
TITLE "Hey America"
PERFORMER "James Brown"
INDEX 00 02:53:55
FILE "17 - Hey America.wav" WAVE
INDEX 01 00:00:00
 
Об альбоме (сборнике)
This is a compilation CD of Christmas songs James Brown released on the following albums:
James Brown And His Famous Flames Sing Christmas Songs (1966)
Soulful Christmas (1968)
Hey America (1970)
For many James Brown fans, this is him at the top of his came. If you know of the musicians who played with him during these years, you have a sense of what these songs could sound like, from structured soul to the unveiling of the funk.
Приватный:
Нет (DHT включён)
Размер:
396.02 Мб (415,253,712 байт) » файлов: 25
Участники:
0 раздают, 0 качают (0 участников всего)
Внешние участники:
2 раздают, 1 качают (3 участников всего) [ Обновить ]
Есть вопросы - пишите личное сообщение пользователю M0p94ok.
09:04
50
Нет комментариев. Ваш будет первым!