Поиск

(Rhythm'N'Blues, Rock) [CD] Georgie Fame - The Whole World's Shaking: Complete Recordings 1963-1966 - 2015, FLAC (tracks+.cue), lossless

(Rhythm'N'Blues, Rock) [CD] Georgie Fame - The Whole World's Shaking: Complete Recordings 1963-1966 - 2015, FLAC (tracks+.cue), lossless
Треклист:
Georgie Fame - The Whole World's Shaking: Complete Recordings 1963-1966

Жанр: Rhythm'N'Blues, Rock | Носитель: CD
Год издания: 2015 | Издатель (лейбл): Polydor/Universal | Номер по каталогу: 4739865
Аудиокодек: FLAC (*.flac) | Тип рипа: tracks+.cue | Битрейт аудио: lossless
Продолжительность: 05:21:57 | Источник (релизер): What.cd (leshafunk)
Наличие сканов в содержимом раздачи: нет 
 
 
CD 1 - Rhythm And Blues At The Flamingo
Продолжительность: 78:51
Треклист:
01. Night Train (mono) (4:29)
02. Let The Good Times Roll (mono) (3:06)
03. Do The Dog (mono) (3:19)
04. Eso Beso (mono) (2:46)
05. Work Song (mono) (2:50)
06. Parchman Farm (mono) (3:06)
07. You Can't Sit Down (mono) (5:17)
08. Humpty Dumpty (mono) (3:07)
09. Shop Around (mono) (3:47)
10. Baby, Please Don't Go (mono) (3:12)
11. Parker's Mood (mono) (4:55)
12. Money (That's What I Want) (mono) (2:21)
13. Molasses (stereo) (4:03)
14. Night Train (BBC 03-19-64) (stereo) (2:47)
15. Bright Lights, Big City (BBC 03-19-64) (stereo) (2:35)
16. Walking The Dog (BBC 03-19-64) (stereo) (3:13)
17. Do-Re-Mi (BBC 03-19-64) (stereo) (2:30)
18. Let The Sunshine In (BBC 03-19-64) (stereo) (3:08)
19. You're Breaking My Heart (BBC 03-19-64) (stereo) (4:38)
20. Sister Sadie (mono) (0:53)
21. Pig Foots (mono) (4:16)
22. Funky Mama (mono) (5:02)
23. Signifying Monkey (mono) (3:31)
 
 
Лог создания рипа
Exact Audio Copy V1.0 beta 3 from 29. August 2011
EAC extraction logfile from 14. December 2015, 20:48
Georgie Fame / Rhythm And Blues At The Flamingo
Used drive : TSSTcorpCDDVDW SH-224DB Adapter: 0 ID: 1
Read mode : Secure
Utilize accurate stream : Yes
Defeat audio cache : Yes
Make use of C2 pointers : No
Read offset correction : 6
Overread into Lead-In and Lead-Out : No
Fill up missing offset samples with silence : Yes
Delete leading and trailing silent blocks : No
Null samples used in CRC calculations : Yes
Used interface : Native Win32 interface for Win NT & 2000
Gap handling : Appended to previous track
Used output format : User Defined Encoder
Selected bitrate : 256 kBit/s
Quality : High
Add ID3 tag : No
Command line compressor : C:\Program Files\Exact Audio Copy\FLAC\FLAC.EXE
Additional command line options : -8 -V -T "ARTIST=%artist%" -T "TITLE=%title%" -T "ALBUM=%albumtitle%" -T "DATE=%year%" -T "TRACKNUMBER=%tracknr%" -T "TOTALTRACKS=%numtracks%" -T "GENRE=%genre%" -T "ALBUMARTIST=%albumartist%" -T "ALBUM ARTIST=%albumartist%" -T "COMMENT=EAC Secure Mode, Test & Copy, AccurateRip, FLAC -8" %source%
TOC of the extracted CD
Track | Start | Length | Start sector | End sector
---------------------------------------------------------
1 | 0:00.00 | 4:28.65 | 0 | 20164
2 | 4:28.65 | 3:05.65 | 20165 | 34104
3 | 7:34.55 | 3:18.53 | 34105 | 49007
4 | 10:53.33 | 2:45.48 | 49008 | 61430
5 | 13:39.06 | 2:49.62 | 61431 | 74167
6 | 16:28.68 | 3:05.60 | 74168 | 88102
7 | 19:34.53 | 5:17.15 | 88103 | 111892
8 | 24:51.68 | 3:06.69 | 111893 | 125911
9 | 27:58.62 | 3:46.71 | 125912 | 142932
10 | 31:45.58 | 3:12.15 | 142933 | 157347
11 | 34:57.73 | 4:55.30 | 157348 | 179502
12 | 39:53.28 | 2:21.19 | 179503 | 190096
13 | 42:14.47 | 4:03.23 | 190097 | 208344
14 | 46:17.70 | 2:46.47 | 208345 | 220841
15 | 49:04.42 | 2:34.60 | 220842 | 232451
16 | 51:39.27 | 3:13.22 | 232452 | 246948
17 | 54:52.49 | 2:29.70 | 246949 | 258193
18 | 57:22.44 | 3:08.12 | 258194 | 272305
19 | 60:30.56 | 4:38.27 | 272306 | 293182
20 | 65:09.08 | 0:52.60 | 293183 | 297142
21 | 66:01.68 | 4:16.26 | 297143 | 316368
22 | 70:18.19 | 5:02.02 | 316369 | 339020
23 | 75:20.21 | 3:31.14 | 339021 | 354859
Track 1
Filename E:\Lossless\Georgie Fame - The Whole World's Shaking (2015) [FLAC] {5CD box}\CD1\01 - Night Train (mono).wav
Pre-gap length 0:00:02.00
Peak level 66.9 %
Extraction speed 5.0 X
Track quality 100.0 %
Test CRC 76BAAA8C
Copy CRC 76BAAA8C
Accurately ripped (confidence 1) [B0BF6ECC] (AR v2)
Copy OK
Track 2
Filename E:\Lossless\Georgie Fame - The Whole World's Shaking (2015) [FLAC] {5CD box}\CD1\02 - Let The Good Times Roll (mono).wav
Peak level 76.8 %
Extraction speed 5.1 X
Track quality 100.0 %
Test CRC C9D38EB0
Copy CRC C9D38EB0
Accurately ripped (confidence 1) [EA504F7B] (AR v2)
Copy OK
Track 3
Filename E:\Lossless\Georgie Fame - The Whole World's Shaking (2015) [FLAC] {5CD box}\CD1\03 - Do The Dog (mono).wav
Peak level 67.5 %
Extraction speed 5.5 X
Track quality 100.0 %
Test CRC C95EAF3C
Copy CRC C95EAF3C
Accurately ripped (confidence 1) [216532FE] (AR v2)
Copy OK
Track 4
Filename E:\Lossless\Georgie Fame - The Whole World's Shaking (2015) [FLAC] {5CD box}\CD1\04 - Eso Beso (mono).wav
Peak level 74.6 %
Extraction speed 4.1 X
Track quality 99.9 %
Test CRC 330A8780
Copy CRC 330A8780
Accurately ripped (confidence 1) [53AC8A7D] (AR v2)
Copy OK
Track 5
Filename E:\Lossless\Georgie Fame - The Whole World's Shaking (2015) [FLAC] {5CD box}\CD1\05 - Work Song (mono).wav
Peak level 75.3 %
Extraction speed 5.9 X
Track quality 100.0 %
Test CRC C4D80739
Copy CRC C4D80739
Accurately ripped (confidence 1) [60802E3E] (AR v2)
Copy OK
Track 6
Filename E:\Lossless\Georgie Fame - The Whole World's Shaking (2015) [FLAC] {5CD box}\CD1\06 - Parchman Farm (mono).wav
Peak level 65.0 %
Extraction speed 6.1 X
Track quality 100.0 %
Test CRC DC66DDAC
Copy CRC DC66DDAC
Accurately ripped (confidence 1) [4527B184] (AR v2)
Copy OK
Track 7
Filename E:\Lossless\Georgie Fame - The Whole World's Shaking (2015) [FLAC] {5CD box}\CD1\07 - You Can't Sit Down (mono).wav
Peak level 81.2 %
Extraction speed 7.0 X
Track quality 100.0 %
Test CRC 7C037E1D
Copy CRC 7C037E1D
Accurately ripped (confidence 1) [91269E3A] (AR v2)
Copy OK
Track 8
Filename E:\Lossless\Georgie Fame - The Whole World's Shaking (2015) [FLAC] {5CD box}\CD1\08 - Humpty Dumpty (mono).wav
Peak level 76.5 %
Extraction speed 5.0 X
Track quality 99.9 %
Test CRC 0605AC19
Copy CRC 0605AC19
Accurately ripped (confidence 1) [706F7B3D] (AR v2)
Copy OK
Track 9
Filename E:\Lossless\Georgie Fame - The Whole World's Shaking (2015) [FLAC] {5CD box}\CD1\09 - Shop Around (mono).wav
Peak level 73.1 %
Extraction speed 7.2 X
Track quality 100.0 %
Test CRC 7C1D39AD
Copy CRC 7C1D39AD
Accurately ripped (confidence 1) [C5335272] (AR v2)
Copy OK
Track 10
Filename E:\Lossless\Georgie Fame - The Whole World's Shaking (2015) [FLAC] {5CD box}\CD1\10 - Baby, Please Don't Go (mono).wav
Peak level 79.2 %
Extraction speed 5.4 X
Track quality 99.9 %
Test CRC 00A2781B
Copy CRC 00A2781B
Accurately ripped (confidence 1) [F3705C23] (AR v2)
Copy OK
Track 11
Filename E:\Lossless\Georgie Fame - The Whole World's Shaking (2015) [FLAC] {5CD box}\CD1\11 - Parker's Mood (mono).wav
Peak level 71.7 %
Extraction speed 8.0 X
Track quality 100.0 %
Test CRC 1C657859
Copy CRC 1C657859
Accurately ripped (confidence 1) [3C964120] (AR v2)
Copy OK
Track 12
Filename E:\Lossless\Georgie Fame - The Whole World's Shaking (2015) [FLAC] {5CD box}\CD1\12 - Money (That's What I Want) (mono).wav
Peak level 78.9 %
Extraction speed 7.2 X
Track quality 100.0 %
Test CRC 897A750D
Copy CRC 897A750D
Accurately ripped (confidence 1) [BA422C9A] (AR v2)
Copy OK
Track 13
Filename E:\Lossless\Georgie Fame - The Whole World's Shaking (2015) [FLAC] {5CD box}\CD1\13 - Molasses (stereo).wav
Peak level 99.2 %
Extraction speed 8.1 X
Track quality 100.0 %
Test CRC 610DEF8D
Copy CRC 610DEF8D
Accurately ripped (confidence 1) [9349D45F] (AR v2)
Copy OK
Track 14
Filename E:\Lossless\Georgie Fame - The Whole World's Shaking (2015) [FLAC] {5CD box}\CD1\14 - Night Train (BBC 03-19-64) (stereo).wav
Peak level 90.9 %
Extraction speed 5.5 X
Track quality 99.9 %
Test CRC 73C1B600
Copy CRC 73C1B600
Accurately ripped (confidence 1) [69F933A5] (AR v2)
Copy OK
Track 15
Filename E:\Lossless\Georgie Fame - The Whole World's Shaking (2015) [FLAC] {5CD box}\CD1\15 - Bright Lights, Big City (BBC 03-19-64) (stereo).wav
Peak level 97.0 %
Extraction speed 7.7 X
Track quality 100.0 %
Test CRC D12B5FE1
Copy CRC D12B5FE1
Accurately ripped (confidence 1) [89B14057] (AR v2)
Copy OK
Track 16
Filename E:\Lossless\Georgie Fame - The Whole World's Shaking (2015) [FLAC] {5CD box}\CD1\16 - Walking The Dog (BBC 03-19-64) (stereo).wav
Peak level 94.5 %
Extraction speed 8.3 X
Track quality 100.0 %
Test CRC D7C6852F
Copy CRC D7C6852F
Accurately ripped (confidence 1) [BE38E6FA] (AR v2)
Copy OK
Track 17
Filename E:\Lossless\Georgie Fame - The Whole World's Shaking (2015) [FLAC] {5CD box}\CD1\17 - Do-Re-Mi (BBC 03-19-64) (stereo).wav
Peak level 99.1 %
Extraction speed 8.1 X
Track quality 100.0 %
Test CRC 84441C85
Copy CRC 84441C85
Accurately ripped (confidence 1) [A802160E] (AR v2)
Copy OK
Track 18
Filename E:\Lossless\Georgie Fame - The Whole World's Shaking (2015) [FLAC] {5CD box}\CD1\18 - Let The Sunshine In (BBC 03-19-64) (stereo).wav
Peak level 99.1 %
Extraction speed 8.6 X
Track quality 100.0 %
Test CRC E24EC8C5
Copy CRC E24EC8C5
Accurately ripped (confidence 1) [604BD33C] (AR v2)
Copy OK
Track 19
Filename E:\Lossless\Georgie Fame - The Whole World's Shaking (2015) [FLAC] {5CD box}\CD1\19 - You're Breaking My Heart (BBC 03-19-64) (stereo).wav
Peak level 99.4 %
Extraction speed 9.4 X
Track quality 100.0 %
Test CRC 5204B9B9
Copy CRC 5204B9B9
Accurately ripped (confidence 1) [F98CC859] (AR v2)
Copy OK
Track 20
Filename E:\Lossless\Georgie Fame - The Whole World's Shaking (2015) [FLAC] {5CD box}\CD1\20 - Sister Sadie (mono).wav
Peak level 95.3 %
Extraction speed 3.1 X
Track quality 99.7 %
Test CRC EBB11C23
Copy CRC EBB11C23
Accurately ripped (confidence 1) [D243D4D2] (AR v2)
Copy OK
Track 21
Filename E:\Lossless\Georgie Fame - The Whole World's Shaking (2015) [FLAC] {5CD box}\CD1\21 - Pig Foots (mono).wav
Peak level 95.6 %
Extraction speed 9.5 X
Track quality 100.0 %
Test CRC DCACADF3
Copy CRC DCACADF3
Accurately ripped (confidence 1) [A43E49B3] (AR v2)
Copy OK
Track 22
Filename E:\Lossless\Georgie Fame - The Whole World's Shaking (2015) [FLAC] {5CD box}\CD1\22 - Funky Mama (mono).wav
Peak level 98.9 %
Extraction speed 10.0 X
Track quality 100.0 %
Test CRC E4634B1D
Copy CRC E4634B1D
Accurately ripped (confidence 1) [5C7B947B] (AR v2)
Copy OK
Track 23
Filename E:\Lossless\Georgie Fame - The Whole World's Shaking (2015) [FLAC] {5CD box}\CD1\23 - Signifying Monkey (mono).wav
Peak level 99.0 %
Extraction speed 7.1 X
Track quality 99.9 %
Test CRC 4E39B91E
Copy CRC 4E39B91E
Accurately ripped (confidence 1) [CE9DE039] (AR v2)
Copy OK
All tracks accurately ripped
No errors occurred
End of status report
==== Log checksum 373E6DA29A98D4196497C8129BB4935CEA0847A094D43FA70BB26B58D0E0E682 ====
 
Содержание индексной карты (.CUE)
REM GENRE R&B
REM DATE 1964
REM DISCID 59127B17
REM COMMENT "ExactAudioCopy v1.0b3"
PERFORMER "Georgie Fame"
TITLE "Rhythm And Blues At The Flamingo"
FILE "01 - Night Train (mono).wav" WAVE
TRACK 01 AUDIO
TITLE "Night Train (mono)"
PERFORMER "Georgie Fame"
INDEX 01 00:00:00
FILE "02 - Let The Good Times Roll (mono).wav" WAVE
TRACK 02 AUDIO
TITLE "Let The Good Times Roll (mono)"
PERFORMER "Georgie Fame"
INDEX 01 00:00:00
FILE "03 - Do The Dog (mono).wav" WAVE
TRACK 03 AUDIO
TITLE "Do The Dog (mono)"
PERFORMER "Georgie Fame"
INDEX 01 00:00:00
FILE "04 - Eso Beso (mono).wav" WAVE
TRACK 04 AUDIO
TITLE "Eso Beso (mono)"
PERFORMER "Georgie Fame"
INDEX 01 00:00:00
FILE "05 - Work Song (mono).wav" WAVE
TRACK 05 AUDIO
TITLE "Work Song (mono)"
PERFORMER "Georgie Fame"
INDEX 01 00:00:00
FILE "06 - Parchman Farm (mono).wav" WAVE
TRACK 06 AUDIO
TITLE "Parchman Farm (mono)"
PERFORMER "Georgie Fame"
INDEX 01 00:00:00
FILE "07 - You Can't Sit Down (mono).wav" WAVE
TRACK 07 AUDIO
TITLE "You Can't Sit Down (mono)"
PERFORMER "Georgie Fame"
INDEX 01 00:00:00
FILE "08 - Humpty Dumpty (mono).wav" WAVE
TRACK 08 AUDIO
TITLE "Humpty Dumpty (mono)"
PERFORMER "Georgie Fame"
INDEX 01 00:00:00
FILE "09 - Shop Around (mono).wav" WAVE
TRACK 09 AUDIO
TITLE "Shop Around (mono)"
PERFORMER "Georgie Fame"
INDEX 01 00:00:00
FILE "10 - Baby, Please Don't Go (mono).wav" WAVE
TRACK 10 AUDIO
TITLE "Baby, Please Don't Go (mono)"
PERFORMER "Georgie Fame"
INDEX 01 00:00:00
FILE "11 - Parker's Mood (mono).wav" WAVE
TRACK 11 AUDIO
TITLE "Parker's Mood (mono)"
PERFORMER "Georgie Fame"
INDEX 01 00:00:00
FILE "12 - Money (That's What I Want) (mono).wav" WAVE
TRACK 12 AUDIO
TITLE "Money (That's What I Want) (mono)"
PERFORMER "Georgie Fame"
INDEX 01 00:00:00
FILE "13 - Molasses (stereo).wav" WAVE
TRACK 13 AUDIO
TITLE "Molasses (stereo)"
PERFORMER "Georgie Fame"
INDEX 01 00:00:00
FILE "14 - Night Train (BBC 03-19-64) (stereo).wav" WAVE
TRACK 14 AUDIO
TITLE "Night Train (BBC 03-19-64) (stereo)"
PERFORMER "Georgie Fame"
INDEX 01 00:00:00
FILE "15 - Bright Lights, Big City (BBC 03-19-64) (stereo).wav" WAVE
TRACK 15 AUDIO
TITLE "Bright Lights, Big City (BBC 03-19-64) (stereo)"
PERFORMER "Georgie Fame"
INDEX 01 00:00:00
FILE "16 - Walking The Dog (BBC 03-19-64) (stereo).wav" WAVE
TRACK 16 AUDIO
TITLE "Walking The Dog (BBC 03-19-64) (stereo)"
PERFORMER "Georgie Fame"
INDEX 01 00:00:00
FILE "17 - Do-Re-Mi (BBC 03-19-64) (stereo).wav" WAVE
TRACK 17 AUDIO
TITLE "Do-Re-Mi (BBC 03-19-64) (stereo)"
PERFORMER "Georgie Fame"
INDEX 01 00:00:00
FILE "18 - Let The Sunshine In (BBC 03-19-64) (stereo).wav" WAVE
TRACK 18 AUDIO
TITLE "Let The Sunshine In (BBC 03-19-64) (stereo)"
PERFORMER "Georgie Fame"
INDEX 01 00:00:00
FILE "19 - You're Breaking My Heart (BBC 03-19-64) (stereo).wav" WAVE
TRACK 19 AUDIO
TITLE "You're Breaking My Heart (BBC 03-19-64) (stereo)"
PERFORMER "Georgie Fame"
INDEX 01 00:00:00
FILE "20 - Sister Sadie (mono).wav" WAVE
TRACK 20 AUDIO
TITLE "Sister Sadie (mono)"
PERFORMER "Georgie Fame"
INDEX 01 00:00:00
FILE "21 - Pig Foots (mono).wav" WAVE
TRACK 21 AUDIO
TITLE "Pig Foots (mono)"
PERFORMER "Georgie Fame"
INDEX 01 00:00:00
FILE "22 - Funky Mama (mono).wav" WAVE
TRACK 22 AUDIO
TITLE "Funky Mama (mono)"
PERFORMER "Georgie Fame"
INDEX 01 00:00:00
FILE "23 - Signifying Monkey (mono).wav" WAVE
TRACK 23 AUDIO
TITLE "Signifying Monkey (mono)"
PERFORMER "Georgie Fame"
INDEX 01 00:00:00
 
CD 2 - Fame At Last!
Продолжительность: 59:43
Треклист:
01. Get On The Right Track Baby (stereo) (2:57)
02. Let The Sunshine In (stereo) (2:40)
03. The Monkey Time (stereo) (2:41)
04. All About My Girl (stereo) (4:28)
05. Point Of No Return (stereo) (2:29)
06. Gimme That Wine (stereo) (3:08)
07. Pink Champagne (stereo) (3:54)
08. Monkeying Around (stereo) (2:12)
09. Pride And Joy (stereo) (2:25)
10. Green Onions (stereo) (2:14)
11. I Love The Life I Live (stereo) (3:24)
12. I'm In The Mood For Love (Moody's Mood For Love) (stereo) (4:26)
13. Do-Re-Mi (mono) (2:17)
14. I'm In Love With You (mono) (2:46)
15. Bend A Little (mono) (2:22)
16. Madness (stereo) (2:40)
17. Tom Hark Goes Blue Beat (stereo) (2:16)
18. Humpty Dumpty (stereo) (2:45)
19. One Whole Year, Baby (stereo) (2:53)
20. Yeh, Yeh (stereo) (2:47)
21. Preach And Teach (stereo) (2:01)
 
 
Лог создания рипа
Exact Audio Copy V1.0 beta 3 from 29. August 2011
EAC extraction logfile from 14. December 2015, 21:45
Georgie Fame / Fame At Last!
Used drive : TSSTcorpCDDVDW SH-224DB Adapter: 0 ID: 1
Read mode : Secure
Utilize accurate stream : Yes
Defeat audio cache : Yes
Make use of C2 pointers : No
Read offset correction : 6
Overread into Lead-In and Lead-Out : No
Fill up missing offset samples with silence : Yes
Delete leading and trailing silent blocks : No
Null samples used in CRC calculations : Yes
Used interface : Native Win32 interface for Win NT & 2000
Gap handling : Appended to previous track
Used output format : User Defined Encoder
Selected bitrate : 256 kBit/s
Quality : High
Add ID3 tag : No
Command line compressor : C:\Program Files\Exact Audio Copy\FLAC\FLAC.EXE
Additional command line options : -8 -V -T "ARTIST=%artist%" -T "TITLE=%title%" -T "ALBUM=%albumtitle%" -T "DATE=%year%" -T "TRACKNUMBER=%tracknr%" -T "TOTALTRACKS=%numtracks%" -T "GENRE=%genre%" -T "ALBUMARTIST=%albumartist%" -T "ALBUM ARTIST=%albumartist%" -T "COMMENT=EAC Secure Mode, Test & Copy, AccurateRip, FLAC -8" %source%
TOC of the extracted CD
Track | Start | Length | Start sector | End sector
---------------------------------------------------------
1 | 0:00.00 | 2:56.41 | 0 | 13240
2 | 2:56.41 | 2:40.05 | 13241 | 25245
3 | 5:36.46 | 2:41.30 | 25246 | 37350
4 | 8:18.01 | 4:28.29 | 37351 | 57479
5 | 12:46.30 | 2:28.38 | 57480 | 68617
6 | 15:14.68 | 3:07.73 | 68618 | 82715
7 | 18:22.66 | 3:54.01 | 82716 | 100266
8 | 22:16.67 | 2:12.01 | 100267 | 110167
9 | 24:28.68 | 2:24.72 | 110168 | 121039
10 | 26:53.65 | 2:13.47 | 121040 | 131061
11 | 29:07.37 | 3:24.01 | 131062 | 146362
12 | 32:31.38 | 4:25.72 | 146363 | 166309
13 | 36:57.35 | 2:16.74 | 166310 | 176583
14 | 39:14.34 | 2:45.46 | 176584 | 189004
15 | 42:00.05 | 2:21.46 | 189005 | 199625
16 | 44:21.51 | 2:40.04 | 199626 | 211629
17 | 47:01.55 | 2:15.74 | 211630 | 221828
18 | 49:17.54 | 2:45.00 | 221829 | 234203
19 | 52:02.54 | 2:52.72 | 234204 | 247175
20 | 54:55.51 | 2:47.03 | 247176 | 259703
21 | 57:42.54 | 2:00.43 | 259704 | 268746
Track 1
Filename E:\Lossless\Georgie Fame - The Whole World's Shaking (2015) [FLAC] {5CD box}\CD2\01 - Get On The Right Track Baby (stereo).wav
Pre-gap length 0:00:02.00
Peak level 73.6 %
Extraction speed 1.6 X
Track quality 100.0 %
Test CRC 871136D4
Copy CRC 871136D4
Accurately ripped (confidence 1) [887BAA2C] (AR v2)
Copy OK
Track 2
Filename E:\Lossless\Georgie Fame - The Whole World's Shaking (2015) [FLAC] {5CD box}\CD2\02 - Let The Sunshine In (stereo).wav
Peak level 99.3 %
Extraction speed 1.7 X
Track quality 100.0 %
Test CRC B988DC10
Copy CRC B988DC10
Accurately ripped (confidence 1) [681020B2] (AR v2)
Copy OK
Track 3
Filename E:\Lossless\Georgie Fame - The Whole World's Shaking (2015) [FLAC] {5CD box}\CD2\03 - The Monkey Time (stereo).wav
Peak level 80.5 %
Extraction speed 1.8 X
Track quality 100.0 %
Test CRC 86C3F155
Copy CRC 86C3F155
Accurately ripped (confidence 1) [BDC4E9E4] (AR v2)
Copy OK
Track 4
Filename E:\Lossless\Georgie Fame - The Whole World's Shaking (2015) [FLAC] {5CD box}\CD2\04 - All About My Girl (stereo).wav
Peak level 75.1 %
Extraction speed 2.1 X
Track quality 100.0 %
Test CRC 45F42443
Copy CRC 45F42443
Accurately ripped (confidence 1) [58D16713] (AR v2)
Copy OK
Track 5
Filename E:\Lossless\Georgie Fame - The Whole World's Shaking (2015) [FLAC] {5CD box}\CD2\05 - Point Of No Return (stereo).wav
Peak level 88.6 %
Extraction speed 2.1 X
Track quality 100.0 %
Test CRC E4635FCD
Copy CRC E4635FCD
Accurately ripped (confidence 1) [F4BF39B0] (AR v2)
Copy OK
Track 6
Filename E:\Lossless\Georgie Fame - The Whole World's Shaking (2015) [FLAC] {5CD box}\CD2\06 - Gimme That Wine (stereo).wav
Peak level 68.1 %
Extraction speed 2.3 X
Track quality 100.0 %
Test CRC 6FC09492
Copy CRC 6FC09492
Accurately ripped (confidence 1) [07CDD06E] (AR v2)
Copy OK
Track 7
Filename E:\Lossless\Georgie Fame - The Whole World's Shaking (2015) [FLAC] {5CD box}\CD2\07 - Pink Champagne (stereo).wav
Peak level 72.0 %
Extraction speed 2.0 X
Track quality 99.9 %
Test CRC 253CCEE8
Copy CRC 253CCEE8
Accurately ripped (confidence 1) [32BF3628] (AR v2)
Copy OK
Track 8
Filename E:\Lossless\Georgie Fame - The Whole World's Shaking (2015) [FLAC] {5CD box}\CD2\08 - Monkeying Around (stereo).wav
Peak level 77.3 %
Extraction speed 2.3 X
Track quality 100.0 %
Test CRC 162E53AB
Copy CRC 162E53AB
Accurately ripped (confidence 1) [CC0C1394] (AR v2)
Copy OK
Track 9
Filename E:\Lossless\Georgie Fame - The Whole World's Shaking (2015) [FLAC] {5CD box}\CD2\09 - Pride And Joy (stereo).wav
Peak level 99.5 %
Extraction speed 2.5 X
Track quality 100.0 %
Test CRC 50BB56AB
Copy CRC 50BB56AB
Accurately ripped (confidence 1) [FF117635] (AR v2)
Copy OK
Track 10
Filename E:\Lossless\Georgie Fame - The Whole World's Shaking (2015) [FLAC] {5CD box}\CD2\10 - Green Onions (stereo).wav
Peak level 89.9 %
Extraction speed 2.5 X
Track quality 100.0 %
Test CRC 07302EB1
Copy CRC 07302EB1
Accurately ripped (confidence 1) [7951E4EA] (AR v2)
Copy OK
Track 11
Filename E:\Lossless\Georgie Fame - The Whole World's Shaking (2015) [FLAC] {5CD box}\CD2\11 - I Love The Life I Live (stereo).wav
Peak level 80.0 %
Extraction speed 2.8 X
Track quality 100.0 %
Test CRC BF8BBF59
Copy CRC BF8BBF59
Accurately ripped (confidence 1) [A41669D0] (AR v2)
Copy OK
Track 12
Filename E:\Lossless\Georgie Fame - The Whole World's Shaking (2015) [FLAC] {5CD box}\CD2\12 - I'm In The Mood For Love (Moody's Mood For Love) (stereo).wav
Peak level 67.4 %
Extraction speed 2.5 X
Track quality 99.9 %
Test CRC FACFF3F3
Copy CRC FACFF3F3
Accurately ripped (confidence 1) [05602959] (AR v2)
Copy OK
Track 13
Filename E:\Lossless\Georgie Fame - The Whole World's Shaking (2015) [FLAC] {5CD box}\CD2\13 - Do-Re-Mi (mono).wav
Peak level 63.3 %
Extraction speed 2.8 X
Track quality 100.0 %
Test CRC 952A2CD6
Copy CRC 952A2CD6
Accurately ripped (confidence 1) [64398F85] (AR v2)
Copy OK
Track 14
Filename E:\Lossless\Georgie Fame - The Whole World's Shaking (2015) [FLAC] {5CD box}\CD2\14 - I'm In Love With You (mono).wav
Peak level 81.0 %
Extraction speed 2.9 X
Track quality 100.0 %
Test CRC 156D2C8E
Copy CRC 156D2C8E
Accurately ripped (confidence 1) [ECB8302B] (AR v2)
Copy OK
Track 15
Filename E:\Lossless\Georgie Fame - The Whole World's Shaking (2015) [FLAC] {5CD box}\CD2\15 - Bend A Little (mono).wav
Peak level 87.7 %
Extraction speed 2.9 X
Track quality 100.0 %
Test CRC 6863C191
Copy CRC 6863C191
Accurately ripped (confidence 1) [D5AA4AA2] (AR v2)
Copy OK
Track 16
Filename E:\Lossless\Georgie Fame - The Whole World's Shaking (2015) [FLAC] {5CD box}\CD2\16 - Madness (stereo).wav
Peak level 84.3 %
Extraction speed 3.0 X
Track quality 100.0 %
Test CRC 18AC41ED
Copy CRC 18AC41ED
Accurately ripped (confidence 1) [D3193A88] (AR v2)
Copy OK
Track 17
Filename E:\Lossless\Georgie Fame - The Whole World's Shaking (2015) [FLAC] {5CD box}\CD2\17 - Tom Hark Goes Blue Beat (stereo).wav
Peak level 77.2 %
Extraction speed 3.0 X
Track quality 100.0 %
Test CRC E67420F4
Copy CRC E67420F4
Accurately ripped (confidence 1) [DC538C8D] (AR v2)
Copy OK
Track 18
Filename E:\Lossless\Georgie Fame - The Whole World's Shaking (2015) [FLAC] {5CD box}\CD2\18 - Humpty Dumpty (stereo).wav
Peak level 72.9 %
Extraction speed 2.3 X
Track quality 99.9 %
Test CRC CF24E6C0
Copy CRC CF24E6C0
Accurately ripped (confidence 1) [7C2199DA] (AR v2)
Copy OK
Track 19
Filename E:\Lossless\Georgie Fame - The Whole World's Shaking (2015) [FLAC] {5CD box}\CD2\19 - One Whole Year, Baby (stereo).wav
Peak level 88.0 %
Extraction speed 2.4 X
Track quality 99.9 %
Test CRC 809439D5
Copy CRC 809439D5
Accurately ripped (confidence 1) [B039F3E4] (AR v2)
Copy OK
Track 20
Filename E:\Lossless\Georgie Fame - The Whole World's Shaking (2015) [FLAC] {5CD box}\CD2\20 - Yeh, Yeh (stereo).wav
Peak level 77.2 %
Extraction speed 3.3 X
Track quality 100.0 %
Test CRC 365EBBAC
Copy CRC 365EBBAC
Accurately ripped (confidence 1) [07BBC02E] (AR v2)
Copy OK
Track 21
Filename E:\Lossless\Georgie Fame - The Whole World's Shaking (2015) [FLAC] {5CD box}\CD2\21 - Preach And Teach (stereo).wav
Peak level 87.8 %
Extraction speed 3.1 X
Track quality 100.0 %
Test CRC 73669939
Copy CRC 73669939
Accurately ripped (confidence 1) [E7DEA777] (AR v2)
Copy OK
All tracks accurately ripped
No errors occurred
End of status report
==== Log checksum 80D5A7B7A4A0EE41526D1D854F2857ABEA76B9B828A4D2CE4A29E32803293848 ====
 
Содержание индексной карты (.CUE)
REM GENRE R&B
REM DATE 1964
REM DISCID 320DFF15
REM COMMENT "ExactAudioCopy v1.0b3"
PERFORMER "Georgie Fame"
TITLE "Fame At Last!"
FILE "01 - Get On The Right Track Baby (stereo).wav" WAVE
TRACK 01 AUDIO
TITLE "Get On The Right Track Baby (stereo)"
PERFORMER "Georgie Fame"
INDEX 01 00:00:00
FILE "02 - Let The Sunshine In (stereo).wav" WAVE
TRACK 02 AUDIO
TITLE "Let The Sunshine In (stereo)"
PERFORMER "Georgie Fame"
INDEX 01 00:00:00
FILE "03 - The Monkey Time (stereo).wav" WAVE
TRACK 03 AUDIO
TITLE "The Monkey Time (stereo)"
PERFORMER "Georgie Fame"
INDEX 01 00:00:00
FILE "04 - All About My Girl (stereo).wav" WAVE
TRACK 04 AUDIO
TITLE "All About My Girl (stereo)"
PERFORMER "Georgie Fame"
INDEX 01 00:00:00
FILE "05 - Point Of No Return (stereo).wav" WAVE
TRACK 05 AUDIO
TITLE "Point Of No Return (stereo)"
PERFORMER "Georgie Fame"
INDEX 01 00:00:00
FILE "06 - Gimme That Wine (stereo).wav" WAVE
TRACK 06 AUDIO
TITLE "Gimme That Wine (stereo)"
PERFORMER "Georgie Fame"
INDEX 01 00:00:00
FILE "07 - Pink Champagne (stereo).wav" WAVE
TRACK 07 AUDIO
TITLE "Pink Champagne (stereo)"
PERFORMER "Georgie Fame"
INDEX 01 00:00:00
FILE "08 - Monkeying Around (stereo).wav" WAVE
TRACK 08 AUDIO
TITLE "Monkeying Around (stereo)"
PERFORMER "Georgie Fame"
INDEX 01 00:00:00
FILE "09 - Pride And Joy (stereo).wav" WAVE
TRACK 09 AUDIO
TITLE "Pride And Joy (stereo)"
PERFORMER "Georgie Fame"
INDEX 01 00:00:00
FILE "10 - Green Onions (stereo).wav" WAVE
TRACK 10 AUDIO
TITLE "Green Onions (stereo)"
PERFORMER "Georgie Fame"
INDEX 01 00:00:00
FILE "11 - I Love The Life I Live (stereo).wav" WAVE
TRACK 11 AUDIO
TITLE "I Love The Life I Live (stereo)"
PERFORMER "Georgie Fame"
INDEX 01 00:00:00
FILE "12 - I'm In The Mood For Love (Moody's Mood For Love) (stereo).wav" WAVE
TRACK 12 AUDIO
TITLE "I'm In The Mood For Love (Moody's Mood For Love) (stereo)"
PERFORMER "Georgie Fame"
INDEX 01 00:00:00
FILE "13 - Do-Re-Mi (mono).wav" WAVE
TRACK 13 AUDIO
TITLE "Do-Re-Mi (mono)"
PERFORMER "Georgie Fame"
INDEX 01 00:00:00
FILE "14 - I'm In Love With You (mono).wav" WAVE
TRACK 14 AUDIO
TITLE "I'm In Love With You (mono)"
PERFORMER "Georgie Fame"
INDEX 01 00:00:00
FILE "15 - Bend A Little (mono).wav" WAVE
TRACK 15 AUDIO
TITLE "Bend A Little (mono)"
PERFORMER "Georgie Fame"
INDEX 01 00:00:00
FILE "16 - Madness (stereo).wav" WAVE
TRACK 16 AUDIO
TITLE "Madness (stereo)"
PERFORMER "Georgie Fame"
INDEX 01 00:00:00
FILE "17 - Tom Hark Goes Blue Beat (stereo).wav" WAVE
TRACK 17 AUDIO
TITLE "Tom Hark Goes Blue Beat (stereo)"
PERFORMER "Georgie Fame"
INDEX 01 00:00:00
FILE "18 - Humpty Dumpty (stereo).wav" WAVE
TRACK 18 AUDIO
TITLE "Humpty Dumpty (stereo)"
PERFORMER "Georgie Fame"
INDEX 01 00:00:00
FILE "19 - One Whole Year, Baby (stereo).wav" WAVE
TRACK 19 AUDIO
TITLE "One Whole Year, Baby (stereo)"
PERFORMER "Georgie Fame"
INDEX 01 00:00:00
FILE "20 - Yeh, Yeh (stereo).wav" WAVE
TRACK 20 AUDIO
TITLE "Yeh, Yeh (stereo)"
PERFORMER "Georgie Fame"
INDEX 01 00:00:00
FILE "21 - Preach And Teach (stereo).wav" WAVE
TRACK 21 AUDIO
TITLE "Preach And Teach (stereo)"
PERFORMER "Georgie Fame"
INDEX 01 00:00:00
 
CD 3 - Sweet Things
Продолжительность: 61:40
Треклист:
01. Sweet Thing (mono) (2:35)
02. See Saw (mono) (2:46)
03. Ride Your Pony (mono) (2:42)
04. Funny How Time Slips Away (mono) (3:17)
05. Sitting In The Park (mono) (3:26)
06. Dr. Kitch (mono) (4:00)
07. My Girl (mono) (2:58)
08. Music Talk (mono) (3:22)
09. The In Crowd (mono) (2:59)
10. The World Is Round (mono) (2:41)
11. The Whole World's Shaking (mono) (3:12)
12. Last Night (mono) (5:07)
13. In The Meantime (mono) (2:39)
14. Telegram (mono) (2:41)
15. No No (The River) (stereo) (2:03)
16. Blue Monday (stereo) (2:17)
17. So Long (stereo) (1:52)
18. Sick And Tired (stereo) (2:21)
19. Like We Used To Be (mono) (2:20)
20. It Ain't Right (stereo) (3:07)
21. Something (mono) (3:14)
 
 
Лог создания рипа
Exact Audio Copy V1.0 beta 3 from 29. August 2011
EAC extraction logfile from 14. December 2015, 22:38
Georgie Fame / Sweet Things
Used drive : TSSTcorpCDDVDW SH-224DB Adapter: 0 ID: 1
Read mode : Secure
Utilize accurate stream : Yes
Defeat audio cache : Yes
Make use of C2 pointers : No
Read offset correction : 6
Overread into Lead-In and Lead-Out : No
Fill up missing offset samples with silence : Yes
Delete leading and trailing silent blocks : No
Null samples used in CRC calculations : Yes
Used interface : Native Win32 interface for Win NT & 2000
Gap handling : Appended to previous track
Used output format : User Defined Encoder
Selected bitrate : 256 kBit/s
Quality : High
Add ID3 tag : No
Command line compressor : C:\Program Files\Exact Audio Copy\FLAC\FLAC.EXE
Additional command line options : -8 -V -T "ARTIST=%artist%" -T "TITLE=%title%" -T "ALBUM=%albumtitle%" -T "DATE=%year%" -T "TRACKNUMBER=%tracknr%" -T "TOTALTRACKS=%numtracks%" -T "GENRE=%genre%" -T "ALBUMARTIST=%albumartist%" -T "ALBUM ARTIST=%albumartist%" -T "COMMENT=EAC Secure Mode, Test & Copy, AccurateRip, FLAC -8" %source%
TOC of the extracted CD
Track | Start | Length | Start sector | End sector
---------------------------------------------------------
1 | 0:00.00 | 2:34.73 | 0 | 11622
2 | 2:34.73 | 2:46.31 | 11623 | 24103
3 | 5:21.29 | 2:42.18 | 24104 | 36271
4 | 8:03.47 | 3:16.66 | 36272 | 51037
5 | 11:20.38 | 3:26.01 | 51038 | 66488
6 | 14:46.39 | 3:59.67 | 66489 | 84480
7 | 18:46.31 | 2:58.05 | 84481 | 97835
8 | 21:44.36 | 3:22.01 | 97836 | 112986
9 | 25:06.37 | 2:59.01 | 112987 | 126412
10 | 28:05.38 | 2:41.05 | 126413 | 138492
11 | 30:46.43 | 3:11.71 | 138493 | 152888
12 | 33:58.39 | 5:06.74 | 152889 | 175912
13 | 39:05.38 | 2:39.02 | 175913 | 187839
14 | 41:44.40 | 2:40.74 | 187840 | 199913
15 | 44:25.39 | 2:03.05 | 199914 | 209143
16 | 46:28.44 | 2:16.62 | 209144 | 219405
17 | 48:45.31 | 1:52.10 | 219406 | 227815
18 | 50:37.41 | 2:20.73 | 227816 | 238388
19 | 52:58.39 | 2:20.01 | 238389 | 248889
20 | 55:18.40 | 3:06.70 | 248890 | 262909
21 | 58:25.35 | 3:14.08 | 262910 | 277467
Track 1
Filename E:\Lossless\Georgie Fame - The Whole World's Shaking (2015) [FLAC] {5CD box}\CD3\01 - Sweet Thing (mono).wav
Pre-gap length 0:00:02.00
Peak level 82.2 %
Extraction speed 1.8 X
Track quality 100.0 %
Test CRC BC7BD83A
Copy CRC BC7BD83A
Accurately ripped (confidence 1) [795A23BF] (AR v2)
Copy OK
Track 2
Filename E:\Lossless\Georgie Fame - The Whole World's Shaking (2015) [FLAC] {5CD box}\CD3\02 - See Saw (mono).wav
Peak level 78.6 %
Extraction speed 1.9 X
Track quality 100.0 %
Test CRC 44AC9DB4
Copy CRC 44AC9DB4
Accurately ripped (confidence 1) [48230302] (AR v2)
Copy OK
Track 3
Filename E:\Lossless\Georgie Fame - The Whole World's Shaking (2015) [FLAC] {5CD box}\CD3\03 - Ride Your Pony (mono).wav
Peak level 83.3 %
Extraction speed 2.0 X
Track quality 100.0 %
Test CRC C78B2E17
Copy CRC C78B2E17
Accurately ripped (confidence 1) [44B69226] (AR v2)
Copy OK
Track 4
Filename E:\Lossless\Georgie Fame - The Whole World's Shaking (2015) [FLAC] {5CD box}\CD3\04 - Funny How Time Slips Away (mono).wav
Peak level 73.5 %
Extraction speed 1.8 X
Track quality 99.9 %
Test CRC 96207F23
Copy CRC 96207F23
Accurately ripped (confidence 1) [25797FEB] (AR v2)
Copy OK
Track 5
Filename E:\Lossless\Georgie Fame - The Whole World's Shaking (2015) [FLAC] {5CD box}\CD3\05 - Sitting In The Park (mono).wav
Peak level 90.1 %
Extraction speed 2.4 X
Track quality 100.0 %
Test CRC F11A4A0A
Copy CRC F11A4A0A
Accurately ripped (confidence 1) [6645F0EC] (AR v2)
Copy OK
Track 6
Filename E:\Lossless\Georgie Fame - The Whole World's Shaking (2015) [FLAC] {5CD box}\CD3\06 - Dr. Kitch (mono).wav
Peak level 87.5 %
Extraction speed 2.5 X
Track quality 100.0 %
Test CRC DFDB42D9
Copy CRC DFDB42D9
Accurately ripped (confidence 1) [70C488C0] (AR v2)
Copy OK
Track 7
Filename E:\Lossless\Georgie Fame - The Whole World's Shaking (2015) [FLAC] {5CD box}\CD3\07 - My Girl (mono).wav
Peak level 92.1 %
Extraction speed 2.5 X
Track quality 100.0 %
Test CRC D117082B
Copy CRC D117082B
Accurately ripped (confidence 1) [9F2997BA] (AR v2)
Copy OK
Track 8
Filename E:\Lossless\Georgie Fame - The Whole World's Shaking (2015) [FLAC] {5CD box}\CD3\08 - Music Talk (mono).wav
Peak level 85.3 %
Extraction speed 2.7 X
Track quality 100.0 %
Test CRC A4D382AD
Copy CRC A4D382AD
Accurately ripped (confidence 1) [FFCB107B] (AR v2)
Copy OK
Track 9
Filename E:\Lossless\Georgie Fame - The Whole World's Shaking (2015) [FLAC] {5CD box}\CD3\09 - The In Crowd (mono).wav
Peak level 86.6 %
Extraction speed 2.7 X
Track quality 100.0 %
Test CRC D20ACC45
Copy CRC D20ACC45
Accurately ripped (confidence 1) [D966A7D2] (AR v2)
Copy OK
Track 10
Filename E:\Lossless\Georgie Fame - The Whole World's Shaking (2015) [FLAC] {5CD box}\CD3\10 - The World Is Round (mono).wav
Peak level 88.2 %
Extraction speed 2.7 X
Track quality 100.0 %
Test CRC 27253E4F
Copy CRC 27253E4F
Accurately ripped (confidence 1) [C40EB07C] (AR v2)
Copy OK
Track 11
Filename E:\Lossless\Georgie Fame - The Whole World's Shaking (2015) [FLAC] {5CD box}\CD3\11 - The Whole World's Shaking (mono).wav
Peak level 85.1 %
Extraction speed 2.9 X
Track quality 100.0 %
Test CRC A6A5A942
Copy CRC A6A5A942
Accurately ripped (confidence 1) [B0FA036F] (AR v2)
Copy OK
Track 12
Filename E:\Lossless\Georgie Fame - The Whole World's Shaking (2015) [FLAC] {5CD box}\CD3\12 - Last Night (mono).wav
Peak level 85.3 %
Extraction speed 3.2 X
Track quality 100.0 %
Test CRC 7D0A8F39
Copy CRC 7D0A8F39
Accurately ripped (confidence 1) [86731611] (AR v2)
Copy OK
Track 13
Filename E:\Lossless\Georgie Fame - The Whole World's Shaking (2015) [FLAC] {5CD box}\CD3\13 - In The Meantime (mono).wav
Peak level 83.2 %
Extraction speed 2.2 X
Track quality 99.9 %
Test CRC 1C1D91DE
Copy CRC 1C1D91DE
Accurately ripped (confidence 1) [C63A22D5] (AR v2)
Copy OK
Track 14
Filename E:\Lossless\Georgie Fame - The Whole World's Shaking (2015) [FLAC] {5CD box}\CD3\14 - Telegram (mono).wav
Peak level 73.8 %
Extraction speed 2.2 X
Track quality 99.9 %
Test CRC D407A3C7
Copy CRC D407A3C7
Accurately ripped (confidence 1) [225EF788] (AR v2)
Copy OK
Track 15
Filename E:\Lossless\Georgie Fame - The Whole World's Shaking (2015) [FLAC] {5CD box}\CD3\15 - No No (The River) (stereo).wav
Peak level 61.4 %
Extraction speed 3.0 X
Track quality 100.0 %
Test CRC 48C40242
Copy CRC 48C40242
Accurately ripped (confidence 1) [2410FB3E] (AR v2)
Copy OK
Track 16
Filename E:\Lossless\Georgie Fame - The Whole World's Shaking (2015) [FLAC] {5CD box}\CD3\16 - Blue Monday (stereo).wav
Peak level 75.6 %
Extraction speed 3.1 X
Track quality 100.0 %
Test CRC 64F1FD6D
Copy CRC 64F1FD6D
Accurately ripped (confidence 1) [4C70D2A6] (AR v2)
Copy OK
Track 17
Filename E:\Lossless\Georgie Fame - The Whole World's Shaking (2015) [FLAC] {5CD box}\CD3\17 - So Long (stereo).wav
Peak level 80.6 %
Extraction speed 3.0 X
Track quality 100.0 %
Test CRC 7EB12B22
Copy CRC 7EB12B22
Accurately ripped (confidence 1) [9380C3FD] (AR v2)
Copy OK
Track 18
Filename E:\Lossless\Georgie Fame - The Whole World's Shaking (2015) [FLAC] {5CD box}\CD3\18 - Sick And Tired (stereo).wav
Peak level 77.7 %
Extraction speed 3.2 X
Track quality 100.0 %
Test CRC F8AE5296
Copy CRC F8AE5296
Accurately ripped (confidence 1) [5356751B] (AR v2)
Copy OK
Track 19
Filename E:\Lossless\Georgie Fame - The Whole World's Shaking (2015) [FLAC] {5CD box}\CD3\19 - Like We Used To Be (mono).wav
Peak level 89.6 %
Extraction speed 3.2 X
Track quality 100.0 %
Test CRC 81142E56
Copy CRC 81142E56
Accurately ripped (confidence 1) [EF905320] (AR v2)
Copy OK
Track 20
Filename E:\Lossless\Georgie Fame - The Whole World's Shaking (2015) [FLAC] {5CD box}\CD3\20 - It Ain't Right (stereo).wav
Peak level 80.0 %
Extraction speed 3.4 X
Track quality 100.0 %
Test CRC C5373F35
Copy CRC C5373F35
Accurately ripped (confidence 1) [BBB9D3AE] (AR v2)
Copy OK
Track 21
Filename E:\Lossless\Georgie Fame - The Whole World's Shaking (2015) [FLAC] {5CD box}\CD3\21 - Something (mono).wav
Peak level 88.6 %
Extraction speed 3.6 X
Track quality 100.0 %
Test CRC 30A5A0E5
Copy CRC 30A5A0E5
Accurately ripped (confidence 1) [1BA0692B] (AR v2)
Copy OK
All tracks accurately ripped
No errors occurred
End of status report
==== Log checksum 1D2A637610A185E4C3DCF8E2410E0D1AA2E8E99E646DDA5621AE25B97EAA9F62 ====
 
Содержание индексной карты (.CUE)
REM GENRE R&B
REM DATE 1966
REM DISCID 2F0E7315
REM COMMENT "ExactAudioCopy v1.0b3"
PERFORMER "Georgie Fame"
TITLE "Sweet Things"
FILE "01 - Sweet Thing (mono).wav" WAVE
TRACK 01 AUDIO
TITLE "Sweet Thing (mono)"
PERFORMER "Georgie Fame"
INDEX 01 00:00:00
FILE "02 - See Saw (mono).wav" WAVE
TRACK 02 AUDIO
TITLE "See Saw (mono)"
PERFORMER "Georgie Fame"
INDEX 01 00:00:00
FILE "03 - Ride Your Pony (mono).wav" WAVE
TRACK 03 AUDIO
TITLE "Ride Your Pony (mono)"
PERFORMER "Georgie Fame"
INDEX 01 00:00:00
FILE "04 - Funny How Time Slips Away (mono).wav" WAVE
TRACK 04 AUDIO
TITLE "Funny How Time Slips Away (mono)"
PERFORMER "Georgie Fame"
INDEX 01 00:00:00
FILE "05 - Sitting In The Park (mono).wav" WAVE
TRACK 05 AUDIO
TITLE "Sitting In The Park (mono)"
PERFORMER "Georgie Fame"
INDEX 01 00:00:00
FILE "06 - Dr. Kitch (mono).wav" WAVE
TRACK 06 AUDIO
TITLE "Dr. Kitch (mono)"
PERFORMER "Georgie Fame"
INDEX 01 00:00:00
FILE "07 - My Girl (mono).wav" WAVE
TRACK 07 AUDIO
TITLE "My Girl (mono)"
PERFORMER "Georgie Fame"
INDEX 01 00:00:00
FILE "08 - Music Talk (mono).wav" WAVE
TRACK 08 AUDIO
TITLE "Music Talk (mono)"
PERFORMER "Georgie Fame"
INDEX 01 00:00:00
FILE "09 - The In Crowd (mono).wav" WAVE
TRACK 09 AUDIO
TITLE "The In Crowd (mono)"
PERFORMER "Georgie Fame"
INDEX 01 00:00:00
FILE "10 - The World Is Round (mono).wav" WAVE
TRACK 10 AUDIO
TITLE "The World Is Round (mono)"
PERFORMER "Georgie Fame"
INDEX 01 00:00:00
FILE "11 - The Whole World's Shaking (mono).wav" WAVE
TRACK 11 AUDIO
TITLE "The Whole World's Shaking (mono)"
PERFORMER "Georgie Fame"
INDEX 01 00:00:00
FILE "12 - Last Night (mono).wav" WAVE
TRACK 12 AUDIO
TITLE "Last Night (mono)"
PERFORMER "Georgie Fame"
INDEX 01 00:00:00
FILE "13 - In The Meantime (mono).wav" WAVE
TRACK 13 AUDIO
TITLE "In The Meantime (mono)"
PERFORMER "Georgie Fame"
INDEX 01 00:00:00
FILE "14 - Telegram (mono).wav" WAVE
TRACK 14 AUDIO
TITLE "Telegram (mono)"
PERFORMER "Georgie Fame"
INDEX 01 00:00:00
FILE "15 - No No (The River) (stereo).wav" WAVE
TRACK 15 AUDIO
TITLE "No No (The River) (stereo)"
PERFORMER "Georgie Fame"
INDEX 01 00:00:00
FILE "16 - Blue Monday (stereo).wav" WAVE
TRACK 16 AUDIO
TITLE "Blue Monday (stereo)"
PERFORMER "Georgie Fame"
INDEX 01 00:00:00
FILE "17 - So Long (stereo).wav" WAVE
TRACK 17 AUDIO
TITLE "So Long (stereo)"
PERFORMER "Georgie Fame"
INDEX 01 00:00:00
FILE "18 - Sick And Tired (stereo).wav" WAVE
TRACK 18 AUDIO
TITLE "Sick And Tired (stereo)"
PERFORMER "Georgie Fame"
INDEX 01 00:00:00
FILE "19 - Like We Used To Be (mono).wav" WAVE
TRACK 19 AUDIO
TITLE "Like We Used To Be (mono)"
PERFORMER "Georgie Fame"
INDEX 01 00:00:00
FILE "20 - It Ain't Right (stereo).wav" WAVE
TRACK 20 AUDIO
TITLE "It Ain't Right (stereo)"
PERFORMER "Georgie Fame"
INDEX 01 00:00:00
FILE "21 - Something (mono).wav" WAVE
TRACK 21 AUDIO
TITLE "Something (mono)"
PERFORMER "Georgie Fame"
INDEX 01 00:00:00
 
CD 4 - Sound Venture
Продолжительность: 59:41
Треклист:
01. Many Happy Returns (mono) (2:51)
02. Down For The Count (mono) (2:42)
03. It's For Love The Petals Fall (mono) (2:27)
04. I Am Missing You (mono) (2:53)
05. Funny How Time Slips Away (mono) (3:34)
06. Lil' Pony (mono) (2:36)
07. Lovey Dovey (mono) (2:38)
08. Lil' Darlin' (mono) (4:57)
09. Three Blind Mice (mono) (2:20)
10. Dawn Yawn (mono) (2:12)
11. Feed Me (mono) (2:16)
12. Papa's Got A Brand New Bag (mono) (3:49)
13. Outrage (mono) (3:22)
14. Move It On Over (stereo) (2:25)
15. Walking The Dog (stereo) (2:41)
16. High Heel Sneakers (stereo) (2:47)
17. Rockin' Pneumonia And The Boogie Woogie Flu (stereo) (2:07)
18. Get Away (mono) (2:36)
19. El Bandido (mono) (3:12)
20. Sunny (mono) (2:40)
21. Don't Make Promises (mono) (2:36)
 
 
Лог создания рипа
Exact Audio Copy V1.0 beta 3 from 29. August 2011
EAC extraction logfile from 15. December 2015, 0:04
Georgie Fame / Sound Venture
Used drive : TSSTcorpCDDVDW SH-224DB Adapter: 0 ID: 1
Read mode : Secure
Utilize accurate stream : Yes
Defeat audio cache : Yes
Make use of C2 pointers : No
Read offset correction : 6
Overread into Lead-In and Lead-Out : No
Fill up missing offset samples with silence : Yes
Delete leading and trailing silent blocks : No
Null samples used in CRC calculations : Yes
Used interface : Native Win32 interface for Win NT & 2000
Gap handling : Appended to previous track
Used output format : User Defined Encoder
Selected bitrate : 256 kBit/s
Quality : High
Add ID3 tag : No
Command line compressor : C:\Program Files\Exact Audio Copy\FLAC\FLAC.EXE
Additional command line options : -8 -V -T "ARTIST=%artist%" -T "TITLE=%title%" -T "ALBUM=%albumtitle%" -T "DATE=%year%" -T "TRACKNUMBER=%tracknr%" -T "TOTALTRACKS=%numtracks%" -T "GENRE=%genre%" -T "ALBUMARTIST=%albumartist%" -T "ALBUM ARTIST=%albumartist%" -T "COMMENT=EAC Secure Mode, Test & Copy, AccurateRip, FLAC -8" %source%
TOC of the extracted CD
Track | Start | Length | Start sector | End sector
---------------------------------------------------------
1 | 0:00.00 | 2:51.00 | 0 | 12824
2 | 2:51.00 | 2:42.04 | 12825 | 24978
3 | 5:33.04 | 2:27.05 | 24979 | 36008
4 | 8:00.09 | 2:53.32 | 36009 | 49015
5 | 10:53.41 | 3:34.04 | 49016 | 65069
6 | 14:27.45 | 2:35.62 | 65070 | 76756
7 | 17:03.32 | 2:38.24 | 76757 | 88630
8 | 19:41.56 | 4:57.10 | 88631 | 110915
9 | 24:38.66 | 2:19.52 | 110916 | 121392
10 | 26:58.43 | 2:12.09 | 121393 | 131301
11 | 29:10.52 | 2:15.42 | 131302 | 141468
12 | 31:26.19 | 3:48.63 | 141469 | 158631
13 | 35:15.07 | 3:21.48 | 158632 | 173754
14 | 38:36.55 | 2:25.34 | 173755 | 184663
15 | 41:02.14 | 2:40.54 | 184664 | 196717
16 | 43:42.68 | 2:47.37 | 196718 | 209279
17 | 46:30.30 | 2:07.12 | 209280 | 218816
18 | 48:37.42 | 2:36.21 | 218817 | 230537
19 | 51:13.63 | 3:11.74 | 230538 | 244936
20 | 54:25.62 | 2:39.65 | 244937 | 256926
21 | 57:05.52 | 2:35.41 | 256927 | 268592
Track 1
Filename E:\Lossless\Georgie Fame - The Whole World's Shaking (2015) [FLAC] {5CD box}\CD4\01 - Many Happy Returns (mono).wav
Pre-gap length 0:00:02.00
Peak level 87.9 %
Extraction speed 1.4 X
Track quality 99.9 %
Test CRC 668BD02C
Copy CRC 668BD02C
Accurately ripped (confidence 1) [F90DCA78] (AR v2)
Copy OK
Track 2
Filename E:\Lossless\Georgie Fame - The Whole World's Shaking (2015) [FLAC] {5CD box}\CD4\02 - Down For The Count (mono).wav
Peak level 97.5 %
Extraction speed 1.7 X
Track quality 100.0 %
Test CRC 7CF833DC
Copy CRC 7CF833DC
Accurately ripped (confidence 1) [348568D3] (AR v2)
Copy OK
Track 3
Filename E:\Lossless\Georgie Fame - The Whole World's Shaking (2015) [FLAC] {5CD box}\CD4\03 - It's For Love The Petals Fall (mono).wav
Peak level 84.4 %
Extraction speed 1.5 X
Track quality 99.9 %
Test CRC 7FD9E532
Copy CRC 7FD9E532
Accurately ripped (confidence 1) [16A4CBD9] (AR v2)
Copy OK
Track 4
Filename E:\Lossless\Georgie Fame - The Whole World's Shaking (2015) [FLAC] {5CD box}\CD4\04 - I Am Missing You (mono).wav
Peak level 77.6 %
Extraction speed 2.0 X
Track quality 100.0 %
Test CRC 4AF4C2B4
Copy CRC 4AF4C2B4
Accurately ripped (confidence 1) [92587318] (AR v2)
Copy OK
Track 5
Filename E:\Lossless\Georgie Fame - The Whole World's Shaking (2015) [FLAC] {5CD box}\CD4\05 - Funny How Time Slips Away (mono).wav
Peak level 75.3 %
Extraction speed 2.2 X
Track quality 100.0 %
Test CRC 18BC2907
Copy CRC 18BC2907
Accurately ripped (confidence 1) [4A4AB2AF] (AR v2)
Copy OK
Track 6
Filename E:\Lossless\Georgie Fame - The Whole World's Shaking (2015) [FLAC] {5CD box}\CD4\06 - Lil' Pony (mono).wav
Peak level 86.8 %
Extraction speed 2.2 X
Track quality 100.0 %
Test CRC 5DF80DA2
Copy CRC 5DF80DA2
Accurately ripped (confidence 1) [1E82F53F] (AR v2)
Copy OK
Track 7
Filename E:\Lossless\Georgie Fame - The Whole World's Shaking (2015) [FLAC] {5CD box}\CD4\07 - Lovey Dovey (mono).wav
Peak level 99.2 %
Extraction speed 2.3 X
Track quality 100.0 %
Test CRC 89C31CD6
Copy CRC 89C31CD6
Accurately ripped (confidence 1) [0E89374B] (AR v2)
Copy OK
Track 8
Filename E:\Lossless\Georgie Fame - The Whole World's Shaking (2015) [FLAC] {5CD box}\CD4\08 - Lil' Darlin' (mono).wav
Peak level 81.5 %
Extraction speed 2.2 X
Track quality 99.9 %
Test CRC E043C11E
Copy CRC E043C11E
Accurately ripped (confidence 1) [CCA30520] (AR v2)
Copy OK
Track 9
Filename E:\Lossless\Georgie Fame - The Whole World's Shaking (2015) [FLAC] {5CD box}\CD4\09 - Three Blind Mice (mono).wav
Peak level 99.3 %
Extraction speed 2.4 X
Track quality 100.0 %
Test CRC D0BB602C
Copy CRC D0BB602C
Accurately ripped (confidence 1) [EBADFF6C] (AR v2)
Copy OK
Track 10
Filename E:\Lossless\Georgie Fame - The Whole World's Shaking (2015) [FLAC] {5CD box}\CD4\10 - Dawn Yawn (mono).wav
Peak level 78.0 %
Extraction speed 1.8 X
Track quality 99.9 %
Test CRC EE43A4B6
Copy CRC EE43A4B6
Accurately ripped (confidence 1) [AE6D8504] (AR v2)
Copy OK
Track 11
Filename E:\Lossless\Georgie Fame - The Whole World's Shaking (2015) [FLAC] {5CD box}\CD4\11 - Feed Me (mono).wav
Peak level 98.9 %
Extraction speed 2.5 X
Track quality 100.0 %
Test CRC 4B0ABC3A
Copy CRC 4B0ABC3A
Accurately ripped (confidence 1) [0FA4AA79] (AR v2)
Copy OK
Track 12
Filename E:\Lossless\Georgie Fame - The Whole World's Shaking (2015) [FLAC] {5CD box}\CD4\12 - Papa's Got A Brand New Bag (mono).wav
Peak level 87.1 %
Extraction speed 2.9 X
Track quality 100.0 %
Test CRC CA68782C
Copy CRC CA68782C
Accurately ripped (confidence 1) [CA1BEF4A] (AR v2)
Copy OK
Track 13
Filename E:\Lossless\Georgie Fame - The Whole World's Shaking (2015) [FLAC] {5CD box}\CD4\13 - Outrage (mono).wav
Peak level 78.9 %
Extraction speed 2.9 X
Track quality 100.0 %
Test CRC 7B13D013
Copy CRC 7B13D013
Accurately ripped (confidence 1) [E0783C1D] (AR v2)
Copy OK
Track 14
Filename E:\Lossless\Georgie Fame - The Whole World's Shaking (2015) [FLAC] {5CD box}\CD4\14 - Move It On Over (stereo).wav
Peak level 86.1 %
Extraction speed 2.8 X
Track quality 100.0 %
Test CRC F0A53BE5
Copy CRC F0A53BE5
Accurately ripped (confidence 1) [15153F1C] (AR v2)
Copy OK
Track 15
Filename E:\Lossless\Georgie Fame - The Whole World's Shaking (2015) [FLAC] {5CD box}\CD4\15 - Walking The Dog (stereo).wav
Peak level 96.2 %
Extraction speed 3.0 X
Track quality 100.0 %
Test CRC 3E891976
Copy CRC 3E891976
Accurately ripped (confidence 1) [86C854BF] (AR v2)
Copy OK
Track 16
Filename E:\Lossless\Georgie Fame - The Whole World's Shaking (2015) [FLAC] {5CD box}\CD4\16 - High Heel Sneakers (stereo).wav
Peak level 91.8 %
Extraction speed 3.0 X
Track quality 100.0 %
Test CRC 9BBE6180
Copy CRC 9BBE6180
Accurately ripped (confidence 1) [ABE5C26C] (AR v2)
Copy OK
Track 17
Filename E:\Lossless\Georgie Fame - The Whole World's Shaking (2015) [FLAC] {5CD box}\CD4\17 - Rockin' Pneumonia And The Boogie Woogie Flu (stereo).wav
Peak level 87.9 %
Extraction speed 2.0 X
Track quality 99.9 %
Test CRC 8E3FBFD8
Copy CRC 8E3FBFD8
Accurately ripped (confidence 1) [0CB54FE9] (AR v2)
Copy OK
Track 18
Filename E:\Lossless\Georgie Fame - The Whole World's Shaking (2015) [FLAC] {5CD box}\CD4\18 - Get Away (mono).wav
Peak level 96.1 %
Extraction speed 3.1 X
Track quality 100.0 %
Test CRC B83D2434
Copy CRC B83D2434
Accurately ripped (confidence 1) [E5DEEFA7] (AR v2)
Copy OK
Track 19
Filename E:\Lossless\Georgie Fame - The Whole World's Shaking (2015) [FLAC] {5CD box}\CD4\19 - El Bandido (mono).wav
Peak level 96.1 %
Extraction speed 3.3 X
Track quality 100.0 %
Test CRC 8F6A553A
Copy CRC 8F6A553A
Accurately ripped (confidence 1) [BD9961B6] (AR v2)
Copy OK
Track 20
Filename E:\Lossless\Georgie Fame - The Whole World's Shaking (2015) [FLAC] {5CD box}\CD4\20 - Sunny (mono).wav
Peak level 95.1 %
Extraction speed 3.2 X
Track quality 100.0 %
Test CRC 427AB858
Copy CRC 427AB858
Accurately ripped (confidence 1) [8923F9E1] (AR v2)
Copy OK
Track 21
Filename E:\Lossless\Georgie Fame - The Whole World's Shaking (2015) [FLAC] {5CD box}\CD4\21 - Don't Make Promises (mono).wav
Peak level 88.8 %
Extraction speed 3.3 X
Track quality 100.0 %
Test CRC 87C99AC7
Copy CRC 87C99AC7
Accurately ripped (confidence 1) [3714812A] (AR v2)
Copy OK
All tracks accurately ripped
No errors occurred
End of status report
==== Log checksum DC7BBBBA25BC61649FA8CB4D722FAE2B11988E5161F3235225F1F06D8F446784 ====
 
Содержание индексной карты (.CUE)
REM GENRE Pop
REM DATE 1966
REM DISCID 320DFD15
REM COMMENT "ExactAudioCopy v1.0b3"
PERFORMER "Georgie Fame"
TITLE "Sound Venture"
FILE "01 - Many Happy Returns (mono).wav" WAVE
TRACK 01 AUDIO
TITLE "Many Happy Returns (mono)"
PERFORMER "Georgie Fame"
INDEX 01 00:00:00
FILE "02 - Down For The Count (mono).wav" WAVE
TRACK 02 AUDIO
TITLE "Down For The Count (mono)"
PERFORMER "Georgie Fame"
INDEX 01 00:00:00
FILE "03 - It's For Love The Petals Fall (mono).wav" WAVE
TRACK 03 AUDIO
TITLE "It's For Love The Petals Fall (mono)"
PERFORMER "Georgie Fame"
INDEX 01 00:00:00
FILE "04 - I Am Missing You (mono).wav" WAVE
TRACK 04 AUDIO
TITLE "I Am Missing You (mono)"
PERFORMER "Georgie Fame"
INDEX 01 00:00:00
FILE "05 - Funny How Time Slips Away (mono).wav" WAVE
TRACK 05 AUDIO
TITLE "Funny How Time Slips Away (mono)"
PERFORMER "Georgie Fame"
INDEX 01 00:00:00
FILE "06 - Lil' Pony (mono).wav" WAVE
TRACK 06 AUDIO
TITLE "Lil' Pony (mono)"
PERFORMER "Georgie Fame"
INDEX 01 00:00:00
FILE "07 - Lovey Dovey (mono).wav" WAVE
TRACK 07 AUDIO
TITLE "Lovey Dovey (mono)"
PERFORMER "Georgie Fame"
INDEX 01 00:00:00
FILE "08 - Lil' Darlin' (mono).wav" WAVE
TRACK 08 AUDIO
TITLE "Lil' Darlin' (mono)"
PERFORMER "Georgie Fame"
INDEX 01 00:00:00
FILE "09 - Three Blind Mice (mono).wav" WAVE
TRACK 09 AUDIO
TITLE "Three Blind Mice (mono)"
PERFORMER "Georgie Fame"
INDEX 01 00:00:00
FILE "10 - Dawn Yawn (mono).wav" WAVE
TRACK 10 AUDIO
TITLE "Dawn Yawn (mono)"
PERFORMER "Georgie Fame"
INDEX 01 00:00:00
FILE "11 - Feed Me (mono).wav" WAVE
TRACK 11 AUDIO
TITLE "Feed Me (mono)"
PERFORMER "Georgie Fame"
INDEX 01 00:00:00
FILE "12 - Papa's Got A Brand New Bag (mono).wav" WAVE
TRACK 12 AUDIO
TITLE "Papa's Got A Brand New Bag (mono)"
PERFORMER "Georgie Fame"
INDEX 01 00:00:00
FILE "13 - Outrage (mono).wav" WAVE
TRACK 13 AUDIO
TITLE "Outrage (mono)"
PERFORMER "Georgie Fame"
INDEX 01 00:00:00
FILE "14 - Move It On Over (stereo).wav" WAVE
TRACK 14 AUDIO
TITLE "Move It On Over (stereo)"
PERFORMER "Georgie Fame"
INDEX 01 00:00:00
FILE "15 - Walking The Dog (stereo).wav" WAVE
TRACK 15 AUDIO
TITLE "Walking The Dog (stereo)"
PERFORMER "Georgie Fame"
INDEX 01 00:00:00
FILE "16 - High Heel Sneakers (stereo).wav" WAVE
TRACK 16 AUDIO
TITLE "High Heel Sneakers (stereo)"
PERFORMER "Georgie Fame"
INDEX 01 00:00:00
FILE "17 - Rockin' Pneumonia And The Boogie Woogie Flu (stereo).wav" WAVE
TRACK 17 AUDIO
TITLE "Rockin' Pneumonia And The Boogie Woogie Flu (stereo)"
PERFORMER "Georgie Fame"
INDEX 01 00:00:00
FILE "18 - Get Away (mono).wav" WAVE
TRACK 18 AUDIO
TITLE "Get Away (mono)"
PERFORMER "Georgie Fame"
INDEX 01 00:00:00
FILE "19 - El Bandido (mono).wav" WAVE
TRACK 19 AUDIO
TITLE "El Bandido (mono)"
PERFORMER "Georgie Fame"
INDEX 01 00:00:00
FILE "20 - Sunny (mono).wav" WAVE
TRACK 20 AUDIO
TITLE "Sunny (mono)"
PERFORMER "Georgie Fame"
INDEX 01 00:00:00
FILE "21 - Don't Make Promises (mono).wav" WAVE
TRACK 21 AUDIO
TITLE "Don't Make Promises (mono)"
PERFORMER "Georgie Fame"
INDEX 01 00:00:00
 
CD 5 - Bend A Little
Продолжительность: 62:02
Треклист:
01. Money (That's What I Want) (demo) (mono) (2:09)
02. Let The Sunshine In (demo) (mono) (2:40)
03. Lonely Avenue (demo) (mono) (2:42)
04. You're Driving Me Crazy (demo) (mono) (2:21)
05. Kidney Stew (demo) (mono) (2:07)
06. Moanin' (mono) (4:41)
07. Gimme That Wine (alt) (mono) (2:40)
08. Bend A Little (inst) (stereo) (2:25)
09. Saturday Night Fish Fry (stereo) (4:46)
10. Lil' Darlin' (alt) (stereo) (4:17)
11. You're Drving Me Crazy (mono) (2:09)
12. Soul Stomp (stereo) (3:03)
13. This Is Always (stereo) (3:04)
14. Jelly Jelly (mono) (4:53)
15. Black Head Chinaman (stereo) (2:59)
16. Incense (mono) (3:32)
17. Tan Tan's Tune (mono) (4:10)
18. Red Number Nine (stereo) (1:54)
19. Humpty Dumpty (German version) (stereo) (2:42)
20. Yeh, Yeh (German version) (stereo) (2:45)
 
 
Лог создания рипа
Exact Audio Copy V1.0 beta 3 from 29. August 2011
EAC extraction logfile from 15. December 2015, 0:59
Georgie Fame / Bend A Little - Demos, Rarities, B-Sides & Outtakes
Used drive : TSSTcorpCDDVDW SH-224DB Adapter: 0 ID: 1
Read mode : Secure
Utilize accurate stream : Yes
Defeat audio cache : Yes
Make use of C2 pointers : No
Read offset correction : 6
Overread into Lead-In and Lead-Out : No
Fill up missing offset samples with silence : Yes
Delete leading and trailing silent blocks : No
Null samples used in CRC calculations : Yes
Used interface : Native Win32 interface for Win NT & 2000
Gap handling : Appended to previous track
Used output format : User Defined Encoder
Selected bitrate : 256 kBit/s
Quality : High
Add ID3 tag : No
Command line compressor : C:\Program Files\Exact Audio Copy\FLAC\FLAC.EXE
Additional command line options : -8 -V -T "ARTIST=%artist%" -T "TITLE=%title%" -T "ALBUM=%albumtitle%" -T "DATE=%year%" -T "TRACKNUMBER=%tracknr%" -T "TOTALTRACKS=%numtracks%" -T "GENRE=%genre%" -T "ALBUMARTIST=%albumartist%" -T "ALBUM ARTIST=%albumartist%" -T "COMMENT=EAC Secure Mode, Test & Copy, AccurateRip, FLAC -8" %source%
TOC of the extracted CD
Track | Start | Length | Start sector | End sector
---------------------------------------------------------
1 | 0:00.00 | 2:09.27 | 0 | 9701
2 | 2:09.27 | 2:40.23 | 9702 | 21724
3 | 4:49.50 | 2:41.69 | 21725 | 33868
4 | 7:31.44 | 2:21.14 | 33869 | 44457
5 | 9:52.58 | 2:07.19 | 44458 | 54001
6 | 12:00.02 | 4:41.23 | 54002 | 75099
7 | 16:41.25 | 2:39.69 | 75100 | 87093
8 | 19:21.19 | 2:25.34 | 87094 | 98002
9 | 21:46.53 | 4:45.59 | 98003 | 119436
10 | 26:32.37 | 4:17.02 | 119437 | 138713
11 | 30:49.39 | 2:09.32 | 138714 | 148420
12 | 32:58.71 | 3:03.29 | 148421 | 162174
13 | 36:02.25 | 3:04.13 | 162175 | 175987
14 | 39:06.38 | 4:53.09 | 175988 | 197971
15 | 43:59.47 | 2:58.57 | 197972 | 211378
16 | 46:58.29 | 3:32.16 | 211379 | 227294
17 | 50:30.45 | 4:10.14 | 227295 | 246058
18 | 54:40.59 | 1:53.52 | 246059 | 254585
19 | 56:34.36 | 2:41.61 | 254586 | 266721
20 | 59:16.22 | 2:45.25 | 266722 | 279121
Track 1
Filename E:\Lossless\Georgie Fame - The Whole World's Shaking (2015) [FLAC] {5CD box}\CD5\01 - Money (That's What I Want) (demo) (mono).wav
Pre-gap length 0:00:02.00
Peak level 92.5 %
Extraction speed 1.7 X
Track quality 100.0 %
Test CRC 2294AC41
Copy CRC 2294AC41
Accurately ripped (confidence 1) [C8E49175] (AR v2)
Copy OK
Track 2
Filename E:\Lossless\Georgie Fame - The Whole World's Shaking (2015) [FLAC] {5CD box}\CD5\02 - Let The Sunshine In (demo) (mono).wav
Peak level 89.5 %
Extraction speed 1.6 X
Track quality 99.9 %
Test CRC A4071B86
Copy CRC A4071B86
Accurately ripped (confidence 1) [0FB92824] (AR v2)
Copy OK
Track 3
Filename E:\Lossless\Georgie Fame - The Whole World's Shaking (2015) [FLAC] {5CD box}\CD5\03 - Lonely Avenue (demo) (mono).wav
Peak level 87.3 %
Extraction speed 2.0 X
Track quality 100.0 %
Test CRC FDF9C763
Copy CRC FDF9C763
Accurately ripped (confidence 1) [68BB14AE] (AR v2)
Copy OK
Track 4
Filename E:\Lossless\Georgie Fame - The Whole World's Shaking (2015) [FLAC] {5CD box}\CD5\04 - You're Driving Me Crazy (demo) (mono).wav
Peak level 94.1 %
Extraction speed 2.0 X
Track quality 100.0 %
Test CRC 741356EA
Copy CRC 741356EA
Accurately ripped (confidence 1) [F2D995A6] (AR v2)
Copy OK
Track 5
Filename E:\Lossless\Georgie Fame - The Whole World's Shaking (2015) [FLAC] {5CD box}\CD5\05 - Kidney Stew (demo) (mono).wav
Peak level 90.5 %
Extraction speed 2.0 X
Track quality 100.0 %
Test CRC B391B51A
Copy CRC B391B51A
Accurately ripped (confidence 1) [8329D19F] (AR v2)
Copy OK
Track 6
Filename E:\Lossless\Georgie Fame - The Whole World's Shaking (2015) [FLAC] {5CD box}\CD5\06 - Moanin' (mono).wav
Peak level 89.7 %
Extraction speed 2.5 X
Track quality 100.0 %
Test CRC 2D0DC3C9
Copy CRC 2D0DC3C9
Accurately ripped (confidence 1) [DCC92D3E] (AR v2)
Copy OK
Track 7
Filename E:\Lossless\Georgie Fame - The Whole World's Shaking (2015) [FLAC] {5CD box}\CD5\07 - Gimme That Wine (alt) (mono).wav
Peak level 80.1 %
Extraction speed 2.4 X
Track quality 100.0 %
Test CRC E2118D9F
Copy CRC E2118D9F
Accurately ripped (confidence 1) [6ECFAA5D] (AR v2)
Copy OK
Track 8
Filename E:\Lossless\Georgie Fame - The Whole World's Shaking (2015) [FLAC] {5CD box}\CD5\08 - Bend A Little (inst) (stereo).wav
Peak level 99.6 %
Extraction speed 2.4 X
Track quality 100.0 %
Test CRC DE51F99E
Copy CRC DE51F99E
Accurately ripped (confidence 1) [4A40AF70] (AR v2)
Copy OK
Track 9
Filename E:\Lossless\Georgie Fame - The Whole World's Shaking (2015) [FLAC] {5CD box}\CD5\09 - Saturday Night Fish Fry (stereo).wav
Peak level 99.6 %
Extraction speed 2.9 X
Track quality 100.0 %
Test CRC B70F9183
Copy CRC B70F9183
Accurately ripped (confidence 1) [B471BD40] (AR v2)
Copy OK
Track 10
Filename E:\Lossless\Georgie Fame - The Whole World's Shaking (2015) [FLAC] {5CD box}\CD5\10 - Lil' Darlin' (alt) (stereo).wav
Peak level 99.7 %
Extraction speed 3.0 X
Track quality 100.0 %
Test CRC 64C5E9D8
Copy CRC 64C5E9D8
Accurately ripped (confidence 1) [12A812B5] (AR v2)
Copy OK
Track 11
Filename E:\Lossless\Georgie Fame - The Whole World's Shaking (2015) [FLAC] {5CD box}\CD5\11 - You're Drving Me Crazy (mono).wav
Peak level 78.3 %
Extraction speed 2.7 X
Track quality 100.0 %
Test CRC 82039675
Copy CRC 82039675
Accurately ripped (confidence 1) [03E82CB9] (AR v2)
Copy OK
Track 12
Filename E:\Lossless\Georgie Fame - The Whole World's Shaking (2015) [FLAC] {5CD box}\CD5\12 - Soul Stomp (stereo).wav
Peak level 91.6 %
Extraction speed 3.0 X
Track quality 100.0 %
Test CRC 66E6FEF0
Copy CRC 66E6FEF0
Accurately ripped (confidence 1) [F8D9750A] (AR v2)
Copy OK
Track 13
Filename E:\Lossless\Georgie Fame - The Whole World's Shaking (2015) [FLAC] {5CD box}\CD5\13 - This Is Always (stereo).wav
Peak level 96.5 %
Extraction speed 3.1 X
Track quality 100.0 %
Test CRC 7DE813DA
Copy CRC 7DE813DA
Accurately ripped (confidence 1) [517C343A] (AR v2)
Copy OK
Track 14
Filename E:\Lossless\Georgie Fame - The Whole World's Shaking (2015) [FLAC] {5CD box}\CD5\14 - Jelly Jelly (mono).wav
Peak level 84.9 %
Extraction speed 2.7 X
Track quality 99.9 %
Test CRC FA833309
Copy CRC FA833309
Accurately ripped (confidence 1) [17BD73E8] (AR v2)
Copy OK
Track 15
Filename E:\Lossless\Georgie Fame - The Whole World's Shaking (2015) [FLAC] {5CD box}\CD5\15 - Black Head Chinaman (stereo).wav
Peak level 91.9 %
Extraction speed 3.2 X
Track quality 100.0 %
Test CRC DE293C8C
Copy CRC DE293C8C
Accurately ripped (confidence 1) [591330BF] (AR v2)
Copy OK
Track 16
Filename E:\Lossless\Georgie Fame - The Whole World's Shaking (2015) [FLAC] {5CD box}\CD5\16 - Incense (mono).wav
Peak level 99.6 %
Extraction speed 3.4 X
Track quality 100.0 %
Test CRC E93E7843
Copy CRC E93E7843
Accurately ripped (confidence 1) [3D14EB0F] (AR v2)
Copy OK
Track 17
Filename E:\Lossless\Georgie Fame - The Whole World's Shaking (2015) [FLAC] {5CD box}\CD5\17 - Tan Tan's Tune (mono).wav
Peak level 99.2 %
Extraction speed 3.6 X
Track quality 100.0 %
Test CRC 8CCB0DD7
Copy CRC 8CCB0DD7
Accurately ripped (confidence 1) [17235DE3] (AR v2)
Copy OK
Track 18
Filename E:\Lossless\Georgie Fame - The Whole World's Shaking (2015) [FLAC] {5CD box}\CD5\18 - Red Number Nine (stereo).wav
Peak level 87.1 %
Extraction speed 3.1 X
Track quality 100.0 %
Test CRC 9D09BEB9
Copy CRC 9D09BEB9
Accurately ripped (confidence 1) [8B2C5347] (AR v2)
Copy OK
Track 19
Filename E:\Lossless\Georgie Fame - The Whole World's Shaking (2015) [FLAC] {5CD box}\CD5\19 - Humpty Dumpty (German version) (stereo).wav
Peak level 95.6 %
Extraction speed 3.4 X
Track quality 100.0 %
Test CRC D213AC6C
Copy CRC D213AC6C
Accurately ripped (confidence 1) [D58C39DA] (AR v2)
Copy OK
Track 20
Filename E:\Lossless\Georgie Fame - The Whole World's Shaking (2015) [FLAC] {5CD box}\CD5\20 - Yeh, Yeh (German version) (stereo).wav
Peak level 99.2 %
Extraction speed 2.5 X
Track quality 99.9 %
Test CRC 3B0D027F
Copy CRC 3B0D027F
Accurately ripped (confidence 1) [5B26A8FC] (AR v2)
Copy OK
All tracks accurately ripped
No errors occurred
End of status report
==== Log checksum 08915A0B686CED5A305D3C603D5B00AF2AF43841A9DD5D354F2879CFAA2AF945 ====
 
Содержание индексной карты (.CUE)
REM GENRE R&B
REM DATE 2015
REM DISCID 040E8914
REM COMMENT "ExactAudioCopy v1.0b3"
PERFORMER "Georgie Fame"
TITLE "Bend A Little - Demos, Rarities, B-Sides & Outtakes"
FILE "01 - Money (That's What I Want) (demo) (mono).wav" WAVE
TRACK 01 AUDIO
TITLE "Money (That's What I Want) (demo) (mono)"
PERFORMER "Georgie Fame"
INDEX 01 00:00:00
FILE "02 - Let The Sunshine In (demo) (mono).wav" WAVE
TRACK 02 AUDIO
TITLE "Let The Sunshine In (demo) (mono)"
PERFORMER "Georgie Fame"
INDEX 01 00:00:00
FILE "03 - Lonely Avenue (demo) (mono).wav" WAVE
TRACK 03 AUDIO
TITLE "Lonely Avenue (demo) (mono)"
PERFORMER "Georgie Fame"
INDEX 01 00:00:00
FILE "04 - You're Driving Me Crazy (demo) (mono).wav" WAVE
TRACK 04 AUDIO
TITLE "You're Driving Me Crazy (demo) (mono)"
PERFORMER "Georgie Fame"
INDEX 01 00:00:00
FILE "05 - Kidney Stew (demo) (mono).wav" WAVE
TRACK 05 AUDIO
TITLE "Kidney Stew (demo) (mono)"
PERFORMER "Georgie Fame"
INDEX 01 00:00:00
FILE "06 - Moanin' (mono).wav" WAVE
TRACK 06 AUDIO
TITLE "Moanin' (mono)"
PERFORMER "Georgie Fame"
INDEX 01 00:00:00
FILE "07 - Gimme That Wine (alt) (mono).wav" WAVE
TRACK 07 AUDIO
TITLE "Gimme That Wine (alt) (mono)"
PERFORMER "Georgie Fame"
INDEX 01 00:00:00
FILE "08 - Bend A Little (inst) (stereo).wav" WAVE
TRACK 08 AUDIO
TITLE "Bend A Little (inst) (stereo)"
PERFORMER "Georgie Fame"
INDEX 01 00:00:00
FILE "09 - Saturday Night Fish Fry (stereo).wav" WAVE
TRACK 09 AUDIO
TITLE "Saturday Night Fish Fry (stereo)"
PERFORMER "Georgie Fame"
INDEX 01 00:00:00
FILE "10 - Lil' Darlin' (alt) (stereo).wav" WAVE
TRACK 10 AUDIO
TITLE "Lil' Darlin' (alt) (stereo)"
PERFORMER "Georgie Fame"
INDEX 01 00:00:00
FILE "11 - You're Drving Me Crazy (mono).wav" WAVE
TRACK 11 AUDIO
TITLE "You're Drving Me Crazy (mono)"
PERFORMER "Georgie Fame"
INDEX 01 00:00:00
FILE "12 - Soul Stomp (stereo).wav" WAVE
TRACK 12 AUDIO
TITLE "Soul Stomp (stereo)"
PERFORMER "Georgie Fame"
INDEX 01 00:00:00
FILE "13 - This Is Always (stereo).wav" WAVE
TRACK 13 AUDIO
TITLE "This Is Always (stereo)"
PERFORMER "Georgie Fame"
INDEX 01 00:00:00
FILE "14 - Jelly Jelly (mono).wav" WAVE
TRACK 14 AUDIO
TITLE "Jelly Jelly (mono)"
PERFORMER "Georgie Fame"
INDEX 01 00:00:00
FILE "15 - Black Head Chinaman (stereo).wav" WAVE
TRACK 15 AUDIO
TITLE "Black Head Chinaman (stereo)"
PERFORMER "Georgie Fame"
INDEX 01 00:00:00
FILE "16 - Incense (mono).wav" WAVE
TRACK 16 AUDIO
TITLE "Incense (mono)"
PERFORMER "Georgie Fame"
INDEX 01 00:00:00
FILE "17 - Tan Tan's Tune (mono).wav" WAVE
TRACK 17 AUDIO
TITLE "Tan Tan's Tune (mono)"
PERFORMER "Georgie Fame"
INDEX 01 00:00:00
FILE "18 - Red Number Nine (stereo).wav" WAVE
TRACK 18 AUDIO
TITLE "Red Number Nine (stereo)"
PERFORMER "Georgie Fame"
INDEX 01 00:00:00
FILE "19 - Humpty Dumpty (German version) (stereo).wav" WAVE
TRACK 19 AUDIO
TITLE "Humpty Dumpty (German version) (stereo)"
PERFORMER "Georgie Fame"
INDEX 01 00:00:00
FILE "20 - Yeh, Yeh (German version) (stereo).wav" WAVE
TRACK 20 AUDIO
TITLE "Yeh, Yeh (German version) (stereo)"
PERFORMER "Georgie Fame"
INDEX 01 00:00:00
 
 
Подробный треклист
Tracklist:
Disc 1 - "Rhythm And Blues At The Flamingo" (78:51 minutes, 23 tracks):
1. Night Train
2. Let The Good Times Roll
3. Do The Dog
4. Eso Beso
5. Work Song
6. Parchman Farm [Side 2]
7. You Can't Sit Down
8. Humpty Dumpty
9. Shop Around
10. Baby, Please Don't Go
Tracks 1 to 10 are his debut album "Rhythm And Blues At The Flamingo" – released January 1964 in the UK on Columbia 33SX 1599 in Mono only. It failed to chart and produced one British 7" single in January 1964 - "Do The Dog" b/w "Shop Around" on Columbia DB 7193 (tracks 3 and 9) which also failed to chart. The album was recorded 'live' in September 1963 and Produced by Ian Samwell with Glyn Johns as the Engineer. MONO Mix on CD.
BONUS TRACKS:
11. Parker's Mood
12. Money (That's What I Want)
Tracks 11 and 12 are outtakes from the Mono LP sessions that first turned up in 2006 on the Japanese CD Reissue of the album on Polydor UIJY-93169
13. Molasses
Track 13 is a Previously Unreleased Stereo outtake from the LP sessions
14. Night Train
15. Bright Lights, Big City
16. Walking The Dog
17. Do-Re-Mi
18. Let The Sunshine In
19. You're Breaking My Heart
Tracks 14 to 19 were recorded by the BBC at the Camden Theatre in London in March 1964 in Stereo and first broadcast 5 September 1964 – they are previously unreleased on CD
20. Sister Sadie
21. Pig Foots
22. Funky Mama
23. Signifying Monkey
Tracks 20 to 23 were recorded live at The Blue Moon in Hayes, Middlesex in December 1964 (Mono Bootleg) and are Previously Unreleased.
Disc 2 – "Fame At Last" (59:43 minutes, 21 tracks):
1. Get On The Right Track, Baby
2. Let The Sunshine In
3. The Monkey Time
4. All About My Girl
5. Point Of No Return
6. Gimme That Wine
7. Pink Champagne [Side 2]
8. Monkeying Around
9. Pride And Joy
10. Green Onions
11. I Love The Life I Live
12. I'm In The Mood For Love (Moody's Mood For Love)
Tracks 1 to 12 are his 2nd album "Fame At Last" – released October 1964 in the UK on Columbia 33SX 1638 in Mono Only (peaked at 15 on the UK charts). Reissued in November 1969 on Starline SRS 5002 in Stereo – the Stereo Mix is used for this CD as is the word STEREO on the card repro sleeve.
BONUS TRACKS:
13. Do-Re-Mi
Track 13 is a non-album Mono B-side to "Green Onions" – a UK 7” single released April 1964 on Columbia DB 7255
14. I'm In Love With You
15. Bend A Little
Tracks 14 and 15 are the Mono A and B-sides to a July 1964 Promo-Only UK 7" single on Columbia DB 7328
16. Madness
17. Tom Hark Goes Blue Beat
18. Humpty Dumpty
19. One Whole Year, Baby
Tracks 16 to 19 are the 4-track "Rhythm And Blue Beat" UK 7" EP released May 1964 on Columbia SEG 8334 in Stereo
20. Yeh, Yeh
21. Preach And Teach
Tracks 20 and 21 are the Stereo A and B-sides of a December 1964 UK 7" single on Columbia DB 7428. It was also issued in the USA in January 1965 on Imperial 66086 - a No. 1 in the UK - it peaked at No. 21 in the USA.
The 12-track "Fame At Last" LP became his first US album release in December 1964 on Imperial LP 12282 in Stereo but was credited as "Yeh Yeh" (after the hit single) and featured a rejiggered track list with omissions and additions. Using the following track numbers on Disc 2 - this box set will allow fans to sequence that album as follows...
Side 1:
1. Let The Sunshine In (2)
2. Yeh Yeh (20)
3. Get On The Right Track, Baby (1)
4. The Monkey Time (3)
5. Preach And Teach (21)
6. Gimme That Wine (6)
Side 2:
1. I'm In The Mood For Love (12)
2. Pride And Joy (9)
3. I Love The Life I Live (11)
4. Point Of No Return (5)
5. Monkeying Around (8)
6. Pink Champagne (7)
Disc 3 – "Sweet Things" (61:39 minutes, 21 Tracks):
1. Sweet Thing
2. See Saw
3. Ride Your Pony
4. Funny How Time Slips Away
5. Sitting In The Park
6. Dr. Kitch
7. My Girl [Side 2]
8. Music Talk
9. The In Crowd
10. The World Is Round
11. The Whole World's Shaking
12. Last Night
Tracks 1 to 12 are the Mono album "Sweet Things" – released May 1966 in the UK on Columbia SX 6043 (peaked at No. 6 on the LP charts). MONO Mix on CD.
BONUS TRACKS:
13. In The Meantime
14. Telegram
Tracks 13 and 14 are the non-album Mono A and B-sides to a February 1965 UK 7" single on Columbia DB 7494 – peaked at 22
15. No, No (The River)
16. Blue Monday
17. So Long
18. Sick And Tired
Tracks 15 to 18 are the 4-track "Fats For Fame" UK 7" EP released May 1965 on Columbia SEG 8406 in Stereo
19. Like We Used To Be
20. It Ain’t Right
Tracks 19 and 20 are the non-album A&B-sides of a July 1965 UK 7" single on Columbia DB 7633 (the A is Mono, the B is Stereo) – peaked at No. 33 on the charts
21. Something
Track 21 is the non-album Mono A-side of an October 1965 UK 7" single on Columbia DB 7727 (its non-album B-side "Outrage" is Track 13 on Disc 4) – peaked at No. 23 on the charts
His 2nd American LP "Get Away" was issued 1966 in Mono only on Imperial LP 9331 and can be sequenced from Discs 3 and 4 using the following tracks...
Side 1:
1. Get Away (track 18, disc 4)
2. Sweet Thing (track 1, disc 3)
3. Ride Your Pony (track 3, disc 3)
4. Funny How Time Slips Away (track 4, disc 3)
5. Sitting In The Park (track 5, disc 3)
6. See Saw (track 2, disc 3)
Side 2:
1. Music Talk (track 8, disc 3)
2. Last Night (track 12, disc 3)
3. It's Got The Whole World Shakin' (track 11, disc 3)
4. El Bandido (track 19, disc 4)
5. The World Is Round (track 10, disc 3)
6. The "In" Crowd (track 9, disc 3)
Disc 4 – "Sound Venture" (59:41 minutes, 21 tracks):
1. Many Happy Returns
2. Down For The Count
3. It's For Love The Petals Fall
4. I Am Missing You
5. Funny How Time Slips Away
6. Lil' Pony
7. Lovey Dovey [Side 2]
8. Lil' Darlin'
9. Three Blind Mice
10. Dawn Yawn
11. Feed Me
12. Papa's Got A Brand New Bag
Tracks 1 to 12 are the Mono album "Sound Venture" – released October 1966 in the UK on Columbia SX 6076 (peaked at No. 9 on the LP charts).
BONUS TRACKS:
13. Outrage
Track 13 is the non-album Mono B-side of an October 1965 UK 7" single on Columbia DB 7727 (its non-album A-side "Something" is Track 21 on Disc 3)
14. Move It On Over
15. Walking The Dog
16. High Heel Sneakers
17. Rockin' Pneumonia And The Boogie Woogie Flu
Tracks 14 to 17 are the 4-track "Move It On Over" UK 7" EP released November 1965 on Columbia SEG 8454 in Stereo
18. Get Away
19. El Bandido
Tracks 18 and 19 are the non-album Mono A&B-sides of a June 1966 UK 7" single on Columbia DB 7946 (peaked at No. 1 on the charts)
20. Sunny
21. Don't Make Promises
Tracks 20 and 21 are the non-album Mono A&B-sides of a September 1966 UK 7" single on Columbia DB 8015 (peaked at No. 13 on the charts)
Disc 5 – "Bend A Little: Demos, Rarities, B-Sides & Outtakes" (62:01 minutes, 20 tracks):
1. Money (That’s What I Want (IBC Version)
2. Let The Sunshine in (IBC Version)
3. Lonely Avenue (IBC Version)
4. You're Driving Me Crazy (IBC Version)
5. Kidney Stew (IBC Version)
Tracks 1 to 5 are Mono Demos recorded in 1963 at the IBC Studios by Glyn Johns – Previously Unreleased
6. Moanin' – Mono, Previously Unreleased
7. Gimme That Wine (Alternate Version) – Mono, Previously Unreleased
8. Bend A Little – Stereo Instrumental, Previously Unreleased
9. Saturday Night Fish Fry – Stereo cover of a Louis Jordan song, Previously Unreleased
10. Lil Darlin' (Alternate Version) – Stereo, Previously Unreleased
11. You’re Driving Me Crazy (Alternate Version) – Lou Donaldson cover, Previously Unreleased
12. Soul Stomp – Earl Van Dyke cover in Stereo
13. This Is Always – Stereo
14. Jelly Jelly – Billy Eckstein cover in Mono
15. Black Head Chinaman – Prince Buster cover in Stereo
16. Incense – Instrumental Backing Track in Mono – Previously Unreleased
17. Tan Tan's Tune – an Eddie Thornton cover in Stereo
18. Red Number Nine – A Tony Colton song in Stereo
19. Humpty Dumpty (German Version)
20. Yeah, Yeh, Yeh (German Version)
Georgie Fame is a seminal figure in British popular music who helped to introduce the sounds of rhythm and blues, jazz, soul, ska and other ‘black’ music styles to a UK audience in the 1960s.Remastered at Abbey Road under the supervision of Georgie’s son and touring guitarist, Tristan Powell, this new 5 disc box-set will feature Georgie’s first 4 seminal Columbia LPs plus 60 bonus tracks: singles, b-sides, rarities, BBC sessions, bootlegs and 18 previously unreleased cuts, plus a 48-page booklet, five post cards and a 187mm x 137mm poster of a rare photo of Georgie and Mick Jagger backstage in 1964.
Приватный:
Нет (DHT включён)
Размер:
1.32 Гб (1,419,877,715 байт) » файлов: 131
Участники:
0 раздают, 0 качают (0 участников всего)
Внешние участники:
5 раздают, 1 качают (6 участников всего) [ Обновить ]
Есть вопросы - пишите личное сообщение пользователю M0p94ok.
09:05
65
Нет комментариев. Ваш будет первым!