Поиск

(R&B, Brass Band, Funk, Covers) [EP] Brassroots ‎ - Brassroots ‎ - 2009, FLAC (tracks+.cue), lossless

Треклист:
Brassroots ‎ / Brassroots ‎
Жанр: R&B, Brass Band, Funk, Covers
Носитель: EP
Год издания: 2009
Издатель (лейбл): Do Right! Music ‎
Страна исполнителя (группы): UK
Аудиокодек: FLAC (*.flac)
Тип рипа: tracks+.cue
Битрейт аудио: lossless
Продолжительность: 00:28:46
Источник (релизер): wwwil
Наличие сканов в содержимом раздачи: нет
Треклист:
1. Seven Nation Army
2. Gemini Rising
3. Occupation
4. Liberian Girl
5. Good Life
6. Karma Police
7. Misirlou
Симпатичные каверы известных тем.
 
Лог создания рипа
Exact Audio Copy V1.0 beta 3 from 29. August 2011
EAC extraction logfile from 2. October 2013, 1:58
Brassroots / Brassroots
Used drive : MATSHITADVD-RAM UJ8B0 Adapter: 1 ID: 0
Read mode : Secure
Utilize accurate stream : Yes
Defeat audio cache : Yes
Make use of C2 pointers : No
Read offset correction : 102
Overread into Lead-In and Lead-Out : No
Fill up missing offset samples with silence : Yes
Delete leading and trailing silent blocks : No
Null samples used in CRC calculations : Yes
Used interface : Native Win32 interface for Win NT & 2000
Gap handling : Appended to previous track
Used output format : User Defined Encoder
Selected bitrate : 1024 kBit/s
Quality : High
Add ID3 tag : No
Command line compressor : C:\Program Files (x86)\Exact Audio Copy\FLAC\FLAC.EXE
Additional command line options : -6 -V -T "ARTIST=%artist%" -T "TITLE=%title%" -T "ALBUM=%albumtitle%" -T "DATE=%year%" -T "TRACKNUMBER=%tracknr%" -T "GENRE=%genre%" -T "COMMENT=%comment%" -T "BAND=%albuminterpret%" -T "ALBUMARTIST=%albuminterpret%" -T "COMPOSER=%composer%" %haslyrics%--tag-from-file=LYRICS="%lyricsfile%"%haslyrics% -T "DISCNUMBER=%cdnumber%" -T "TOTALDISCS=%totalcds%" -T "TOTALTRACKS=%numtracks%" %hascover%--picture="%coverfile%"%hascover% %source% -o %dest%
TOC of the extracted CD
Track | Start | Length | Start sector | End sector
---------------------------------------------------------
1 | 0:00.00 | 3:56.00 | 0 | 17699
2 | 3:56.00 | 3:43.19 | 17700 | 34443
3 | 7:39.19 | 3:57.68 | 34444 | 52286
4 | 11:37.12 | 5:04.00 | 52287 | 75086
5 | 16:41.12 | 4:00.61 | 75087 | 93147
6 | 20:41.73 | 4:43.38 | 93148 | 114410
7 | 25:25.36 | 3:21.00 | 114411 | 129485
Track 1
Filename C:\EAC Rips\Brassroots - Brassroots (2010) [CD FLAC]\01. Brassroots - Good Life.wav
Pre-gap length 0:00:02.00
Peak level 100.0 %
Extraction speed 1.5 X
Track quality 100.0 %
Test CRC BE697764
Copy CRC BE697764
Accurately ripped (confidence 1) [5A971406] (AR v2)
Copy OK
Track 2
Filename C:\EAC Rips\Brassroots - Brassroots (2010) [CD FLAC]\02. Brassroots - Gemini Rising.wav
Peak level 100.0 %
Extraction speed 1.6 X
Track quality 100.0 %
Test CRC 4883ADC0
Copy CRC 4883ADC0
Accurately ripped (confidence 1) [CE3B61B4] (AR v2)
Copy OK
Track 3
Filename C:\EAC Rips\Brassroots - Brassroots (2010) [CD FLAC]\03. Brassroots - Occupation.wav
Peak level 98.8 %
Extraction speed 1.8 X
Track quality 100.0 %
Test CRC 45F9AF28
Copy CRC 45F9AF28
Accurately ripped (confidence 1) [111B2F65] (AR v2)
Copy OK
Track 4
Filename C:\EAC Rips\Brassroots - Brassroots (2010) [CD FLAC]\04. Brassroots - Liberian Girl.wav
Peak level 98.8 %
Extraction speed 2.0 X
Track quality 100.0 %
Test CRC 76F79DCA
Copy CRC 76F79DCA
Accurately ripped (confidence 1) [B4CF17FC] (AR v2)
Copy OK
Track 5
Filename C:\EAC Rips\Brassroots - Brassroots (2010) [CD FLAC]\05. Brassroots - Seven Nation Army.wav
Peak level 100.0 %
Extraction speed 2.0 X
Track quality 100.0 %
Test CRC 8521AB45
Copy CRC 8521AB45
Accurately ripped (confidence 1) [BE2B228E] (AR v2)
Copy OK
Track 6
Filename C:\EAC Rips\Brassroots - Brassroots (2010) [CD FLAC]\06. Brassroots - Karma Police.wav
Peak level 98.8 %
Extraction speed 2.0 X
Track quality 99.9 %
Test CRC FB5EE477
Copy CRC FB5EE477
Accurately ripped (confidence 1) [E140549F] (AR v2)
Copy OK
Track 7
Filename C:\EAC Rips\Brassroots - Brassroots (2010) [CD FLAC]\07. Brassroots - Misirlou.wav
Peak level 98.8 %
Extraction speed 2.2 X
Track quality 100.0 %
Test CRC 4A8A27F4
Copy CRC 4A8A27F4
Accurately ripped (confidence 1) [80829075] (AR v2)
Copy OK
All tracks accurately ripped
No errors occurred
End of status report
==== Log checksum 6618A3CE96631B5E9066485B4B4EBF30F7F8BC29C229F036EAB8681E9E09578E ====
 
Содержание индексной карты (.CUE)
REM GENRE Other
REM DATE 2010
REM DISCID 4F06BE07
REM COMMENT "ExactAudioCopy v1.0b3"
PERFORMER "Brassroots"
TITLE "Brassroots"
FILE "01. Brassroots - Good Life.wav" WAVE
TRACK 01 AUDIO
TITLE "Good Life"
PERFORMER "Brassroots"
INDEX 01 00:00:00
FILE "02. Brassroots - Gemini Rising.wav" WAVE
TRACK 02 AUDIO
TITLE "Gemini Rising"
PERFORMER "Brassroots"
INDEX 01 00:00:00
FILE "03. Brassroots - Occupation.wav" WAVE
TRACK 03 AUDIO
TITLE "Occupation"
PERFORMER "Brassroots"
INDEX 01 00:00:00
FILE "04. Brassroots - Liberian Girl.wav" WAVE
TRACK 04 AUDIO
TITLE "Liberian Girl"
PERFORMER "Brassroots"
INDEX 01 00:00:00
FILE "05. Brassroots - Seven Nation Army.wav" WAVE
TRACK 05 AUDIO
TITLE "Seven Nation Army"
PERFORMER "Brassroots"
INDEX 01 00:00:00
FILE "06. Brassroots - Karma Police.wav" WAVE
TRACK 06 AUDIO
TITLE "Karma Police"
PERFORMER "Brassroots"
INDEX 01 00:00:00
FILE "07. Brassroots - Misirlou.wav" WAVE
TRACK 07 AUDIO
TITLE "Misirlou"
PERFORMER "Brassroots"
INDEX 01 00:00:00
 
Об исполнителе (группе)
[url=http://www.brassrootsmusic.co.uk/info][brassrootsmusic.co.uk/url]
 
Состав
Percussion – Craig Boorman, Graham Fox
Saxophone – Charly Richardson
Trombone – Jerome Harper, Thom Wooley
Trumpet – Achilleas Anastasolpulos, Charlie Schuttler
Tuba – David Aird
Приватный:
Нет (DHT включён)
Размер:
180.60 Мб (189,373,930 байт) » файлов: 11
Участники:
0 раздают, 0 качают (0 участников всего)
Внешние участники:
2 раздают, 1 качают (3 участников всего) [ Обновить ]
Есть вопросы - пишите личное сообщение пользователю M0p94ok.
07:33
53
Нет комментариев. Ваш будет первым!