Поиск

(Motown / Blue-Eyed Soul) [CD] Remy Shand - The Way I Feel - 2001, FLAC (image+.cue), lossless

(Motown / Blue-Eyed Soul) [CD] Remy Shand - The Way I Feel - 2001, FLAC (image+.cue), lossless
Треклист:
Remy Shand — The Way I Feel
Жанр: Motown / Blue-Eyed Soul
Носитель: CD
Страна-производитель диска (релиза): EU
Год издания: 2001
Издатель (лейбл): Motown
Номер по каталогу: 014 481-2
Страна исполнителя (группы): Canada
Аудиокодек: FLAC (*.flac)
Тип рипа: image+.cue
Битрейт аудио: lossless
Продолжительность: 47:21
Источник (релизер): Од'Родр Рип
Наличие сканов в содержимом раздачи: да
Треклист:
01. The Way I Feel 05:02
02. Burning Bridges 04:35
03. Everlasting 04:22
04. The Second One 04:11
05. The Colour of Day 03:36
06. Take A Message 04:04
07. I Met Your Mercy 02:44
08. Rocksteady 03:39
09. Liberate 03:56
10. Looking Back On Vanity 05:01
11. The Mind's Eye 06:12
 
Лог создания рипа
Exact Audio Copy V1.0 beta 3 from 29. August 2011
Отчёт EAC об извлечении, выполненном 13. августа 2015, 14:53
Remy Shand / The Way I Feel
Дисковод: Optiarc DVD RW AD-7203S Adapter: 3 ID: 1
Режим чтения : Достоверность
Использование точного потока : Да
Отключение кэша аудио : Да
Использование указателей C2 : Нет
Коррекция смещения при чтении : 48
Способность читать области Lead-in и Lead-out : Нет
Заполнение пропущенных сэмплов тишиной : Да
Удаление блоков с тишиной в начале и конце : Нет
При вычислениях CRC использовались нулевые сэмплы : Да
Интерфейс : Встроенный Win32-интерфейс для Win NT/2000
Выходной формат : Пользовательский кодировщик
Выбранный битрейт : 128 kBit/s
Качество : Высокий
Добавление ID3-тега : Нет
Утилита сжатия : C:\Program Files\Exact Audio Copy\Flac\flac.exe
Дополнительные параметры : -V -8 -T "Date=%year%" -T "Genre=%genre%" %source%
TOC извлечённого CD
Трек | Старт | Длительность | Начальный сектор | Конечный сектор
---------------------------------------------------------------------
1 | 0:00.00 | 5:01.72 | 0 | 22646
2 | 5:01.72 | 4:35.31 | 22647 | 43302
3 | 9:37.28 | 4:21.70 | 43303 | 62947
4 | 13:59.23 | 4:10.72 | 62948 | 81769
5 | 18:10.20 | 3:35.60 | 81770 | 97954
6 | 21:46.05 | 4:03.65 | 97955 | 116244
7 | 25:49.70 | 2:43.43 | 116245 | 128512
8 | 28:33.38 | 3:39.10 | 128513 | 144947
9 | 32:12.48 | 3:56.30 | 144948 | 162677
10 | 36:09.03 | 5:00.65 | 162678 | 185242
11 | 41:09.68 | 6:11.62 | 185243 | 213129
Характеристики диапазона извлечения и сообщения об ошибках
Выбранный диапазон
Имя файла F:\EAC\Remy Shand - The Way I Feel\Remy Shand - The Way I Feel\Remy Shand - The Way I Feel.wav
Пиковый уровень 99.8 %
Скорость извлечения 3.8 X
Качество диапазона 100.0 %
CRC теста BF52ECB3
CRC копии BF52ECB3
Копирование... OK
Ошибок не произошло
AccurateRip: сводка
Трек 1 : извлечено точно (доверие 40) [C8E57DC4] (AR v2)
Трек 2 : извлечено точно (доверие 40) [25480FFE] (AR v2)
Трек 3 : извлечено точно (доверие 40) [B427B56B] (AR v2)
Трек 4 : извлечено точно (доверие 40) [19A9A158] (AR v2)
Трек 5 : извлечено точно (доверие 40) [50405F8C] (AR v2)
Трек 6 : извлечено точно (доверие 39) [104B24F9] (AR v2)
Трек 7 : извлечено точно (доверие 40) [1699192C] (AR v2)
Трек 8 : извлечено точно (доверие 40) [34117F63] (AR v2)
Трек 9 : извлечено точно (доверие 38) [5B2718C6] (AR v2)
Трек 10 : извлечено точно (доверие 40) [A0470337] (AR v2)
Трек 11 : извлечено точно (доверие 40) [B828E18F] (AR v2)
Все треки извлечены точно
Конец отчёта
==== Контрольная сумма отчёта DD4D655C53D7AC95F3A6C8395DFDDE2273A1E76D68614AF7CEBB6BEA1D9AFFC3 ====
 
Содержание индексной карты (.CUE)
REM GENRE R&B
REM DATE 2002
REM DISCID 860B190B
REM COMMENT "ExactAudioCopy v1.0b3"
PERFORMER "Remy Shand"
TITLE "The Way I Feel"
FILE "Remy Shand - The Way I Feel.flac" WAVE
TRACK 01 AUDIO
TITLE "The Way I Feel"
PERFORMER "Remy Shand"
INDEX 01 00:00:00
TRACK 02 AUDIO
TITLE "Burning Bridges"
PERFORMER "Remy Shand"
INDEX 01 05:01:72
TRACK 03 AUDIO
TITLE "Everlasting"
PERFORMER "Remy Shand"
INDEX 01 09:37:28
TRACK 04 AUDIO
TITLE "The Second One"
PERFORMER "Remy Shand"
INDEX 01 13:59:23
TRACK 05 AUDIO
TITLE "The Colour of Day"
PERFORMER "Remy Shand"
INDEX 00 18:08:27
INDEX 01 18:10:20
TRACK 06 AUDIO
TITLE "Take A Message"
PERFORMER "Remy Shand"
INDEX 01 21:46:05
TRACK 07 AUDIO
TITLE "I Met Your Mercy"
PERFORMER "Remy Shand"
INDEX 01 25:49:70
TRACK 08 AUDIO
TITLE "Rocksteady"
PERFORMER "Remy Shand"
INDEX 01 28:33:38
TRACK 09 AUDIO
TITLE "Liberate"
PERFORMER "Remy Shand"
INDEX 00 32:10:05
INDEX 01 32:12:48
TRACK 10 AUDIO
TITLE "Looking Back On Vanity"
PERFORMER "Remy Shand"
INDEX 01 36:09:03
TRACK 11 AUDIO
TITLE "The Mind's Eye"
PERFORMER "Remy Shand"
INDEX 00 41:07:30
INDEX 01 41:09:68
 
Об альбоме (сборнике)
The problem with neo-soul is that its advocates are quick to celebrate artists that capture the merest essence of the form -- elements that are clearly reminiscent of Stevie, Curtis, Sly, Marvin, even Prince -- without caring whether the songs themselves are all that memorable. Usually, what matters is the feel and the mannerisms, as evidenced by D'Angelo's praised, mannered second album. Even acclaimed artists like Alicia Keys are praised for what they could be as much as for what they are. This is the background that makes Remy Shand's debut album, The Way I Feel, such a surprise. By all accounts, Shand should not be a musician that gets it right -- he's a clean, white, middle-class twentysomething, raised on records that were made well before his birth. Sometimes, this background is evident in the production, when he and co-executive producer Steve Warden rely on sounds that evoke classic early-'70s soul, or in Shand's slightly affected falsetto, but those are exceptions to the rule on The Way I Feel, because the album's foundation is built on classic songwriting -- sturdy, tuneful songs that are deceptively simple in their structure but reveal their strength through repeated listens. They're winning upon the first listen, since they have a sweet, sultry feel delivered smoothly and assuredly, but so does most neo-soul -- it's the repeated plays that reveal that the songs themselves are the most seductive thing about the album, not the lush, post-Philly soul production, or the fact that Remy Shand played nearly every instrument on this record. Yes, he's indebted to his idols, but no more than the Strokes are to theirs -- and this is the romantic soul flip side of Is This It's invigorating slice of traditionalism, which means even if you've heard and loved music like this before, you'll soon be swayed by the sound, skill, and sheer joy of this debut, one of the very best of its kind.
AMG
Приватный:
Нет (DHT включён)
Размер:
326.40 Мб (342,259,664 байт) » файлов: 11
Участники:
0 раздают, 0 качают (0 участников всего)
Внешние участники:
2 раздают, 1 качают (3 участников всего) [ Обновить ]
Есть вопросы - пишите личное сообщение пользователю M0p94ok.
07:34
84
Нет комментариев. Ваш будет первым!