Поиск

(R&B, Soul, Doo Wop) [CD] The Dells - Anthology (2CD) - 1999, FLAC (tracks+.cue), lossless

(R&B, Soul, Doo Wop) [CD] The Dells - Anthology (2CD) - 1999, FLAC (tracks+.cue), lossless
Треклист:
The Dells - Anthology

Жанр: R&B, Soul, Doo Wop | Носитель: CD | Год издания: 1999
Издатель (лейбл): Hip-O Records/Universal | Номер по каталогу: CD MP D3811a
Аудиокодек: FLAC (*.flac) | Тип рипа: tracks+.cue | Битрейт аудио: lossless
Продолжительность: 74:58 / 68:51 | Источник (релизер): ruskaval
Наличие сканов в содержимом раздачи: да 
 
 
CD 1
Треклист:
01. Darling I Know (2:30)
02. Dreams of Contentment (3:04)
03. Oh, What a Night [Vee-Jay Version] (2:56)
04. Pains in My Heart (3:08)
05. The (Bossa Nova) Bird (2:50)
06. Stay in My Corner [Vee-Jay Version] (2:55)
07. O-O I Love You (3:21)
08. There Is (3:34)
09. Wear It on Our Face (3:25)
10. Love Is So Simple (2:46)
11. Stay in My Corner [Cadet Version] (6:13)
12. Always Together (3:06)
13. Does Anybody Know I'm Here (3:19)
14. I Can't Do Enough (3:36)
15. I Can Sing a Rainbow - Love Is Blue (3:26)
16. Oh, What a Night [Cadet Version] (4:06)
17. Open Up My Heart [Long Version] (6:34)
18. Long Lonely Nights (2:32)
19. Oh, What a Day (2:50)
20. The Love We Had (Stays On My Mind) (4:52)
21. The Glory of Love (3:54)
 
 
Лог создания рипа
X Lossless Decoder version 20130407 (143.0)
XLD extraction logfile from 2015-02-08 15:52:46 -0800
Dells / Anthology Disc1
Used drive : HL-DT-ST DVDRW GA32N (revision KE06)
Media type : Pressed CD
Ripper mode : XLD Secure Ripper
Disable audio cache : OK for the drive with a cache less than 1375KiB
Make use of C2 pointers : NO
Read offset correction : 103
Max retry count : 100
Gap status : Analyzed, Appended (except HTOA)
TOC of the extracted CD
Track | Start | Length | Start sector | End sector
---------------------------------------------------------
1 | 00:00:00 | 02:30:30 | 0 | 11279
2 | 02:30:30 | 03:04:27 | 11280 | 25106
3 | 05:34:57 | 02:56:35 | 25107 | 38341
4 | 08:31:17 | 03:07:55 | 38342 | 52421
5 | 11:38:72 | 02:50:00 | 52422 | 65171
6 | 14:28:72 | 02:55:10 | 65172 | 78306
7 | 17:24:07 | 03:21:20 | 78307 | 93401
8 | 20:45:27 | 03:33:48 | 93402 | 109424
9 | 24:19:00 | 03:25:15 | 109425 | 124814
10 | 27:44:15 | 02:45:67 | 124815 | 137256
11 | 30:30:07 | 06:13:00 | 137257 | 165231
12 | 36:43:07 | 03:05:63 | 165232 | 179169
13 | 39:48:70 | 03:19:25 | 179170 | 194119
14 | 43:08:20 | 03:35:45 | 194120 | 210289
15 | 46:43:65 | 03:25:65 | 210290 | 225729
16 | 50:09:55 | 04:06:22 | 225730 | 244201
17 | 54:16:02 | 06:33:70 | 244202 | 273746
18 | 60:49:72 | 02:31:60 | 273747 | 285131
19 | 63:21:57 | 02:49:70 | 285132 | 297876
20 | 66:11:52 | 04:52:00 | 297877 | 319776
21 | 71:03:52 | 03:54:25 | 319777 | 337351
List of alternate offset correction values
# | Absolute | Relative | Confidence
------------------------------------------
1 | 113 | 10 | 5
AccurateRip Summary (DiscID: 0034eb7e-033cffa4-0d119215)
Track 01 : OK (v2, confidence 2/7)
Track 02 : OK (v2, confidence 2/7)
Track 03 : OK (v2, confidence 2/7)
Track 04 : OK (v2, confidence 2/7)
Track 05 : OK (v2, confidence 2/7)
Track 06 : OK (v2, confidence 2/7)
Track 07 : OK (v2, confidence 2/7)
Track 08 : OK (v2, confidence 2/7)
Track 09 : OK (v2, confidence 2/7)
Track 10 : OK (v2, confidence 2/7)
Track 11 : OK (v1+v2, confidence 5/5, with different offset)
Track 12 : OK (v2, confidence 2/7)
Track 13 : OK (v2, confidence 2/7)
Track 14 : OK (v2, confidence 2/7)
Track 15 : OK (v2, confidence 2/7)
Track 16 : OK (v2, confidence 2/7)
Track 17 : OK (v2, confidence 2/7)
Track 18 : OK (v2, confidence 2/7)
Track 19 : OK (v2, confidence 2/7)
Track 20 : OK (v2, confidence 2/7)
Track 21 : OK (v2, confidence 2/7)
->All tracks accurately ripped.
All Tracks
Album gain : -6.94 dB
Peak : 0.998901
Statistics
Read error : 0
Jitter error (maybe fixed) : 0
Retry sector count : 0
Damaged sector count : 0
Track 01
Filename : /Volumes/OWC Mercury Elite Pro - #2/Needs something/ Music/The Dells - Anthology (1999) [FLAC] {Hip-O 2cd set}/CD1/01 - Darling I Know.flac
Pre-gap length : 00:02:00
Track gain : -6.87 dB
Peak : 0.998871
CRC32 hash (test run) : 7B5A856F
CRC32 hash : 7B5A856F
CRC32 hash (skip zero) : 675D9FD8
AccurateRip v1 signature : DF086ECD
AccurateRip v2 signature : 1BEE69A5
->Accurately ripped (v2, confidence 2/7)
Statistics
Read error : 0
Jitter error (maybe fixed) : 0
Retry sector count : 0
Damaged sector count : 0
Track 02
Filename : /Volumes/OWC Mercury Elite Pro - #2/Needs something/ Music/The Dells - Anthology (1999) [FLAC] {Hip-O 2cd set}/CD1/02 - Dreams of Contentment.flac
Pre-gap length : 00:02:63
Track gain : -8.29 dB
Peak : 0.998901
CRC32 hash (test run) : F78B1EE0
CRC32 hash : F78B1EE0
CRC32 hash (skip zero) : 8DEF8FC9
AccurateRip v1 signature : 0EB110C4
AccurateRip v2 signature : E90664DF
->Accurately ripped (v2, confidence 2/7)
Statistics
Read error : 0
Jitter error (maybe fixed) : 0
Retry sector count : 0
Damaged sector count : 0
Track 03
Filename : /Volumes/OWC Mercury Elite Pro - #2/Needs something/ Music/The Dells - Anthology (1999) [FLAC] {Hip-O 2cd set}/CD1/03 - Oh, What a Night [Vee-Jay Version].flac
Pre-gap length : 00:02:62
Track gain : -8.15 dB
Peak : 0.998871
CRC32 hash (test run) : 840C3822
CRC32 hash : 840C3822
CRC32 hash (skip zero) : E6FD3939
AccurateRip v1 signature : 5C9F603F
AccurateRip v2 signature : 62BE370D
->Accurately ripped (v2, confidence 2/7)
Statistics
Read error : 0
Jitter error (maybe fixed) : 0
Retry sector count : 0
Damaged sector count : 0
Track 04
Filename : /Volumes/OWC Mercury Elite Pro - #2/Needs something/ Music/The Dells - Anthology (1999) [FLAC] {Hip-O 2cd set}/CD1/04 - Pains in My Heart.flac
Pre-gap length : 00:02:62
Track gain : -7.10 dB
Peak : 0.995270
CRC32 hash (test run) : BE6F9EFD
CRC32 hash : BE6F9EFD
CRC32 hash (skip zero) : 37E1CC44
AccurateRip v1 signature : 8598B776
AccurateRip v2 signature : B8234FB6
->Accurately ripped (v2, confidence 2/7)
Statistics
Read error : 0
Jitter error (maybe fixed) : 0
Retry sector count : 0
Damaged sector count : 0
Track 05
Filename : /Volumes/OWC Mercury Elite Pro - #2/Needs something/ Music/The Dells - Anthology (1999) [FLAC] {Hip-O 2cd set}/CD1/05 - The (Bossa Nova) Bird.flac
Pre-gap length : 00:02:62
Track gain : -6.42 dB
Peak : 0.912109
CRC32 hash (test run) : 6C35FAF9
CRC32 hash : 6C35FAF9
CRC32 hash (skip zero) : E91A38C9
AccurateRip v1 signature : 1B57886A
AccurateRip v2 signature : 16620AAB
->Accurately ripped (v2, confidence 2/7)
Statistics
Read error : 0
Jitter error (maybe fixed) : 0
Retry sector count : 0
Damaged sector count : 0
Track 06
Filename : /Volumes/OWC Mercury Elite Pro - #2/Needs something/ Music/The Dells - Anthology (1999) [FLAC] {Hip-O 2cd set}/CD1/06 - Stay in My Corner [Vee-Jay Version].flac
Pre-gap length : 00:02:62
Track gain : -5.94 dB
Peak : 0.997650
CRC32 hash (test run) : 08AC71BE
CRC32 hash : 08AC71BE
CRC32 hash (skip zero) : 9A2BA9FE
AccurateRip v1 signature : FC23F0BC
AccurateRip v2 signature : DF363D84
->Accurately ripped (v2, confidence 2/7)
Statistics
Read error : 0
Jitter error (maybe fixed) : 0
Retry sector count : 0
Damaged sector count : 0
Track 07
Filename : /Volumes/OWC Mercury Elite Pro - #2/Needs something/ Music/The Dells - Anthology (1999) [FLAC] {Hip-O 2cd set}/CD1/07 - O-O I Love You.flac
Pre-gap length : 00:02:60
Track gain : -5.99 dB
Peak : 0.961365
CRC32 hash (test run) : DCCFACE6
CRC32 hash : DCCFACE6
CRC32 hash (skip zero) : 03F17A71
AccurateRip v1 signature : 73CE155E
AccurateRip v2 signature : EC5D82D0
->Accurately ripped (v2, confidence 2/7)
Statistics
Read error : 0
Jitter error (maybe fixed) : 0
Retry sector count : 0
Damaged sector count : 0
Track 08
Filename : /Volumes/OWC Mercury Elite Pro - #2/Needs something/ Music/The Dells - Anthology (1999) [FLAC] {Hip-O 2cd set}/CD1/08 - There Is.flac
Pre-gap length : 00:02:62
Track gain : -7.52 dB
Peak : 0.981018
CRC32 hash (test run) : DA0F3318
CRC32 hash : DA0F3318
CRC32 hash (skip zero) : 39E5783E
AccurateRip v1 signature : 9EB11422
AccurateRip v2 signature : 2DCBF5AF
->Accurately ripped (v2, confidence 2/7)
Statistics
Read error : 0
Jitter error (maybe fixed) : 0
Retry sector count : 0
Damaged sector count : 0
Track 09
Filename : /Volumes/OWC Mercury Elite Pro - #2/Needs something/ Music/The Dells - Anthology (1999) [FLAC] {Hip-O 2cd set}/CD1/09 - Wear It on Our Face.flac
Pre-gap length : 00:02:60
Track gain : -6.62 dB
Peak : 0.998840
CRC32 hash (test run) : 292F8D35
CRC32 hash : 292F8D35
CRC32 hash (skip zero) : 91E02CC4
AccurateRip v1 signature : 0C1EAEED
AccurateRip v2 signature : EE9F960D
->Accurately ripped (v2, confidence 2/7)
Statistics
Read error : 0
Jitter error (maybe fixed) : 0
Retry sector count : 0
Damaged sector count : 0
Track 10
Filename : /Volumes/OWC Mercury Elite Pro - #2/Needs something/ Music/The Dells - Anthology (1999) [FLAC] {Hip-O 2cd set}/CD1/10 - Love Is So Simple.flac
Pre-gap length : 00:02:63
Track gain : -5.48 dB
Peak : 0.879364
CRC32 hash (test run) : FD77AA6A
CRC32 hash : FD77AA6A
CRC32 hash (skip zero) : 7FF4F223
AccurateRip v1 signature : 566AE443
AccurateRip v2 signature : 43CDEEBC
->Accurately ripped (v2, confidence 2/7)
Statistics
Read error : 0
Jitter error (maybe fixed) : 0
Retry sector count : 0
Damaged sector count : 0
Track 11
Filename : /Volumes/OWC Mercury Elite Pro - #2/Needs something/ Music/The Dells - Anthology (1999) [FLAC] {Hip-O 2cd set}/CD1/11 - Stay in My Corner [Cadet Version].flac
Pre-gap length : 00:02:62
Track gain : -7.04 dB
Peak : 0.998871
CRC32 hash (test run) : 399D2D0B
CRC32 hash : 399D2D0B
CRC32 hash (skip zero) : 5767A47A
AccurateRip v1 signature : 2561F110 (090B8479 w/correction)
AccurateRip v2 signature : 3263A3A8 (172161B3 w/correction)
->Accurately ripped with different offset (v1+v2, confidence 2+3/5, offset +10)
Statistics
Read error : 0
Jitter error (maybe fixed) : 0
Retry sector count : 0
Damaged sector count : 0
Track 12
Filename : /Volumes/OWC Mercury Elite Pro - #2/Needs something/ Music/The Dells - Anthology (1999) [FLAC] {Hip-O 2cd set}/CD1/12 - Always Together.flac
Pre-gap length : 00:02:62
Track gain : -7.42 dB
Peak : 0.978180
CRC32 hash (test run) : 59884D62
CRC32 hash : 59884D62
CRC32 hash (skip zero) : 3A27A588
AccurateRip v1 signature : 2EFAE743
AccurateRip v2 signature : 5D1C5685
->Accurately ripped (v2, confidence 2/7)
Statistics
Read error : 0
Jitter error (maybe fixed) : 0
Retry sector count : 0
Damaged sector count : 0
Track 13
Filename : /Volumes/OWC Mercury Elite Pro - #2/Needs something/ Music/The Dells - Anthology (1999) [FLAC] {Hip-O 2cd set}/CD1/13 - Does Anybody Know I'm Here.flac
Pre-gap length : 00:02:63
Track gain : -8.20 dB
Peak : 0.998901
CRC32 hash (test run) : FA20D5BA
CRC32 hash : FA20D5BA
CRC32 hash (skip zero) : 5BDBCF68
AccurateRip v1 signature : 610C95A1
AccurateRip v2 signature : 7310464D
->Accurately ripped (v2, confidence 2/7)
Statistics
Read error : 0
Jitter error (maybe fixed) : 0
Retry sector count : 0
Damaged sector count : 0
Track 14
Filename : /Volumes/OWC Mercury Elite Pro - #2/Needs something/ Music/The Dells - Anthology (1999) [FLAC] {Hip-O 2cd set}/CD1/14 - I Can't Do Enough.flac
Pre-gap length : 00:02:63
Track gain : -7.18 dB
Peak : 0.998871
CRC32 hash (test run) : 3B9FD7D1
CRC32 hash : 3B9FD7D1
CRC32 hash (skip zero) : CF94F26D
AccurateRip v1 signature : DAC218C4
AccurateRip v2 signature : 2C3F9150
->Accurately ripped (v2, confidence 2/7)
Statistics
Read error : 0
Jitter error (maybe fixed) : 0
Retry sector count : 0
Damaged sector count : 0
Track 15
Filename : /Volumes/OWC Mercury Elite Pro - #2/Needs something/ Music/The Dells - Anthology (1999) [FLAC] {Hip-O 2cd set}/CD1/15 - I Can Sing a Rainbow - Love Is Blue.flac
Pre-gap length : 00:02:63
Track gain : -6.79 dB
Peak : 0.998871
CRC32 hash (test run) : 3E42B7A4
CRC32 hash : 3E42B7A4
CRC32 hash (skip zero) : 9E5E2F7C
AccurateRip v1 signature : 28F34A5B
AccurateRip v2 signature : DB41B78F
->Accurately ripped (v2, confidence 2/7)
Statistics
Read error : 0
Jitter error (maybe fixed) : 0
Retry sector count : 0
Damaged sector count : 0
Track 16
Filename : /Volumes/OWC Mercury Elite Pro - #2/Needs something/ Music/The Dells - Anthology (1999) [FLAC] {Hip-O 2cd set}/CD1/16 - Oh, What a Night [Cadet Version].flac
Pre-gap length : 00:02:63
Track gain : -7.42 dB
Peak : 0.988129
CRC32 hash (test run) : 1BCF1779
CRC32 hash : 1BCF1779
CRC32 hash (skip zero) : 3EC8BCC3
AccurateRip v1 signature : 24137835
AccurateRip v2 signature : BF9F0FBC
->Accurately ripped (v2, confidence 2/7)
Statistics
Read error : 0
Jitter error (maybe fixed) : 0
Retry sector count : 0
Damaged sector count : 0
Track 17
Filename : /Volumes/OWC Mercury Elite Pro - #2/Needs something/ Music/The Dells - Anthology (1999) [FLAC] {Hip-O 2cd set}/CD1/17 - Open Up My Heart [Long Version].flac
Pre-gap length : 00:02:62
Track gain : -6.11 dB
Peak : 0.992981
CRC32 hash (test run) : 526E2AB8
CRC32 hash : 526E2AB8
CRC32 hash (skip zero) : 7D84E576
AccurateRip v1 signature : 37EABD52
AccurateRip v2 signature : 3811B3B5
->Accurately ripped (v2, confidence 2/7)
Statistics
Read error : 0
Jitter error (maybe fixed) : 0
Retry sector count : 0
Damaged sector count : 0
Track 18
Filename : /Volumes/OWC Mercury Elite Pro - #2/Needs something/ Music/The Dells - Anthology (1999) [FLAC] {Hip-O 2cd set}/CD1/18 - Long Lonely Nights.flac
Pre-gap length : 00:02:62
Track gain : -5.89 dB
Peak : 0.998840
CRC32 hash (test run) : 1E5E4ACC
CRC32 hash : 1E5E4ACC
CRC32 hash (skip zero) : 9FF69D1E
AccurateRip v1 signature : 78497F94
AccurateRip v2 signature : D1A22EC6
->Accurately ripped (v2, confidence 2/7)
Statistics
Read error : 0
Jitter error (maybe fixed) : 0
Retry sector count : 0
Damaged sector count : 0
Track 19
Filename : /Volumes/OWC Mercury Elite Pro - #2/Needs something/ Music/The Dells - Anthology (1999) [FLAC] {Hip-O 2cd set}/CD1/19 - Oh, What a Day.flac
Pre-gap length : 00:02:62
Track gain : -6.20 dB
Peak : 0.998840
CRC32 hash (test run) : 468B4EB8
CRC32 hash : 468B4EB8
CRC32 hash (skip zero) : 27AECF06
AccurateRip v1 signature : 0B14440E
AccurateRip v2 signature : EAAE0580
->Accurately ripped (v2, confidence 2/7)
Statistics
Read error : 0
Jitter error (maybe fixed) : 0
Retry sector count : 0
Damaged sector count : 0
Track 20
Filename : /Volumes/OWC Mercury Elite Pro - #2/Needs something/ Music/The Dells - Anthology (1999) [FLAC] {Hip-O 2cd set}/CD1/20 - The Love We Had (Stays On My Mind).flac
Pre-gap length : 00:02:62
Track gain : -5.75 dB
Peak : 0.995972
CRC32 hash (test run) : 061DC2DB
CRC32 hash : 061DC2DB
CRC32 hash (skip zero) : F6F13948
AccurateRip v1 signature : 1FA5F866
AccurateRip v2 signature : 6F26011F
->Accurately ripped (v2, confidence 2/7)
Statistics
Read error : 0
Jitter error (maybe fixed) : 0
Retry sector count : 0
Damaged sector count : 0
Track 21
Filename : /Volumes/OWC Mercury Elite Pro - #2/Needs something/ Music/The Dells - Anthology (1999) [FLAC] {Hip-O 2cd set}/CD1/21 - The Glory of Love.flac
Pre-gap length : 00:02:62
Track gain : -6.71 dB
Peak : 0.966583
CRC32 hash (test run) : 0C71EAA9
CRC32 hash : 0C71EAA9
CRC32 hash (skip zero) : 1CDF96C8
AccurateRip v1 signature : B9574CBD
AccurateRip v2 signature : BAAF0A5D
->Accurately ripped (v2, confidence 2/7)
Statistics
Read error : 0
Jitter error (maybe fixed) : 0
Retry sector count : 0
Damaged sector count : 0
No errors occurred
End of status report
-----BEGIN XLD SIGNATURE-----
qXLmLpPKV0n6iZO2wAg03Zg9WkXfrASxdaMETwIfHDF.GMs48YmuHeuwXk3W6tFxADG9DgFxC.qbK.Wz.ihmYF5Q3mKJ.cht2qi9wVO
-----END XLD SIGNATURE-----
 
Содержание индексной карты (.CUE)
TITLE "Anthology Disc1"
PERFORMER "Dells"
REM GENRE "R&B"
REM DATE "1999"
REM DISCID 0D119215
FILE "01 - Darling I Know.wav" WAVE
TRACK 01 AUDIO
TITLE "Darling I Know"
ISRC USUMG9900238
INDEX 01 00:00:00
TRACK 02 AUDIO
TITLE "Dreams of Contentment"
ISRC XXXXX9999970
INDEX 00 02:27:42
FILE "02 - Dreams of Contentment.wav" WAVE
INDEX 01 00:00:00
TRACK 03 AUDIO
TITLE "Oh, What a Night [Vee-Jay Version]"
ISRC XXXXX9999971
INDEX 00 03:01:40
FILE "03 - Oh, What a Night [Vee-Jay Version].wav" WAVE
INDEX 01 00:00:00
TRACK 04 AUDIO
TITLE "Pains in My Heart"
ISRC XXXXX9999972
INDEX 00 02:53:48
FILE "04 - Pains in My Heart.wav" WAVE
INDEX 01 00:00:00
TRACK 05 AUDIO
TITLE "The (Bossa Nova) Bird"
ISRC USUMG9900240
INDEX 00 03:04:68
FILE "05 - The (Bossa Nova) Bird.wav" WAVE
INDEX 01 00:00:00
TRACK 06 AUDIO
TITLE "Stay in My Corner [Vee-Jay Version]"
ISRC XXXXX9999973
INDEX 00 02:47:13
FILE "06 - Stay in My Corner [Vee-Jay Version].wav" WAVE
INDEX 01 00:00:00
TRACK 07 AUDIO
TITLE "O-O I Love You"
ISRC USMC16715973
INDEX 00 02:52:25
FILE "07 - O-O I Love You.wav" WAVE
INDEX 01 00:00:00
TRACK 08 AUDIO
TITLE "There Is"
ISRC USMC16852397
INDEX 00 03:18:33
FILE "08 - There Is.wav" WAVE
INDEX 01 00:00:00
TRACK 09 AUDIO
TITLE "Wear It on Our Face"
ISRC USMC16816608
INDEX 00 03:30:63
FILE "09 - Wear It on Our Face.wav" WAVE
INDEX 01 00:00:00
TRACK 10 AUDIO
TITLE "Love Is So Simple"
ISRC USMC16716257
INDEX 00 03:22:27
FILE "10 - Love Is So Simple.wav" WAVE
INDEX 01 00:00:00
TRACK 11 AUDIO
TITLE "Stay in My Corner [Cadet Version]"
ISRC USMC16848486
INDEX 00 02:43:05
FILE "11 - Stay in My Corner [Cadet Version].wav" WAVE
INDEX 01 00:00:00
TRACK 12 AUDIO
TITLE "Always Together"
ISRC USMC16817222
INDEX 00 06:10:13
FILE "12 - Always Together.wav" WAVE
INDEX 01 00:00:00
TRACK 13 AUDIO
TITLE "Does Anybody Know I'm Here"
ISRC USMC16847273
INDEX 00 03:03:00
FILE "13 - Does Anybody Know I'm Here.wav" WAVE
INDEX 01 00:00:00
TRACK 14 AUDIO
TITLE "I Can't Do Enough"
ISRC USMC16847267
INDEX 00 03:16:37
FILE "14 - I Can't Do Enough.wav" WAVE
INDEX 01 00:00:00
TRACK 15 AUDIO
TITLE "I Can Sing a Rainbow - Love Is Blue"
ISRC USMC16917768
INDEX 00 03:32:57
FILE "15 - I Can Sing a Rainbow - Love Is Blue.wav" WAVE
INDEX 01 00:00:00
TRACK 16 AUDIO
TITLE "Oh, What a Night [Cadet Version]"
ISRC USMC16947507
INDEX 00 03:23:02
FILE "16 - Oh, What a Night [Cadet Version].wav" WAVE
INDEX 01 00:00:00
TRACK 17 AUDIO
TITLE "Open Up My Heart [Long Version]"
ISRC USMC16918353
INDEX 00 04:03:35
FILE "17 - Open Up My Heart [Long Version].wav" WAVE
INDEX 01 00:00:00
TRACK 18 AUDIO
TITLE "Long Lonely Nights"
ISRC USMC16947276
INDEX 00 06:31:08
FILE "18 - Long Lonely Nights.wav" WAVE
INDEX 01 00:00:00
TRACK 19 AUDIO
TITLE "Oh, What a Day"
ISRC USMC16947266
INDEX 00 02:28:73
FILE "19 - Oh, What a Day.wav" WAVE
INDEX 01 00:00:00
TRACK 20 AUDIO
TITLE "The Love We Had (Stays On My Mind)"
ISRC USMC17101656
INDEX 00 02:47:08
FILE "20 - The Love We Had (Stays On My Mind).wav" WAVE
INDEX 01 00:00:00
TRACK 21 AUDIO
TITLE "The Glory of Love"
ISRC USMC16947265
INDEX 00 04:49:13
FILE "21 - The Glory of Love.wav" WAVE
INDEX 01 00:00:00
 
CD 2
Треклист:
01. Give Your Baby a Standing Ovation (4:37)
02. My Pretending Days Are Over (4:14)
03. I Miss You (4:26)
04. I Wish It Was Me You Loved (3:52)
05. Learning to Love You Was Easy (3:19)
06. We Got to Get Our Thing Together (4:16)
07. Slow Motion (4:10)
08. Our Love (5:07)
09. Betcha Never Been Loved (Like This Before) (4:58)
10. Private Property (3:10)
11. Super Woman (3:09)
12. I Touched a Dream (5:20)
13. Passionate Breezes (5:37)
14. Stay in My Corner [Chi-Sound Version] (6:27)
15. A Heart Is a House For Love (6:09)
 
 
Лог создания рипа
X Lossless Decoder version 20130407 (143.0)
XLD extraction logfile from 2015-02-08 21:41:59 -0800
Dells / Anthology Disc2
Used drive : HL-DT-ST DVDRW GA32N (revision KE06)
Media type : Pressed CD
Ripper mode : XLD Secure Ripper
Disable audio cache : OK for the drive with a cache less than 1375KiB
Make use of C2 pointers : NO
Read offset correction : 103
Max retry count : 100
Gap status : Analyzed, Appended (except HTOA)
TOC of the extracted CD
Track | Start | Length | Start sector | End sector
---------------------------------------------------------
1 | 00:00:00 | 04:37:15 | 0 | 20789
2 | 04:37:15 | 04:14:07 | 20790 | 39846
3 | 08:51:22 | 04:25:65 | 39847 | 59786
4 | 13:17:12 | 03:51:48 | 59787 | 77159
5 | 17:08:60 | 03:19:20 | 77160 | 92104
6 | 20:28:05 | 04:16:15 | 92105 | 111319
7 | 24:44:20 | 04:09:57 | 111320 | 130051
8 | 28:54:02 | 05:06:43 | 130052 | 153044
9 | 34:00:45 | 04:58:05 | 153045 | 175399
10 | 38:58:50 | 03:10:30 | 175400 | 189679
11 | 42:09:05 | 03:08:42 | 189680 | 203821
12 | 45:17:47 | 05:20:18 | 203822 | 227839
13 | 50:37:65 | 05:37:25 | 227840 | 253139
14 | 56:15:15 | 06:27:05 | 253140 | 282169
15 | 62:42:20 | 06:08:62 | 282170 | 309831
List of alternate offset correction values
# | Absolute | Relative | Confidence
------------------------------------------
1 | 113 | 10 | 6
AccurateRip Summary (DiscID: 00237de6-0194a157-cc10230f)
Track 01 : OK (v2, confidence 2/8)
Track 02 : OK (v2, confidence 2/8)
Track 03 : OK (v2, confidence 2/8)
Track 04 : OK (v2, confidence 2/8)
Track 05 : OK (v2, confidence 2/8)
Track 06 : OK (v2, confidence 2/8)
Track 07 : OK (v2, confidence 2/8)
Track 08 : OK (v2, confidence 2/8)
Track 09 : OK (v2, confidence 2/8)
Track 10 : OK (v2, confidence 2/8)
Track 11 : OK (v2, confidence 2/8)
Track 12 : OK (v2, confidence 2/8)
Track 13 : OK (v2, confidence 2/8)
Track 14 : OK (v2, confidence 2/8)
Track 15 : OK (v1+v2, confidence 6/6, with different offset)
->All tracks accurately ripped.
All Tracks
Album gain : -7.22 dB
Peak : 0.999969
Statistics
Read error : 0
Jitter error (maybe fixed) : 0
Retry sector count : 0
Damaged sector count : 0
Track 01
Filename : /Volumes/OWC Mercury Elite Pro - #2/Needs something/ Music/The Dells - Anthology (1999) [FLAC] {Hip-O 2cd set}/CD2/01 - Give Your Baby a Standing Ovation.flac
Pre-gap length : 00:02:00
Track gain : -8.44 dB
Peak : 0.999969
CRC32 hash (test run) : 2928F39E
CRC32 hash : 2928F39E
CRC32 hash (skip zero) : 81D7A54F
AccurateRip v1 signature : EABCB6FA
AccurateRip v2 signature : 39A77085
->Accurately ripped (v2, confidence 2/8)
Statistics
Read error : 0
Jitter error (maybe fixed) : 0
Retry sector count : 0
Damaged sector count : 0
Track 02
Filename : /Volumes/OWC Mercury Elite Pro - #2/Needs something/ Music/The Dells - Anthology (1999) [FLAC] {Hip-O 2cd set}/CD2/02 - My Pretending Days Are Over.flac
Pre-gap length : 00:02:63
Track gain : -7.00 dB
Peak : 0.968536
CRC32 hash (test run) : 8E945FBA
CRC32 hash : 8E945FBA
CRC32 hash (skip zero) : D487FFBF
AccurateRip v1 signature : E748BA58
AccurateRip v2 signature : 8C51D947
->Accurately ripped (v2, confidence 2/8)
Statistics
Read error : 0
Jitter error (maybe fixed) : 0
Retry sector count : 0
Damaged sector count : 0
Track 03
Filename : /Volumes/OWC Mercury Elite Pro - #2/Needs something/ Music/The Dells - Anthology (1999) [FLAC] {Hip-O 2cd set}/CD2/03 - I Miss You.flac
Pre-gap length : 00:02:62
Track gain : -5.65 dB
Peak : 0.979767
CRC32 hash (test run) : 9CD8CB8A
CRC32 hash : 9CD8CB8A
CRC32 hash (skip zero) : D079E5F7
AccurateRip v1 signature : 12DCBBCD
AccurateRip v2 signature : 22B774AC
->Accurately ripped (v2, confidence 2/8)
Statistics
Read error : 0
Jitter error (maybe fixed) : 0
Retry sector count : 0
Damaged sector count : 0
Track 04
Filename : /Volumes/OWC Mercury Elite Pro - #2/Needs something/ Music/The Dells - Anthology (1999) [FLAC] {Hip-O 2cd set}/CD2/04 - I Wish It Was Me You Loved.flac
Pre-gap length : 00:02:62
Track gain : -6.26 dB
Peak : 0.979767
CRC32 hash (test run) : 471D0B80
CRC32 hash : 471D0B80
CRC32 hash (skip zero) : 171E65D7
AccurateRip v1 signature : 79242167
AccurateRip v2 signature : 6C129578
->Accurately ripped (v2, confidence 2/8)
Statistics
Read error : 0
Jitter error (maybe fixed) : 0
Retry sector count : 0
Damaged sector count : 0
Track 05
Filename : /Volumes/OWC Mercury Elite Pro - #2/Needs something/ Music/The Dells - Anthology (1999) [FLAC] {Hip-O 2cd set}/CD2/05 - Learning to Love You Was Easy.flac
Pre-gap length : 00:02:63
Track gain : -6.62 dB
Peak : 0.979767
CRC32 hash (test run) : 6C6F5D1B
CRC32 hash : 6C6F5D1B
CRC32 hash (skip zero) : 27D1915C
AccurateRip v1 signature : DE686265
AccurateRip v2 signature : 347F283C
->Accurately ripped (v2, confidence 2/8)
Statistics
Read error : 0
Jitter error (maybe fixed) : 0
Retry sector count : 0
Damaged sector count : 0
Track 06
Filename : /Volumes/OWC Mercury Elite Pro - #2/Needs something/ Music/The Dells - Anthology (1999) [FLAC] {Hip-O 2cd set}/CD2/06 - We Got to Get Our Thing Together.flac
Pre-gap length : 00:02:63
Track gain : -6.39 dB
Peak : 0.979767
CRC32 hash (test run) : 8DC1D9EE
CRC32 hash : 8DC1D9EE
CRC32 hash (skip zero) : F335562C
AccurateRip v1 signature : 0A98AAF2
AccurateRip v2 signature : F403CE09
->Accurately ripped (v2, confidence 2/8)
Statistics
Read error : 0
Jitter error (maybe fixed) : 0
Retry sector count : 0
Damaged sector count : 0
Track 07
Filename : /Volumes/OWC Mercury Elite Pro - #2/Needs something/ Music/The Dells - Anthology (1999) [FLAC] {Hip-O 2cd set}/CD2/07 - Slow Motion.flac
Pre-gap length : 00:02:63
Track gain : -7.04 dB
Peak : 0.979767
CRC32 hash (test run) : EECCD071
CRC32 hash : EECCD071
CRC32 hash (skip zero) : C8CB2E60
AccurateRip v1 signature : 2E5F6709
AccurateRip v2 signature : 816A972F
->Accurately ripped (v2, confidence 2/8)
Statistics
Read error : 0
Jitter error (maybe fixed) : 0
Retry sector count : 0
Damaged sector count : 0
Track 08
Filename : /Volumes/OWC Mercury Elite Pro - #2/Needs something/ Music/The Dells - Anthology (1999) [FLAC] {Hip-O 2cd set}/CD2/08 - Our Love.flac
Pre-gap length : 00:02:62
Track gain : -6.73 dB
Peak : 0.979767
CRC32 hash (test run) : FE05B19A
CRC32 hash : FE05B19A
CRC32 hash (skip zero) : 2A41CDB8
AccurateRip v1 signature : A5470190
AccurateRip v2 signature : 571CA761
->Accurately ripped (v2, confidence 2/8)
Statistics
Read error : 0
Jitter error (maybe fixed) : 0
Retry sector count : 0
Damaged sector count : 0
Track 09
Filename : /Volumes/OWC Mercury Elite Pro - #2/Needs something/ Music/The Dells - Anthology (1999) [FLAC] {Hip-O 2cd set}/CD2/09 - Betcha Never Been Loved (Like This Before).flac
Pre-gap length : 00:02:63
Track gain : -7.68 dB
Peak : 0.979767
CRC32 hash (test run) : 36C5DF1B
CRC32 hash : 36C5DF1B
CRC32 hash (skip zero) : D5180623
AccurateRip v1 signature : 6CEE579F
AccurateRip v2 signature : 335B6CA5
->Accurately ripped (v2, confidence 2/8)
Statistics
Read error : 0
Jitter error (maybe fixed) : 0
Retry sector count : 0
Damaged sector count : 0
Track 10
Filename : /Volumes/OWC Mercury Elite Pro - #2/Needs something/ Music/The Dells - Anthology (1999) [FLAC] {Hip-O 2cd set}/CD2/10 - Private Property.flac
Pre-gap length : 00:02:63
Track gain : -6.15 dB
Peak : 0.979767
CRC32 hash (test run) : 23013AC9
CRC32 hash : 23013AC9
CRC32 hash (skip zero) : 4A776BB8
AccurateRip v1 signature : 40AEA7A8
AccurateRip v2 signature : D3405222
->Accurately ripped (v2, confidence 2/8)
Statistics
Read error : 0
Jitter error (maybe fixed) : 0
Retry sector count : 0
Damaged sector count : 0
Track 11
Filename : /Volumes/OWC Mercury Elite Pro - #2/Needs something/ Music/The Dells - Anthology (1999) [FLAC] {Hip-O 2cd set}/CD2/11 - Super Woman.flac
Pre-gap length : 00:02:63
Track gain : -6.62 dB
Peak : 0.982727
CRC32 hash (test run) : 22B039E4
CRC32 hash : 22B039E4
CRC32 hash (skip zero) : 00FEF323
AccurateRip v1 signature : B6496F41
AccurateRip v2 signature : 555C1403
->Accurately ripped (v2, confidence 2/8)
Statistics
Read error : 0
Jitter error (maybe fixed) : 0
Retry sector count : 0
Damaged sector count : 0
Track 12
Filename : /Volumes/OWC Mercury Elite Pro - #2/Needs something/ Music/The Dells - Anthology (1999) [FLAC] {Hip-O 2cd set}/CD2/12 - I Touched a Dream.flac
Pre-gap length : 00:02:62
Track gain : -7.44 dB
Peak : 0.951965
CRC32 hash (test run) : F7341A80
CRC32 hash : F7341A80
CRC32 hash (skip zero) : 538DABE6
AccurateRip v1 signature : F0202DD8
AccurateRip v2 signature : C33CC8B3
->Accurately ripped (v2, confidence 2/8)
Statistics
Read error : 0
Jitter error (maybe fixed) : 0
Retry sector count : 0
Damaged sector count : 0
Track 13
Filename : /Volumes/OWC Mercury Elite Pro - #2/Needs something/ Music/The Dells - Anthology (1999) [FLAC] {Hip-O 2cd set}/CD2/13 - Passionate Breezes.flac
Pre-gap length : 00:02:63
Track gain : -5.84 dB
Peak : 0.979767
CRC32 hash (test run) : 21CDA766
CRC32 hash : 21CDA766
CRC32 hash (skip zero) : E7CD38B4
AccurateRip v1 signature : 8AC851A1
AccurateRip v2 signature : D745E233
->Accurately ripped (v2, confidence 2/8)
Statistics
Read error : 0
Jitter error (maybe fixed) : 0
Retry sector count : 0
Damaged sector count : 0
Track 14
Filename : /Volumes/OWC Mercury Elite Pro - #2/Needs something/ Music/The Dells - Anthology (1999) [FLAC] {Hip-O 2cd set}/CD2/14 - Stay in My Corner [Chi-Sound Version].flac
Pre-gap length : 00:02:63
Track gain : -7.24 dB
Peak : 0.979767
CRC32 hash (test run) : 4D3646FD
CRC32 hash : 4D3646FD
CRC32 hash (skip zero) : ACA3CB4A
AccurateRip v1 signature : AF95260B
AccurateRip v2 signature : A24268DD
->Accurately ripped (v2, confidence 2/8)
Statistics
Read error : 0
Jitter error (maybe fixed) : 0
Retry sector count : 0
Damaged sector count : 0
Track 15
Filename : /Volumes/OWC Mercury Elite Pro - #2/Needs something/ Music/The Dells - Anthology (1999) [FLAC] {Hip-O 2cd set}/CD2/15 - A Heart Is a House For Love.flac
Pre-gap length : 00:02:63
Track gain : -8.37 dB
Peak : 0.976135
CRC32 hash (test run) : 30C12576
CRC32 hash : 30C12576
CRC32 hash (skip zero) : 4E65D39B
AccurateRip v1 signature : C8232C85 (6A04A01B w/correction)
AccurateRip v2 signature : 0BE1515C (A9E46192 w/correction)
->Accurately ripped with different offset (v1+v2, confidence 3+3/6, offset +10)
Statistics
Read error : 0
Jitter error (maybe fixed) : 0
Retry sector count : 0
Damaged sector count : 0
No errors occurred
End of status report
-----BEGIN XLD SIGNATURE-----
t6ZuLMwFIMq0nxB1E5pvdUb70IC_2pWBvoA_C9tWXTuP6eW5g61C10F_Mygf_Dj0IMm.xz53OtuiEc8mlWZ8JOsNx7csTfnpGOY_5BW
-----END XLD SIGNATURE-----
 
Содержание индексной карты (.CUE)
TITLE "Anthology Disc2"
PERFORMER "Dells"
REM GENRE "Soul"
REM DATE "1999"
REM DISCID CC10230F
FILE "01 - Give Your Baby a Standing Ovation.wav" WAVE
TRACK 01 AUDIO
TITLE "Give Your Baby a Standing Ovation"
ISRC USMC17202779
INDEX 01 00:00:00
TRACK 02 AUDIO
TITLE "My Pretending Days Are Over"
ISRC USMC17351734
INDEX 00 04:34:27
FILE "02 - My Pretending Days Are Over.wav" WAVE
INDEX 01 00:00:00
TRACK 03 AUDIO
TITLE "I Miss You"
ISRC USMC17302983
INDEX 00 04:11:20
FILE "03 - I Miss You.wav" WAVE
INDEX 01 00:00:00
TRACK 04 AUDIO
TITLE "I Wish It Was Me You Loved"
ISRC USMC17448485
INDEX 00 04:23:03
FILE "04 - I Wish It Was Me You Loved.wav" WAVE
INDEX 01 00:00:00
TRACK 05 AUDIO
TITLE "Learning to Love You Was Easy"
ISRC USMC17403496
INDEX 00 03:48:60
FILE "05 - Learning to Love You Was Easy.wav" WAVE
INDEX 01 00:00:00
TRACK 06 AUDIO
TITLE "We Got to Get Our Thing Together"
ISRC USPR37504021
INDEX 00 03:16:32
FILE "06 - We Got to Get Our Thing Together.wav" WAVE
INDEX 01 00:00:00
TRACK 07 AUDIO
TITLE "Slow Motion"
ISRC USPR37604012
INDEX 00 04:13:27
FILE "07 - Slow Motion.wav" WAVE
INDEX 01 00:00:00
TRACK 08 AUDIO
TITLE "Our Love"
ISRC USUMG9900243
INDEX 00 04:06:70
FILE "08 - Our Love.wav" WAVE
INDEX 01 00:00:00
TRACK 09 AUDIO
TITLE "Betcha Never Been Loved (Like This Before)"
ISRC USOR37704006
INDEX 00 05:03:55
FILE "09 - Betcha Never Been Loved (Like This Before).wav" WAVE
INDEX 01 00:00:00
TRACK 10 AUDIO
TITLE "Private Property"
ISRC USUMG9900244
INDEX 00 04:55:17
FILE "10 - Private Property.wav" WAVE
INDEX 01 00:00:00
TRACK 11 AUDIO
TITLE "Super Woman"
ISRC USMC17847511
INDEX 00 03:07:42
FILE "11 - Super Woman.wav" WAVE
INDEX 01 00:00:00
TRACK 12 AUDIO
TITLE "I Touched a Dream"
ISRC USPR38004003
INDEX 00 03:05:55
FILE "12 - I Touched a Dream.wav" WAVE
INDEX 01 00:00:00
TRACK 13 AUDIO
TITLE "Passionate Breezes"
ISRC USPR38004016
INDEX 00 05:17:30
FILE "13 - Passionate Breezes.wav" WAVE
INDEX 01 00:00:00
TRACK 14 AUDIO
TITLE "Stay in My Corner [Chi-Sound Version]"
ISRC USPR38104013
INDEX 00 05:34:37
FILE "14 - Stay in My Corner [Chi-Sound Version].wav" WAVE
INDEX 01 00:00:00
TRACK 15 AUDIO
TITLE "A Heart Is a House For Love"
ISRC XXXXX9999974
INDEX 00 06:24:17
FILE "15 - A Heart Is a House For Love.wav" WAVE
INDEX 01 00:00:00
Приватный:
Нет (DHT включён)
Размер:
963.80 Мб (1,010,618,297 байт) » файлов: 56
Участники:
0 раздают, 0 качают (0 участников всего)
Внешние участники:
5 раздают, 1 качают (6 участников всего) [ Обновить ]
Есть вопросы - пишите личное сообщение пользователю M0p94ok.
07:35
80
Нет комментариев. Ваш будет первым!