Поиск

(Jazz-Funk, Contemporary Jazz) [CD] The Karl Denson Trio - Lunar Orbit - 2007, FLAC (tracks+.cue), lossless

(Jazz-Funk, Contemporary Jazz) [CD] The Karl Denson Trio - Lunar Orbit - 2007, FLAC (tracks+.cue), lossless
Треклист:
The Karl Denson Trio / Lunar Orbit
Жанр: Jazz-Funk, Contemporary Jazz
Носитель: CD
Страна-производитель диска (релиза): USA
Год издания: 2007
Издатель (лейбл): Bobby Ace Records
Номер по каталогу: none
Страна исполнителя (группы): USA
Аудиокодек: FLAC (*.flac)
Тип рипа: tracks+.cue
Битрейт аудио: lossless
Продолжительность: 00:57:18
Источник (релизер): собственный рип
Наличие сканов в содержимом раздачи: да
Треклист:
01. Lunar Orbit [09:28]
02. Break Me Down [05:46]
03. Ghetto Fireworks (Part 1) [03:49]
04. The Plain Truth [05:26]
05. Won't Somebody [05:14]
06. Dingo Dog Sled [07:28]
07. Ghetto Fireworks (Part 2) [03:13]
08. By Appointment Only [09:03]
09. That Other Thing [05:39]
10. Ghetto Fireworks (Part 3) [02:12]
 
Лог создания рипа
Exact Audio Copy V1.0 beta 6 from 9. April 2015
EAC extraction logfile from 11. August 2015, 21:53
The Karl Denson Trio / Lunar Orbit
Used drive : ASUS DRW-24F1ST a Adapter: 1 ID: 0
Read mode : Secure
Utilize accurate stream : Yes
Defeat audio cache : Yes
Make use of C2 pointers : No
Read offset correction : 6
Overread into Lead-In and Lead-Out : No
Fill up missing offset samples with silence : Yes
Delete leading and trailing silent blocks : No
Null samples used in CRC calculations : Yes
Used interface : Native Win32 interface for Win NT & 2000
Gap handling : Appended to previous track
Used output format : User Defined Encoder
Selected bitrate : 128 kBit/s
Quality : High
Add ID3 tag : No
Command line compressor : C:\Program Files (x86)\Exact Audio Copy\Flac\flac.exe
Additional command line options : -V -8 -T "Date=%year%" -T "Genre=%genre%" -T "Artist=%artist%" -T "Title=%title%" -T "Album=%albumtitle%" -T "Tracknumber=%tracknr2%" %source%
TOC of the extracted CD
Track | Start | Length | Start sector | End sector
---------------------------------------------------------
1 | 0:00.00 | 9:28.35 | 0 | 42634
2 | 9:28.35 | 5:45.53 | 42635 | 68562
3 | 15:14.13 | 3:48.62 | 68563 | 85724
4 | 19:03.00 | 5:25.68 | 85725 | 110167
5 | 24:28.68 | 5:14.11 | 110168 | 133728
6 | 29:43.04 | 7:27.52 | 133729 | 167305
7 | 37:10.56 | 3:12.69 | 167306 | 181774
8 | 40:23.50 | 9:03.05 | 181775 | 222504
9 | 49:26.55 | 5:38.70 | 222505 | 247924
10 | 55:05.50 | 2:12.29 | 247925 | 257853
Track 1
Filename D:\Music\Karl Denson\2007 - Lunar Orbit\01 Lunar Orbit.wav
Pre-gap length 0:00:02.00
Peak level 100.0 %
Extraction speed 3.0 X
Track quality 100.0 %
Test CRC DBFB01D5
Copy CRC DBFB01D5
Accurately ripped (confidence 8) [074F26DB] (AR v2)
Copy OK
Track 2
Filename D:\Music\Karl Denson\2007 - Lunar Orbit\02 Break Me Down.wav
Peak level 100.0 %
Extraction speed 3.4 X
Track quality 100.0 %
Test CRC 6C0F56AB
Copy CRC 6C0F56AB
Accurately ripped (confidence 8) [7E47D6A8] (AR v2)
Copy OK
Track 3
Filename D:\Music\Karl Denson\2007 - Lunar Orbit\03 Ghetto Fireworks (Part 1).wav
Peak level 100.0 %
Extraction speed 3.5 X
Track quality 100.0 %
Test CRC 189BEB51
Copy CRC 189BEB51
Accurately ripped (confidence 8) [3437A11C] (AR v2)
Copy OK
Track 4
Filename D:\Music\Karl Denson\2007 - Lunar Orbit\04 The Plain Truth.wav
Peak level 100.0 %
Extraction speed 3.9 X
Track quality 100.0 %
Test CRC 9A6C6383
Copy CRC 9A6C6383
Accurately ripped (confidence 8) [A30555C3] (AR v2)
Copy OK
Track 5
Filename D:\Music\Karl Denson\2007 - Lunar Orbit\05 Won't Somebody.wav
Peak level 98.8 %
Extraction speed 4.1 X
Track quality 100.0 %
Test CRC A5E75AEB
Copy CRC A5E75AEB
Accurately ripped (confidence 8) [5141381A] (AR v2)
Copy OK
Track 6
Filename D:\Music\Karl Denson\2007 - Lunar Orbit\06 Dingo Dog Sled.wav
Peak level 100.0 %
Extraction speed 4.5 X
Track quality 100.0 %
Test CRC A16DD886
Copy CRC A16DD886
Accurately ripped (confidence 8) [AADC7D79] (AR v2)
Copy OK
Track 7
Filename D:\Music\Karl Denson\2007 - Lunar Orbit\07 Ghetto Fireworks (Part 2).wav
Peak level 100.0 %
Extraction speed 3.2 X
Track quality 99.9 %
Test CRC F48151E7
Copy CRC F48151E7
Accurately ripped (confidence 8) [87F843A1] (AR v2)
Copy OK
Track 8
Filename D:\Music\Karl Denson\2007 - Lunar Orbit\08 By Appointment Only.wav
Peak level 99.6 %
Extraction speed 5.1 X
Track quality 100.0 %
Test CRC 1D00AB88
Copy CRC 1D00AB88
Accurately ripped (confidence 8) [7FCF9A65] (AR v2)
Copy OK
Track 9
Filename D:\Music\Karl Denson\2007 - Lunar Orbit\09 That Other Thing.wav
Peak level 100.0 %
Extraction speed 5.2 X
Track quality 100.0 %
Test CRC B27AB845
Copy CRC B27AB845
Accurately ripped (confidence 8) [F61ED047] (AR v2)
Copy OK
Track 10
Filename D:\Music\Karl Denson\2007 - Lunar Orbit\10 Ghetto Fireworks (Part 3).wav
Peak level 100.0 %
Extraction speed 4.6 X
Track quality 100.0 %
Test CRC E0E114ED
Copy CRC E0E114ED
Accurately ripped (confidence 8) [4EB0001D] (AR v2)
Copy OK
All tracks accurately ripped
No errors occurred
End of status report
==== Log checksum 0F1ADB6DE81CAF578714F8E6E40DA7C83D7EF51A9A5E0A23AB87255E0AAFD8A8 ====
 
Содержание индексной карты (.CUE)
REM GENRE Jazz+Funk
REM DATE 2007
REM DISCID 860D6E0A
REM COMMENT "ExactAudioCopy v1.0b6"
PERFORMER "The Karl Denson Trio"
TITLE "Lunar Orbit"
FILE "01 Lunar Orbit.wav" WAVE
TRACK 01 AUDIO
TITLE "Lunar Orbit"
PERFORMER "The Karl Denson Trio"
FLAGS DCP
INDEX 01 00:00:00
FILE "02 Break Me Down.wav" WAVE
TRACK 02 AUDIO
TITLE "Break Me Down"
PERFORMER "The Karl Denson Trio"
FLAGS DCP
INDEX 01 00:00:00
FILE "03 Ghetto Fireworks (Part 1).wav" WAVE
TRACK 03 AUDIO
TITLE "Ghetto Fireworks (Part 1)"
PERFORMER "The Karl Denson Trio"
FLAGS DCP
INDEX 01 00:00:00
FILE "04 The Plain Truth.wav" WAVE
TRACK 04 AUDIO
TITLE "The Plain Truth"
PERFORMER "The Karl Denson Trio"
FLAGS DCP
INDEX 01 00:00:00
FILE "05 Won't Somebody.wav" WAVE
TRACK 05 AUDIO
TITLE "Won't Somebody"
PERFORMER "The Karl Denson Trio"
FLAGS DCP
INDEX 01 00:00:00
FILE "06 Dingo Dog Sled.wav" WAVE
TRACK 06 AUDIO
TITLE "Dingo Dog Sled"
PERFORMER "The Karl Denson Trio"
FLAGS DCP
INDEX 01 00:00:00
FILE "07 Ghetto Fireworks (Part 2).wav" WAVE
TRACK 07 AUDIO
TITLE "Ghetto Fireworks (Part 2)"
PERFORMER "The Karl Denson Trio"
FLAGS DCP
INDEX 01 00:00:00
FILE "08 By Appointment Only.wav" WAVE
TRACK 08 AUDIO
TITLE "By Appointment Only"
PERFORMER "The Karl Denson Trio"
FLAGS DCP
INDEX 01 00:00:00
FILE "09 That Other Thing.wav" WAVE
TRACK 09 AUDIO
TITLE "That Other Thing"
PERFORMER "The Karl Denson Trio"
FLAGS DCP
INDEX 01 00:00:00
FILE "10 Ghetto Fireworks (Part 3).wav" WAVE
TRACK 10 AUDIO
TITLE "Ghetto Fireworks (Part 3)"
PERFORMER "The Karl Denson Trio"
FLAGS DCP
INDEX 01 00:00:00
Доп. информация: Роскошный альбом Карла Денсона теперь в lossless. Скачайте сами и расскажите другим!
 
AllMusic Review by Thom Jurek
Karl Denson is one of the most eclectic cats on the modern music scene. Not only has he played rock as a sideman to Lenny Kravitz, but he was also a founding member and creative force behind the Greyboy Allstars and has played with everyone from Stanton Moore to the String Cheese Incident to Roy Hargrove. He was the leader of his own Tiny Universe ensemble, whose album The Bridge is a bona fide jazz-funk classic -- even if those proper self-appointed protectors of the jazz legacy have no idea it exists. Denson has also worked with Fred Wesley and the late Godfather of Soul himself. Sometimes his projects have suffered a bit from too much of that wild reckless creative energy by lacking a more keenly honed focus -- but they have all had killer moments on them. On The Bridge, he nailed it, playing not only saxophone and flute but also proving himself a worthy vocalist in the vein of Gary Bartz, Eddie Harris, and others who've gone that route. So with rock, funk, and jazz as well as R&B all jumping up and down inside his bad self, the killer trio he formed for Lunar Orbit breathes new life into the sax, B-3, and drums combo. Denson is the only constant presence here. Aaron Redfield and Jake Najor alternately support him on drums, with Kenneth Crouch on keyboards (electric piano, synths, and organ) and organists Will Blades and Anthony Smith, and Steve Haney plays congas on more than half the tracks here. There is a method to the madness, although the listener is jolted into seemingly strange parallel universes from the word go.
The title track that opens the record is nine-plus minutes of tough funky jazz flute, big rock drums, and synth pulses and organ chords. While it's true this may seem like some combo made in prog rock hell, it's an utterly smokin' jam. While the organ chords are striated and played mostly in a minor key as riffs -- instead of a lot of single-key solo play -- they help create a funkier base for those big rolling and pounding tribal drums. When Denson begins to kick it on the flute, it's gnarly as hell. He gets into some groove and stays there, pushing at the rhythmic foundations of the track, breathing deep new life into the whole jazz flute thang. "Break Me Down" moves into electric saxophone territory, with live and programmed drums. Denson's playing on the electric sax is not unlike Eddie Harris' experiments with it, but it's also very different. This is the sound that one wishes smooth jazz on the radio had: it's a little grittier, but even in the repetitive grooves there is real life in the playing and Denson elevates the entire proceedings. The three different musical interludes known as "Ghetto Fireworks," in different sections on the set, reveal how funky and focused the bands are here (Denson doesn't play on two of the three, and his flute works on "Pt. 2" is in counterpoint and then in unison with the organ grooves). The tough B-3 work by Will Blades here is more John Patton than Jimmy Smith, and Haney's congas play a beautiful fill with Najor's kit work. "The Plain Truth," with its gritty raw saxophone lines filled in by swells of organ by Blades, is as lean and tough as it gets in the organ trio format, and Denson takes it out to honkville in his knotty solo. "Won't Somebody," with Crouch on organ, is smoother, with Najor's drums in the backdrop propping a steady hypnotic snare and hi-hat groove while the B-3 slips and slides underneath Denson's beautiful in-the-cut soloing. This is the sound of Grover Washington, Jr. at his very best, as on Mister Magic and Feels So Good. The vibe is all warm and bright -- it's soul-jazz in the modern era; it's contemporary urban jazz with the smooth and the grit combined. It's got the whole thing down and yet lifts the form to something else and points in a new direction without losing its accessibility. All you radio programmers out there: get on this track!
The killer breaks and congas in "Dingo Dog Sled" are deep into the funky Latin soul-jazz heart. It's all sweaty, sexy fun, and both Blades' organ work and Denson's funky melody move around those drums with intensity. The electric saxophone makes a return appearance on the smooth -- and overly long -- "By Appointment Only." It's a cool track, but the groove doesn't warrant nine minutes. One can only get so lost in that electric sax, but the synth bassline is all rubbery and cool -- seven minutes would have been perfect. The bad-ass flute -- à la Yusef Lateef and Rahsaan Roland Kirk in its fluidity, with the edges-rounded technique of a Jeremy Steig -- makes a return appearance near the very end of the record on "That Other Thing." The percussion and organ work are explosive but Denson, when he gets into his rawer thing toward the middle, has the tenacity and voice of Rahsaan and flies above it all. Lunar Orbit is, in its way, as worthy as The Bridge as a definitive statement of where Denson's music is at this point. Listeners are all the more fortunate for having it. Blue Note may not have gotten it, and let his contract go, but that hasn't kept him down. This one is all killer, and fans of funky jazz, B-3 grease, and popping breaks should be all over it.
 
Состав
Karl Denson - saxophone & flute
Kenneth Crouch - keyboards (electric piano, synths, and organ)
Aaron Redfield - drums & programming
Will Blades - organ
Jake Najor - drums
Anthony Smith - organ
Steve Haney - congas
Приватный:
Нет (DHT включён)
Размер:
364.67 Мб (382,381,776 байт) » файлов: 18
Участники:
0 раздают, 0 качают (0 участников всего)
Внешние участники:
1 раздают, 0 качают (1 участников всего) [ Обновить ]
Есть вопросы - пишите личное сообщение пользователю M0p94ok.
07:32
54
Нет комментариев. Ваш будет первым!