Поиск

(Psychedelic rock, Jazz) [CD] Sonny Simmons & Moksha Samnyasin: Nomadic (2014), FLAC (tracks+.cue), lossless

(Psychedelic rock, Jazz) [CD] Sonny Simmons & Moksha Samnyasin: Nomadic (2014), FLAC (tracks+.cue), lossless
Треклист:

Sonny Simmons & Moksha Samnyasin: Nomadic
Жанр: Psychedelic rock, Jazz
Носитель: CD
Страна-производитель диска (релиза): Finland
Год издания: 2014
Издатель (лейбл): Svart Records
Номер по каталогу: SVR331CD
Страна исполнителя (группы): USA/France
Аудиокодек: FLAC (*.flac)
Тип рипа: tracks+.cue
Битрейт аудио: lossless
Продолжительность: 00:44:03
Источник (релизер): собственный рип
Наличие сканов в содержимом раздачи: да (jpeg, 600 dpi)
01. Help Them Through This World (14:19)
02. We Are Entering The Place Of That (07:46)
03. I Put It In A Dark Area Where I Can't Remember No More (13:57)
04. When It Comes, I Don't Fight It (08:01)
 

 
Лог создания рипа
Exact Audio Copy V1.0 beta 6 from 9. April 2015
EAC extraction logfile from 11. April 2015, 23:17
Sonny Simmons & Moksha Samnyasin / Nomadic [SVR331CD]
Used drive : ASUS DRW-22B3S Adapter: 1 ID: 0
Read mode : Secure
Utilize accurate stream : Yes
Defeat audio cache : Yes
Make use of C2 pointers : No
Read offset correction : 6
Overread into Lead-In and Lead-Out : No
Fill up missing offset samples with silence : Yes
Delete leading and trailing silent blocks : No
Null samples used in CRC calculations : Yes
Used interface : Native Win32 interface for Win NT & 2000
Gap handling : Appended to previous track
Used output format : User Defined Encoder
Selected bitrate : 768 kBit/s
Quality : High
Add ID3 tag : No
Command line compressor : C:\Program Files\Exact Audio Copy\FLAC\FLAC.EXE
Additional command line options : -V -8 -T "Genre=%genre%" -T "Artist=%artist%" -T "Title=%title%" -T "Album=%albumtitle%" -T "Date=%year%" -T "Tracknumber=%tracknr%" -T "Comment=%comment%" %source%
TOC of the extracted CD
Track | Start | Length | Start sector | End sector
---------------------------------------------------------
1 | 0:00.00 | 14:19.15 | 0 | 64439
2 | 14:19.15 | 7:46.33 | 64440 | 99422
3 | 22:05.48 | 13:57.10 | 99423 | 162207
4 | 36:02.58 | 8:01.31 | 162208 | 198313
Track 1
Filename H:\g.y.m\Sonny Simmons & Moksha Samnyasin - Nomadic (2014) [SVR331]\01. Help Them Through This World.wav
Pre-gap length 0:00:02.00
Peak level 99.9 %
Extraction speed 5.7 X
Track quality 99.9 %
Test CRC 2ED113ED
Copy CRC 2ED113ED
Track not present in AccurateRip database
Copy OK
Track 2
Filename H:\g.y.m\Sonny Simmons & Moksha Samnyasin - Nomadic (2014) [SVR331]\02. We Are Entering The Place Of That.wav
Pre-gap length 0:00:01.74
Peak level 99.2 %
Extraction speed 6.6 X
Track quality 99.9 %
Test CRC 04E8A1CB
Copy CRC 04E8A1CB
Track not present in AccurateRip database
Copy OK
Track 3
Filename H:\g.y.m\Sonny Simmons & Moksha Samnyasin - Nomadic (2014) [SVR331]\03. I Put It In A Dark Area Where I Can't Remember No More.wav
Pre-gap length 0:00:01.74
Peak level 100.0 %
Extraction speed 8.6 X
Track quality 100.0 %
Test CRC F81F6F88
Copy CRC F81F6F88
Track not present in AccurateRip database
Copy OK
Track 4
Filename H:\g.y.m\Sonny Simmons & Moksha Samnyasin - Nomadic (2014) [SVR331]\04. When It Comes, I Don't Fight It.wav
Pre-gap length 0:00:03.15
Peak level 99.6 %
Extraction speed 8.3 X
Track quality 99.9 %
Test CRC F757B849
Copy CRC F757B849
Track not present in AccurateRip database
Copy OK
None of the tracks are present in the AccurateRip database
No errors occurred
End of status report
==== Log checksum 0EA375DC13C65B726CAFB72625726DD176DFB5286C7FDB6D92F1587C04E3A107 ====
 
Содержание индексной карты (.CUE)
REM GENRE "Psychedelic rock/Jazz"
REM DATE 2014
REM DISCID 2B0A5404
REM COMMENT "ExactAudioCopy v1.0b6"
PERFORMER "Sonny Simmons & Moksha Samnyasin"
TITLE "Nomadic [SVR331CD]"
FILE "01. Help Them Through This World.wav" WAVE
TRACK 01 AUDIO
TITLE "Help Them Through This World"
PERFORMER "Sonny Simmons & Moksha Samnyasin"
INDEX 01 00:00:00
TRACK 02 AUDIO
TITLE "We Are Entering The Place Of That"
PERFORMER "Sonny Simmons & Moksha Samnyasin"
INDEX 00 14:17:16
FILE "02. We Are Entering The Place Of That.wav" WAVE
INDEX 01 00:00:00
TRACK 03 AUDIO
TITLE "I Put It In A Dark Area Where I Can't Remember No More"
PERFORMER "Sonny Simmons & Moksha Samnyasin"
INDEX 00 07:44:34
FILE "03. I Put It In A Dark Area Where I Can't Remember No More.wav" WAVE
INDEX 01 00:00:00
TRACK 04 AUDIO
TITLE "When It Comes, I Don't Fight It"
PERFORMER "Sonny Simmons & Moksha Samnyasin"
INDEX 00 13:53:70
FILE "04. When It Comes, I Don't Fight It.wav" WAVE
INDEX 01 00:00:00
 
Лог проверки качества
AUDIOCHECKER v2.0 beta (build 457) - by Dester - opdester@freemail.hu
~~~~~~~~~~~~~~~~~~~~~~~~~~~~~~~~~~
-=== DO NOT EDIT THIS FILE! ===-
Path: ...\Sonny Simmons & Moksha Samnyasin - Nomadic (2014) [SVR331]
1 -=- 01. Help Them Through This World.flac -=- CDDA (99%)
2 -=- 02. We Are Entering The Place Of That.flac -=- CDDA (99%)
3 -=- 03. I Put It In A Dark Area Where I Can't Remember No More.flac -=- CDDA (100%)
4 -=- 04. When It Comes, I Don't Fight It.flac -=- CDDA (100%)
Summary 99,50% CDDA
50642020
По всем вопросам пишите личное сообщение пользователю M0p94ok.
10:56
303
Нет комментариев. Ваш будет первым!