Вы используете незарегистрированную версию компонента "Вкладки"!

Поиск

(Avant-Garde Jazz / Free Improvisation) [4CD] Peter Kowald (Wadada Leo Smith, Baby Sommer, Floros Floridis, Conny Bauer, Andrew Cyrille, Wolfgang Schmidtke, H.-P. Salentin ...) - Discography - 2014 [Jazzwerkstatt jw150], FLAC (tracks+.cue), lossless

(Avant-Garde Jazz / Free Improvisation) [4CD] Peter Kowald (Wadada Leo Smith, Baby Sommer, Floros Floridis, Conny Bauer, Andrew Cyrille, Wolfgang Schmidtke, H.-P. Salentin ...) - Discography - 2014 [Jazzwerkstatt jw150], FLAC (tracks+.cue), lossless
Треклист:
Peter Kowald - Discography
Жанр: Avant-Garde Jazz / Free Improvisation
Носитель: CD
Страна-производитель диска (релиза): Germany
Год издания: 2014
Годы записи: 1981, 1987, 1989, 1990, 1997
Издатель (лейбл): Jazzwerkstatt
Номер по каталогу: jw150
Аудиокодек: FLAC (*.flac)
Тип рипа: tracks+.cue
Битрейт аудио: lossless
Продолжительность: CD 1 - 00:43:24 / CD 2 - 00:38:06 / CD 3 - 00:42:13 / CD 4 - 00:44:15
Источник (релизер): what.cd / спасибо headman
Наличие сканов в содержимом раздачи: да
Доп. информация:
Peter Kowald from Wikipedia, the free encyclopedia
Peter Kowald efi.group
Peter Kowald freejazzblog.org
1-1 - Recorded September 20, 1981 at the jazzwerkstatt Peitz No. 42
1-2 - Recorded February 21, 1981 at the jazzwerkstatt Peitz No. 39
2-1 to 2-3 - Recorded live at theater KAVA, Athens (Greece), May 13, 1989
2-4, 2-5 - Recorded at Woodhouse Studio, Dortmund (Germany) in 1987 and at Hermes Studio, Kamen (Germany) in 1987
3-1 to 3-6 - Recorded and mixed in January 1990 at studio Thita, Athens (Greece)
4-1 to 4-26 - Recorded and mixed February 26 and 27, April 14, 1997 at Agrotikon studios in Greece
 
Track List:
CD 1 :
1. Solo Improvisation (35:01)
2. Trio Improvisation (08:24)
CD 2 :
1. Blau Blusen Blues (07:40)
2. Nice Ending Folks! (05:49)
3. Points, Slashes, Etc. (03:12)
4. Put It Right (06:25)
5. Pretoria Three (05:02)
CD 3 :
1. Mongezi - Dedicated to Mongezi Feza (06:10)
2. The Spell (09:29)
3. Open Side (03:02)
4. River People (11:57)
5. Peace (07:27)
6. A Night to Remember (03:21)
CD 4 :
1. Aphorism 1 (02:05)
2. Aphorism 2 (01:45)
3. Aphorism 3 (01:18)
4. Aphorism 4 (01:17)
5. Aphorism 5 (01:13)
6. Aphorism 6 (01:25)
7. Aphorism 7 (02:08)
8. Aphorism 8 (00:55)
9. Aphorism 9 (02:05)
10. Aphorism 10 (02:10)
11. Aphorism 11 (01:46)
12. Aphorism 12 (01:44)
13. Aphorism 13 (01:24)
14. Aphorism 14 (01:32)
15. Aphorism 15 (01:50)
16. Aphorism 16 (01:55)
17. Aphorism 17 (01:40)
18. Aphorism 18 (02:07)
19. Aphorism 19 (01:59)
20. Aphorism 20 (02:19)
21. Aphorism 21 (01:32)
22. Aphorism 22 (01:41)
23. Aphorism 23 (00:59)
24. Aphorism 24 (01:46)
25. Aphorism 25 (01:36)
26. Aphorism 26 (01:53)
 
Musicians:
CD 1 - 1
Peter Kowald - bass
CD 1 - 2
Wadada Leo Smith - trumpet, flugelhorn, flute
Peter Kowald - bass
Baby Sommer - drums, percussion
CD 2 - 1, 2, 3
Peter Kowald - bass
Andrew Cyrille - drums
Floros Floridis - alto sax, clarinet
Conny Bauer - trombone
CD 2 - 4, 5
Wolfgang Schmidtke - soprano sax
H.-P. Salentin - trumpet
Ludwig Gotz - trombone
Tobias Becker - keyboars, percussion programming
Jan Kazda - bass guitar
Peter Kowald - bass
Marilyn Mazur - drums
CD 3
Floros Floridis - alto & soprano sax, clarinet
Vincent Chancey - trombone
Peter Kowald - bass
Louis Moholo - drums
CD 4
Floros Floridis - alto & soprano sax, clarinet, bass clarinet
Peter Kowald - bass, voice
Baby Sommer - drums, percussion
 
... back ...
 
... photo ...
 
Лог создания рипа
 
CD 1
Exact Audio Copy V1.0 beta 3 from 29. August 2011
EAC extraction logfile from 11. October 2014, 17:18
Peter Kowald / Jazzwerkstatt Peitz Nr. 42 & 39
Used drive : ATAPI DVD A DH16ABSH Adapter: 2 ID: 1
Read mode : Secure
Utilize accurate stream : Yes
Defeat audio cache : Yes
Make use of C2 pointers : No
Read offset correction : 6
Overread into Lead-In and Lead-Out : No
Fill up missing offset samples with silence : Yes
Delete leading and trailing silent blocks : No
Null samples used in CRC calculations : Yes
Used interface : Native Win32 interface for Win NT & 2000
Gap handling : Appended to previous track
Used output format : User Defined Encoder
Selected bitrate : 128 kBit/s
Quality : High
Add ID3 tag : No
Command line compressor : C:\Program Files (x86)\Exact Audio Copy\FLAC\FLAC.EXE
Additional command line options : -8 -V -T "ARTIST=%artist%" -T "TITLE=%title%" -T "ALBUM=%albumtitle%" -T "DATE=%year%" -T "TRACKNUMBER=%tracknr%" -T "TOTALTRACKS=%numtracks%" -T "GENRE=%genre%" -T "ALBUMARTIST=%albumartist%" -T "ALBUM ARTIST=%albumartist%" -T "COMMENT=EAC Secure Mode, Test & Copy, AccurateRip, FLAC -8" %source%
TOC of the extracted CD
Track | Start | Length | Start sector | End sector
---------------------------------------------------------
1 | 0:00.00 | 35:00.24 | 0 | 157523
2 | 35:00.24 | 8:24.39 | 157524 | 195362
Track 1
Filename C:\Users\owner\Desktop\Peter Kowald - Discography (2014) [FLAC]\Disc 1of4\01 - Solo Improvisation.wav
Pre-gap length 0:00:02.00
Peak level 98.8 %
Extraction speed 5.2 X
Track quality 100.0 %
Test CRC E48758D5
Copy CRC E48758D5
Track not present in AccurateRip database
Copy OK
Track 2
Filename C:\Users\owner\Desktop\Peter Kowald - Discography (2014) [FLAC]\Disc 1of4\02 - Trio Improvisation.wav
Peak level 65.5 %
Extraction speed 6.5 X
Track quality 100.0 %
Test CRC A219D45E
Copy CRC A219D45E
Track not present in AccurateRip database
Copy OK
None of the tracks are present in the AccurateRip database
No errors occurred
End of status report
==== Log checksum F04FC830760F854E7C4F0D68B699B5EC87DEC316946CDB822293B23E9D5B9491 ====
 
CD 2
Exact Audio Copy V1.0 beta 3 from 29. August 2011
EAC extraction logfile from 11. October 2014, 16:46
Peter Kowald / Live at Theater Kava/Grandmothers Teaching
Used drive : ATAPI DVD A DH16ABSH Adapter: 2 ID: 1
Read mode : Secure
Utilize accurate stream : Yes
Defeat audio cache : Yes
Make use of C2 pointers : No
Read offset correction : 6
Overread into Lead-In and Lead-Out : No
Fill up missing offset samples with silence : Yes
Delete leading and trailing silent blocks : No
Null samples used in CRC calculations : Yes
Used interface : Native Win32 interface for Win NT & 2000
Gap handling : Appended to previous track
Used output format : User Defined Encoder
Selected bitrate : 128 kBit/s
Quality : High
Add ID3 tag : No
Command line compressor : C:\Program Files (x86)\Exact Audio Copy\FLAC\FLAC.EXE
Additional command line options : -8 -V -T "ARTIST=%artist%" -T "TITLE=%title%" -T "ALBUM=%albumtitle%" -T "DATE=%year%" -T "TRACKNUMBER=%tracknr%" -T "TOTALTRACKS=%numtracks%" -T "GENRE=%genre%" -T "ALBUMARTIST=%albumartist%" -T "ALBUM ARTIST=%albumartist%" -T "COMMENT=EAC Secure Mode, Test & Copy, AccurateRip, FLAC -8" %source%
TOC of the extracted CD
Track | Start | Length | Start sector | End sector
---------------------------------------------------------
1 | 0:00.00 | 7:39.23 | 0 | 34447
2 | 7:39.23 | 5:49.49 | 34448 | 60671
3 | 13:28.72 | 13:11.51 | 60672 | 120047
4 | 26:40.48 | 6:24.72 | 120048 | 148919
5 | 33:05.45 | 5:01.30 | 148920 | 171524
Track 1
Filename C:\Users\owner\Desktop\Peter Kowald - Discography (2014) [FLAC]\Disc 2of4\01 - Blau Blusen Blues.wav
Pre-gap length 0:00:02.00
Peak level 98.8 %
Extraction speed 4.0 X
Track quality 100.0 %
Test CRC 0D8E8E77
Copy CRC 0D8E8E77
Track not present in AccurateRip database
Copy OK
Track 2
Filename C:\Users\owner\Desktop\Peter Kowald - Discography (2014) [FLAC]\Disc 2of4\02 - Nice Ending Folks!.wav
Peak level 57.6 %
Extraction speed 4.5 X
Track quality 100.0 %
Test CRC 630BF6C6
Copy CRC 630BF6C6
Track not present in AccurateRip database
Copy OK
Track 3
Filename C:\Users\owner\Desktop\Peter Kowald - Discography (2014) [FLAC]\Disc 2of4\03 - Points, Slashes, Etc..wav
Peak level 82.4 %
Extraction speed 5.6 X
Track quality 100.0 %
Test CRC 8DE1F50B
Copy CRC 8DE1F50B
Track not present in AccurateRip database
Copy OK
Track 4
Filename C:\Users\owner\Desktop\Peter Kowald - Discography (2014) [FLAC]\Disc 2of4\04 - Put It Right.wav
Peak level 83.4 %
Extraction speed 5.9 X
Track quality 100.0 %
Test CRC 331648BA
Copy CRC 331648BA
Track not present in AccurateRip database
Copy OK
Track 5
Filename C:\Users\owner\Desktop\Peter Kowald - Discography (2014) [FLAC]\Disc 2of4\05 - Pretoria Three.wav
Peak level 63.7 %
Extraction speed 6.1 X
Track quality 100.0 %
Test CRC 188EC9D1
Copy CRC 188EC9D1
Track not present in AccurateRip database
Copy OK
None of the tracks are present in the AccurateRip database
No errors occurred
End of status report
==== Log checksum 8878891181D194A260707006E2792E056B3D3289FFA261219EA1DC1F0D08CCA6 ====
 
CD 3
Exact Audio Copy V1.0 beta 3 from 29. August 2011
EAC extraction logfile from 11. October 2014, 16:28
Chancey, Floridis, Kowald, Sommer / The Human Aspect
Used drive : ATAPI DVD A DH16ABSH Adapter: 2 ID: 1
Read mode : Secure
Utilize accurate stream : Yes
Defeat audio cache : Yes
Make use of C2 pointers : No
Read offset correction : 6
Overread into Lead-In and Lead-Out : No
Fill up missing offset samples with silence : Yes
Delete leading and trailing silent blocks : No
Null samples used in CRC calculations : Yes
Used interface : Native Win32 interface for Win NT & 2000
Gap handling : Appended to previous track
Used output format : User Defined Encoder
Selected bitrate : 128 kBit/s
Quality : High
Add ID3 tag : No
Command line compressor : C:\Program Files (x86)\Exact Audio Copy\FLAC\FLAC.EXE
Additional command line options : -8 -V -T "ARTIST=%artist%" -T "TITLE=%title%" -T "ALBUM=%albumtitle%" -T "DATE=%year%" -T "TRACKNUMBER=%tracknr%" -T "TOTALTRACKS=%numtracks%" -T "GENRE=%genre%" -T "ALBUMARTIST=%albumartist%" -T "ALBUM ARTIST=%albumartist%" -T "COMMENT=EAC Secure Mode, Test & Copy, AccurateRip, FLAC -8" %source%
TOC of the extracted CD
Track | Start | Length | Start sector | End sector
---------------------------------------------------------
1 | 0:00.00 | 6:07.70 | 0 | 27594
2 | 6:07.70 | 9:34.36 | 27595 | 70680
3 | 15:42.31 | 3:20.04 | 70681 | 85684
4 | 19:02.35 | 13:07.14 | 85685 | 144723
5 | 32:09.49 | 7:36.00 | 144724 | 178923
6 | 39:45.49 | 2:27.73 | 178924 | 190021
Track 1
Filename C:\Users\owner\Desktop\Peter Kowald - Discography (2014) [FLAC]\Disc 3of4\01 - Mongezi - Dedicated to Mongezi Feza.wav
Pre-gap length 0:00:02.00
Peak level 97.7 %
Extraction speed 3.8 X
Track quality 100.0 %
Test CRC 7B6128E6
Copy CRC 7B6128E6
Track not present in AccurateRip database
Copy OK
Track 2
Filename C:\Users\owner\Desktop\Peter Kowald - Discography (2014) [FLAC]\Disc 3of4\02 - The Spell.wav
Peak level 97.7 %
Extraction speed 4.7 X
Track quality 100.0 %
Test CRC 60B3FA08
Copy CRC 60B3FA08
Track not present in AccurateRip database
Copy OK
Track 3
Filename C:\Users\owner\Desktop\Peter Kowald - Discography (2014) [FLAC]\Disc 3of4\03 - Open Side.wav
Peak level 97.7 %
Extraction speed 4.6 X
Track quality 100.0 %
Test CRC EAE73E07
Copy CRC EAE73E07
Track not present in AccurateRip database
Copy OK
Track 4
Filename C:\Users\owner\Desktop\Peter Kowald - Discography (2014) [FLAC]\Disc 3of4\04 - River People.wav
Peak level 97.7 %
Extraction speed 5.5 X
Track quality 99.9 %
Test CRC 2B112431
Copy CRC 2B112431
Track not present in AccurateRip database
Copy OK
Track 5
Filename C:\Users\owner\Desktop\Peter Kowald - Discography (2014) [FLAC]\Disc 3of4\05 - Peace.wav
Peak level 97.7 %
Extraction speed 6.4 X
Track quality 100.0 %
Test CRC 630C7A55
Copy CRC 630C7A55
Track not present in AccurateRip database
Copy OK
Track 6
Filename C:\Users\owner\Desktop\Peter Kowald - Discography (2014) [FLAC]\Disc 3of4\06 - A Night To Remember.wav
Peak level 97.7 %
Extraction speed 5.8 X
Track quality 100.0 %
Test CRC CBE6F1DC
Copy CRC CBE6F1DC
Track not present in AccurateRip database
Copy OK
None of the tracks are present in the AccurateRip database
No errors occurred
End of status report
==== Log checksum 403935975C3CBED21C208EF8EC4FDF6963DD73F121F2B8D8121DD2B7649644FF ====
 
CD 4
Exact Audio Copy V1.0 beta 3 from 29. August 2011
EAC extraction logfile from 11. October 2014, 15:19
Floros Floridis, Peter Kowald & Baby Sommer / Aphorismus 1-26
Used drive : ATAPI DVD A DH16ABSH Adapter: 2 ID: 1
Read mode : Secure
Utilize accurate stream : Yes
Defeat audio cache : Yes
Make use of C2 pointers : No
Read offset correction : 6
Overread into Lead-In and Lead-Out : No
Fill up missing offset samples with silence : Yes
Delete leading and trailing silent blocks : No
Null samples used in CRC calculations : Yes
Used interface : Native Win32 interface for Win NT & 2000
Gap handling : Appended to previous track
Used output format : User Defined Encoder
Selected bitrate : 128 kBit/s
Quality : High
Add ID3 tag : No
Command line compressor : C:\Program Files (x86)\Exact Audio Copy\FLAC\FLAC.EXE
Additional command line options : -8 -V -T "ARTIST=%artist%" -T "TITLE=%title%" -T "ALBUM=%albumtitle%" -T "DATE=%year%" -T "TRACKNUMBER=%tracknr%" -T "TOTALTRACKS=%numtracks%" -T "GENRE=%genre%" -T "ALBUMARTIST=%albumartist%" -T "ALBUM ARTIST=%albumartist%" -T "COMMENT=EAC Secure Mode, Test & Copy, AccurateRip, FLAC -8" %source%
TOC of the extracted CD
Track | Start | Length | Start sector | End sector
---------------------------------------------------------
1 | 0:00.00 | 2:05.02 | 0 | 9376
2 | 2:05.02 | 1:45.30 | 9377 | 17281
3 | 3:50.32 | 1:18.00 | 17282 | 23131
4 | 5:08.32 | 1:17.33 | 23132 | 28939
5 | 6:25.65 | 1:13.65 | 28940 | 34479
6 | 7:39.55 | 1:25.09 | 34480 | 40863
7 | 9:04.64 | 2:08.46 | 40864 | 50509
8 | 11:13.35 | 0:55.65 | 50510 | 54699
9 | 12:09.25 | 2:05.07 | 54700 | 64081
10 | 14:14.32 | 2:10.50 | 64082 | 73881
11 | 16:25.07 | 1:46.08 | 73882 | 81839
12 | 18:11.15 | 1:44.22 | 81840 | 89661
13 | 19:55.37 | 1:24.48 | 89662 | 96009
14 | 21:20.10 | 1:32.22 | 96010 | 102931
15 | 22:52.32 | 1:50.10 | 102932 | 111191
16 | 24:42.42 | 1:55.38 | 111192 | 119854
17 | 26:38.05 | 1:40.60 | 119855 | 127414
18 | 28:18.65 | 2:07.47 | 127415 | 136986
19 | 30:26.37 | 1:59.18 | 136987 | 145929
20 | 32:25.55 | 2:19.67 | 145930 | 156421
21 | 34:45.47 | 1:32.23 | 156422 | 163344
22 | 36:17.70 | 1:41.22 | 163345 | 170941
23 | 37:59.17 | 0:59.43 | 170942 | 175409
24 | 38:58.60 | 1:46.62 | 175410 | 183421
25 | 40:45.47 | 1:36.53 | 183422 | 190674
26 | 42:22.25 | 1:53.05 | 190675 | 199154
Track 1
Filename C:\Users\owner\Desktop\Peter Kowald - Discography (2014) [FLAC]\Disc 4of4\01 - I Aphorismus.wav
Pre-gap length 0:00:02.00
Peak level 97.7 %
Extraction speed 1.6 X
Track quality 100.0 %
Test CRC A75E96E8
Copy CRC A75E96E8
Track not present in AccurateRip database
Copy OK
Track 2
Filename C:\Users\owner\Desktop\Peter Kowald - Discography (2014) [FLAC]\Disc 4of4\02 - II Aphorismus.wav
Peak level 97.7 %
Extraction speed 1.7 X
Track quality 100.0 %
Test CRC 20B544FC
Copy CRC 20B544FC
Track not present in AccurateRip database
Copy OK
Track 3
Filename C:\Users\owner\Desktop\Peter Kowald - Discography (2014) [FLAC]\Disc 4of4\03 - III Aphorismus.wav
Peak level 97.7 %
Extraction speed 1.2 X
Track quality 99.8 %
Test CRC 184101FB
Copy CRC 184101FB
Track not present in AccurateRip database
Copy OK
Track 4
Filename C:\Users\owner\Desktop\Peter Kowald - Discography (2014) [FLAC]\Disc 4of4\04 - IV Aphorismus.wav
Peak level 97.7 %
Extraction speed 1.6 X
Track quality 100.0 %
Test CRC 52E44CED
Copy CRC 52E44CED
Track not present in AccurateRip database
Copy OK
Track 5
Filename C:\Users\owner\Desktop\Peter Kowald - Discography (2014) [FLAC]\Disc 4of4\05 - V Aphorismus.wav
Peak level 97.7 %
Extraction speed 1.6 X
Track quality 100.0 %
Test CRC 348CE6F0
Copy CRC 348CE6F0
Track not present in AccurateRip database
Copy OK
Track 6
Filename C:\Users\owner\Desktop\Peter Kowald - Discography (2014) [FLAC]\Disc 4of4\06 - VI Aphorismus.wav
Peak level 97.7 %
Extraction speed 1.8 X
Track quality 100.0 %
Test CRC AC260857
Copy CRC AC260857
Track not present in AccurateRip database
Copy OK
Track 7
Filename C:\Users\owner\Desktop\Peter Kowald - Discography (2014) [FLAC]\Disc 4of4\07 - VII Aphorismus.wav
Peak level 97.7 %
Extraction speed 2.0 X
Track quality 100.0 %
Test CRC 2E937EAE
Copy CRC 2E937EAE
Track not present in AccurateRip database
Copy OK
Track 8
Filename C:\Users\owner\Desktop\Peter Kowald - Discography (2014) [FLAC]\Disc 4of4\08 - VIII Aphorismus.wav
Peak level 97.7 %
Extraction speed 1.6 X
Track quality 100.0 %
Test CRC 172A2CEF
Copy CRC 172A2CEF
Track not present in AccurateRip database
Copy OK
Track 9
Filename C:\Users\owner\Desktop\Peter Kowald - Discography (2014) [FLAC]\Disc 4of4\09 - IX Aphorismus.wav
Peak level 97.7 %
Extraction speed 2.0 X
Track quality 100.0 %
Test CRC C82CDF52
Copy CRC C82CDF52
Track not present in AccurateRip database
Copy OK
Track 10
Filename C:\Users\owner\Desktop\Peter Kowald - Discography (2014) [FLAC]\Disc 4of4\10 - X Aphorismus.wav
Peak level 97.7 %
Extraction speed 2.2 X
Track quality 100.0 %
Test CRC CEA4C321
Copy CRC CEA4C321
Track not present in AccurateRip database
Copy OK
Track 11
Filename C:\Users\owner\Desktop\Peter Kowald - Discography (2014) [FLAC]\Disc 4of4\11 - XI Aphorismus.wav
Peak level 97.7 %
Extraction speed 2.2 X
Track quality 100.0 %
Test CRC 174DD2EF
Copy CRC 174DD2EF
Track not present in AccurateRip database
Copy OK
Track 12
Filename C:\Users\owner\Desktop\Peter Kowald - Discography (2014) [FLAC]\Disc 4of4\12 - XII Aphorismus.wav
Peak level 97.7 %
Extraction speed 2.2 X
Track quality 100.0 %
Test CRC 556F5872
Copy CRC 556F5872
Track not present in AccurateRip database
Copy OK
Track 13
Filename C:\Users\owner\Desktop\Peter Kowald - Discography (2014) [FLAC]\Disc 4of4\13 - XIII Aphorismus.wav
Peak level 97.7 %
Extraction speed 1.6 X
Track quality 99.8 %
Test CRC 229CA33C
Copy CRC 229CA33C
Track not present in AccurateRip database
Copy OK
Track 14
Filename C:\Users\owner\Desktop\Peter Kowald - Discography (2014) [FLAC]\Disc 4of4\14 - XIV Aphorismus.wav
Peak level 97.7 %
Extraction speed 1.7 X
Track quality 99.8 %
Test CRC EB9C521C
Copy CRC EB9C521C
Track not present in AccurateRip database
Copy OK
Track 15
Filename C:\Users\owner\Desktop\Peter Kowald - Discography (2014) [FLAC]\Disc 4of4\15 - XV Aphorismus.wav
Peak level 97.7 %
Extraction speed 2.4 X
Track quality 100.0 %
Test CRC BEA493B3
Copy CRC BEA493B3
Track not present in AccurateRip database
Copy OK
Track 16
Filename C:\Users\owner\Desktop\Peter Kowald - Discography (2014) [FLAC]\Disc 4of4\16 - XVI Aphorismus.wav
Peak level 97.7 %
Extraction speed 2.0 X
Track quality 99.9 %
Test CRC 48C61BD2
Copy CRC 48C61BD2
Track not present in AccurateRip database
Copy OK
Track 17
Filename C:\Users\owner\Desktop\Peter Kowald - Discography (2014) [FLAC]\Disc 4of4\17 - XVII Aphorismus.wav
Peak level 97.7 %
Extraction speed 2.5 X
Track quality 100.0 %
Test CRC 1E63D832
Copy CRC 1E63D832
Track not present in AccurateRip database
Copy OK
Track 18
Filename C:\Users\owner\Desktop\Peter Kowald - Discography (2014) [FLAC]\Disc 4of4\18 - XVIII Aphorismus.wav
Peak level 97.7 %
Extraction speed 2.7 X
Track quality 100.0 %
Test CRC 0CC12D89
Copy CRC 0CC12D89
Track not present in AccurateRip database
Copy OK
Track 19
Filename C:\Users\owner\Desktop\Peter Kowald - Discography (2014) [FLAC]\Disc 4of4\19 - XIX Aphorismus.wav
Peak level 97.7 %
Extraction speed 2.7 X
Track quality 100.0 %
Test CRC B90CC2E5
Copy CRC B90CC2E5
Track not present in AccurateRip database
Copy OK
Track 20
Filename C:\Users\owner\Desktop\Peter Kowald - Discography (2014) [FLAC]\Disc 4of4\20 - XX Aphorismus.wav
Peak level 97.7 %
Extraction speed 2.8 X
Track quality 100.0 %
Test CRC B04265F5
Copy CRC B04265F5
Track not present in AccurateRip database
Copy OK
Track 21
Filename C:\Users\owner\Desktop\Peter Kowald - Discography (2014) [FLAC]\Disc 4of4\21 - XXI Aphorismus.wav
Peak level 97.7 %
Extraction speed 2.0 X
Track quality 99.8 %
Test CRC 775955E1
Copy CRC 775955E1
Track not present in AccurateRip database
Copy OK
Track 22
Filename C:\Users\owner\Desktop\Peter Kowald - Discography (2014) [FLAC]\Disc 4of4\22 - XXII Aphorismus.wav
Peak level 97.7 %
Extraction speed 2.7 X
Track quality 100.0 %
Test CRC CF53419C
Copy CRC CF53419C
Track not present in AccurateRip database
Copy OK
Track 23
Filename C:\Users\owner\Desktop\Peter Kowald - Discography (2014) [FLAC]\Disc 4of4\23 - XXIII Aphorismus.wav
Peak level 97.7 %
Extraction speed 2.3 X
Track quality 100.0 %
Test CRC 8117706A
Copy CRC 8117706A
Track not present in AccurateRip database
Copy OK
Track 24
Filename C:\Users\owner\Desktop\Peter Kowald - Discography (2014) [FLAC]\Disc 4of4\24 - XXIV Aphorismus.wav
Peak level 97.7 %
Extraction speed 2.8 X
Track quality 100.0 %
Test CRC 3D22FDBB
Copy CRC 3D22FDBB
Track not present in AccurateRip database
Copy OK
Track 25
Filename C:\Users\owner\Desktop\Peter Kowald - Discography (2014) [FLAC]\Disc 4of4\25 - XXV Aphorismus.wav
Peak level 97.7 %
Extraction speed 2.8 X
Track quality 100.0 %
Test CRC 10A4CF4A
Copy CRC 10A4CF4A
Track not present in AccurateRip database
Copy OK
Track 26
Filename C:\Users\owner\Desktop\Peter Kowald - Discography (2014) [FLAC]\Disc 4of4\26 - XXVI Aphorismus.wav
Peak level 97.7 %
Extraction speed 2.8 X
Track quality 100.0 %
Test CRC 0F3E026A
Copy CRC 0F3E026A
Track not present in AccurateRip database
Copy OK
None of the tracks are present in the AccurateRip database
No errors occurred
End of status report
==== Log checksum 058F853BD7465DAEEAC2BAE14C9B8776F0439A89CD74EF034BD892FCD9811477 ====
 
Содержание индексной карты (.CUE)
 
CD 1
REM DISCID 070A2C02
REM COMMENT "ExactAudioCopy v1.0b3"
PERFORMER "Peter Kowald"
TITLE "Jazzwerkstatt Peitz Nr. 42 & 39"
FILE "01 - Solo Improvisation.wav" WAVE
TRACK 01 AUDIO
TITLE "Solo Improvisation"
PERFORMER "Peter Kowald"
INDEX 01 00:00:00
FILE "02 - Trio Improvisation.wav" WAVE
TRACK 02 AUDIO
TITLE "Trio Improvisation"
PERFORMER "Peter Kowald"
INDEX 01 00:00:00
 
CD 2
REM DISCID 3808EF05
REM COMMENT "ExactAudioCopy v1.0b3"
PERFORMER "Peter Kowald"
TITLE "Live at Theater Kava/Grandmothers Teaching"
FILE "01 - Blau Blusen Blues.wav" WAVE
TRACK 01 AUDIO
TITLE "Blau Blusen Blues"
PERFORMER "Peter Kowald"
INDEX 01 00:00:00
FILE "02 - Nice Ending Folks!.wav" WAVE
TRACK 02 AUDIO
TITLE "Nice Ending Folks!"
PERFORMER "Peter Kowald"
INDEX 01 00:00:00
FILE "03 - Points, Slashes, Etc..wav" WAVE
TRACK 03 AUDIO
TITLE "Points, Slashes, Etc."
PERFORMER "Peter Kowald"
INDEX 01 00:00:00
FILE "04 - Put It Right.wav" WAVE
TRACK 04 AUDIO
TITLE "Put It Right"
PERFORMER "Peter Kowald"
INDEX 01 00:00:00
FILE "05 - Pretoria Three.wav" WAVE
TRACK 05 AUDIO
TITLE "Pretoria Three"
PERFORMER "Peter Kowald"
INDEX 01 00:00:00
 
CD 3
REM DISCID 5109E506
REM COMMENT "ExactAudioCopy v1.0b3"
PERFORMER "Chancey, Floridis, Kowald, Sommer"
TITLE "The Human Aspect"
FILE "01 - Mongezi - Dedicated to Mongezi Feza.wav" WAVE
TRACK 01 AUDIO
TITLE "Mongezi - Dedicated to Mongezi Feza"
PERFORMER "Chancey, Floridis, Kowald, Sommer"
INDEX 01 00:00:00
FILE "02 - The Spell.wav" WAVE
TRACK 02 AUDIO
TITLE "The Spell"
PERFORMER "Chancey, Floridis, Kowald, Sommer"
INDEX 01 00:00:00
FILE "03 - Open Side.wav" WAVE
TRACK 03 AUDIO
TITLE "Open Side"
PERFORMER "Chancey, Floridis, Kowald, Sommer"
INDEX 01 00:00:00
FILE "04 - River People.wav" WAVE
TRACK 04 AUDIO
TITLE "River People"
PERFORMER "Chancey, Floridis, Kowald, Sommer"
INDEX 01 00:00:00
FILE "05 - Peace.wav" WAVE
TRACK 05 AUDIO
TITLE "Peace"
PERFORMER "Chancey, Floridis, Kowald, Sommer"
INDEX 01 00:00:00
FILE "06 - A Night To Remember.wav" WAVE
TRACK 06 AUDIO
TITLE "A Night To Remember"
PERFORMER "Chancey, Floridis, Kowald, Sommer"
INDEX 01 00:00:00
 
CD 4
REM DISCID 690A5F1A
REM COMMENT "ExactAudioCopy v1.0b3"
PERFORMER "Floros Floridis, Peter Kowald & Baby Sommer"
TITLE "Aphorismus 1-26"
FILE "01 - I Aphorismus.wav" WAVE
TRACK 01 AUDIO
TITLE "I Aphorismus"
PERFORMER "Floros Floridis, Peter Kowald & Baby Sommer"
INDEX 01 00:00:00
FILE "02 - II Aphorismus.wav" WAVE
TRACK 02 AUDIO
TITLE "II Aphorismus"
PERFORMER "Floros Floridis, Peter Kowald & Baby Sommer"
INDEX 01 00:00:00
FILE "03 - III Aphorismus.wav" WAVE
TRACK 03 AUDIO
TITLE "III Aphorismus"
PERFORMER "Floros Floridis, Peter Kowald & Baby Sommer"
INDEX 01 00:00:00
FILE "04 - IV Aphorismus.wav" WAVE
TRACK 04 AUDIO
TITLE "IV Aphorismus"
PERFORMER "Floros Floridis, Peter Kowald & Baby Sommer"
INDEX 01 00:00:00
FILE "05 - V Aphorismus.wav" WAVE
TRACK 05 AUDIO
TITLE "V Aphorismus"
PERFORMER "Floros Floridis, Peter Kowald & Baby Sommer"
INDEX 01 00:00:00
FILE "06 - VI Aphorismus.wav" WAVE
TRACK 06 AUDIO
TITLE "VI Aphorismus"
PERFORMER "Floros Floridis, Peter Kowald & Baby Sommer"
INDEX 01 00:00:00
FILE "07 - VII Aphorismus.wav" WAVE
TRACK 07 AUDIO
TITLE "VII Aphorismus"
PERFORMER "Floros Floridis, Peter Kowald & Baby Sommer"
INDEX 01 00:00:00
FILE "08 - VIII Aphorismus.wav" WAVE
TRACK 08 AUDIO
TITLE "VIII Aphorismus"
PERFORMER "Floros Floridis, Peter Kowald & Baby Sommer"
INDEX 01 00:00:00
FILE "09 - IX Aphorismus.wav" WAVE
TRACK 09 AUDIO
TITLE "IX Aphorismus"
PERFORMER "Floros Floridis, Peter Kowald & Baby Sommer"
INDEX 01 00:00:00
FILE "10 - X Aphorismus.wav" WAVE
TRACK 10 AUDIO
TITLE "X Aphorismus"
PERFORMER "Floros Floridis, Peter Kowald & Baby Sommer"
INDEX 01 00:00:00
FILE "11 - XI Aphorismus.wav" WAVE
TRACK 11 AUDIO
TITLE "XI Aphorismus"
PERFORMER "Floros Floridis, Peter Kowald & Baby Sommer"
INDEX 01 00:00:00
FILE "12 - XII Aphorismus.wav" WAVE
TRACK 12 AUDIO
TITLE "XII Aphorismus"
PERFORMER "Floros Floridis, Peter Kowald & Baby Sommer"
INDEX 01 00:00:00
FILE "13 - XIII Aphorismus.wav" WAVE
TRACK 13 AUDIO
TITLE "XIII Aphorismus"
PERFORMER "Floros Floridis, Peter Kowald & Baby Sommer"
INDEX 01 00:00:00
FILE "14 - XIV Aphorismus.wav" WAVE
TRACK 14 AUDIO
TITLE "XIV Aphorismus"
PERFORMER "Floros Floridis, Peter Kowald & Baby Sommer"
INDEX 01 00:00:00
FILE "15 - XV Aphorismus.wav" WAVE
TRACK 15 AUDIO
TITLE "XV Aphorismus"
PERFORMER "Floros Floridis, Peter Kowald & Baby Sommer"
INDEX 01 00:00:00
FILE "16 - XVI Aphorismus.wav" WAVE
TRACK 16 AUDIO
TITLE "XVI Aphorismus"
PERFORMER "Floros Floridis, Peter Kowald & Baby Sommer"
INDEX 01 00:00:00
FILE "17 - XVII Aphorismus.wav" WAVE
TRACK 17 AUDIO
TITLE "XVII Aphorismus"
PERFORMER "Floros Floridis, Peter Kowald & Baby Sommer"
INDEX 01 00:00:00
FILE "18 - XVIII Aphorismus.wav" WAVE
TRACK 18 AUDIO
TITLE "XVIII Aphorismus"
PERFORMER "Floros Floridis, Peter Kowald & Baby Sommer"
INDEX 01 00:00:00
FILE "19 - XIX Aphorismus.wav" WAVE
TRACK 19 AUDIO
TITLE "XIX Aphorismus"
PERFORMER "Floros Floridis, Peter Kowald & Baby Sommer"
INDEX 01 00:00:00
FILE "20 - XX Aphorismus.wav" WAVE
TRACK 20 AUDIO
TITLE "XX Aphorismus"
PERFORMER "Floros Floridis, Peter Kowald & Baby Sommer"
INDEX 01 00:00:00
FILE "21 - XXI Aphorismus.wav" WAVE
TRACK 21 AUDIO
TITLE "XXI Aphorismus"
PERFORMER "Floros Floridis, Peter Kowald & Baby Sommer"
INDEX 01 00:00:00
FILE "22 - XXII Aphorismus.wav" WAVE
TRACK 22 AUDIO
TITLE "XXII Aphorismus"
PERFORMER "Floros Floridis, Peter Kowald & Baby Sommer"
INDEX 01 00:00:00
FILE "23 - XXIII Aphorismus.wav" WAVE
TRACK 23 AUDIO
TITLE "XXIII Aphorismus"
PERFORMER "Floros Floridis, Peter Kowald & Baby Sommer"
INDEX 01 00:00:00
FILE "24 - XXIV Aphorismus.wav" WAVE
TRACK 24 AUDIO
TITLE "XXIV Aphorismus"
PERFORMER "Floros Floridis, Peter Kowald & Baby Sommer"
INDEX 01 00:00:00
FILE "25 - XXV Aphorismus.wav" WAVE
TRACK 25 AUDIO
TITLE "XXV Aphorismus"
PERFORMER "Floros Floridis, Peter Kowald & Baby Sommer"
INDEX 01 00:00:00
FILE "26 - XXVI Aphorismus.wav" WAVE
TRACK 26 AUDIO
TITLE "XXVI Aphorismus"
PERFORMER "Floros Floridis, Peter Kowald & Baby Sommer"
INDEX 01 00:00:00
... релизы с участием PETER KOWALD на трекере ...
По всем вопросам пишите личное сообщение пользователю M0p94ok.
10:54
406
Нет комментариев. Ваш будет первым!