Поиск

(Psychedelic Jazz, Guitar Experimental) Otomo Yoshihide / Bill Laswell / Yasuhiro Yoshigaki - Soup - 2003, FLAC (image+.cue), lossless

Треклист:
Otomo Yoshihide / Bill Laswell / Yasuhiro Yoshigaki - Soup
[img=right][/img]
Жанр: Psychedelic Jazz, Guitar Experimental
Год выпуска диска: 2003
Производитель диска: Japan (P-Vine)
Аудио кодек: FLAC
Тип рипа: image+.cue
Битрейт аудио: lossless
Продолжительность: 47:47
Трэклист:
1 Duck (11:07)
2 Mushroom (9:56)
3 Crab (14:13)
4 Seaweeds (12:29)
Band:
Bass, Effects, Performer [Samples] - Bill Laswell
Drums, Percussion, Drums [Electric], Trumpet - Yasuhiro Yoshigaki
Guitar, Turntables - Otomo Yoshihide
Producer - Shin Terai
Доп. информация:
Рип и сканы с российского диска. В конце диск немного потёрт, в том месте пара секунд слабых щелчков слышится.
Здесь концертная версия альбома.
 
Отчет EAC
Код:
Exact Audio Copy V0.99 prebeta 3 from 28. July 2007
EAC extraction logfile from 7. September 2008, 19:45
Otomo Yoshihide, Bill Laswell, Yoshigaki Yasuhiro / Soup
Used drive  : ASUS    DRW-1814BL   Adapter: 0  ID: 1
Read mode               : Secure
Utilize accurate stream : Yes
Defeat audio cache      : Yes
Make use of C2 pointers : No
Read offset correction                      : 6
Overread into Lead-In and Lead-Out          : No
Fill up missing offset samples with silence : Yes
Delete leading and trailing silent blocks   : No
Null samples used in CRC calculations       : Yes
Used interface                              : Installed external ASPI interface
Used output format : Internal WAV Routines
Sample format      : 44.100 Hz; 16 Bit; Stereo
TOC of the extracted CD
     Track |   Start  |  Length  | Start sector | End sector
    ---------------------------------------------------------
        1  |  0:00.00 | 11:07.04 |         0    |    50028
        2  | 11:07.04 |  9:56.03 |     50029    |    94731
        3  | 21:03.07 | 14:13.59 |     94732    |   158765
        4  | 35:16.66 | 12:29.67 |    158766    |   215007
Range status and errors
Selected range
     Filename E:\ape\!torrent\release\flac\Otomo Yoshihide 2003 Soup\CDImage.wav
     Suspicious position 0:42:13 - 0:42:20
     Suspicious position 0:42:22 - 0:42:24
     Suspicious position 0:43:23 - 0:43:24
     Suspicious position 0:43:30 - 0:43:32
     Suspicious position 0:43:35 - 0:43:37
     Suspicious position 0:43:40 - 0:43:43
     Suspicious position 0:43:45 - 0:43:48
     Suspicious position 0:44:13 - 0:44:29
     Suspicious position 0:44:31 - 0:44:32
     Suspicious position 0:44:34
     Suspicious position 0:44:36 - 0:44:41
     Suspicious position 0:44:43 - 0:44:46
     Suspicious position 0:44:50
     Peak level 99.2 %
     Range quality 98.0 %
     Copy CRC 018546E0
     Copy finished
There were errors
End of status report
Приватный:
Нет (DHT включён)
Размер:
315.53 Мб (330,857,982 байт) » файлов: 8
Участники:
0 раздают, 0 качают (0 участников всего)
Внешние участники:
2 раздают, 1 качают (3 участников всего) [ Обновить ]
No seeders - write a personal message to user M0p94ok. Нет сидеров - пишите личное сообщение пользователю M0p94ok.
03:19
65
Нет комментариев. Ваш будет первым!