Поиск

(contemporary jazz, avantgarde) Satoko Fujii Orchestra - The Future Of The Past - 2003, FLAC (image+.cue), lossless

(contemporary jazz, avantgarde) Satoko Fujii Orchestra - The Future Of The Past - 2003, FLAC (image+.cue), lossless
Треклист:
Satoko Fujii Orchestra - The Future Of The Past
Жанр: contemporary jazz, avantgarde
Год выпуска диска: 2003
Производитель диска: Germany (ENJA)
Аудио кодек: FLAC
Тип рипа: image+.cue
Битрейт аудио: lossless
Продолжительность: 60.31
Трэклист:
1 Pakonya (17:07)
2 Tatsu Take (5:20)
3 Incompleted (13:04)
4 The Future Of The Past-Straw Dance (25:01)
Доп. информация: Oscar Noriega (Alto Sax)
Briggan Krauss (Alto Sax)
Ellery Eskelin (Tenor Sax)
Tony Malaby (Tenor Sax)
Andy Laster (Baritone Sax)
Natsuki Tamura (Trumpet)
Herb Robertson (Trumpet)
Steven Bernstein (Trumpet)
Laurie Frink (Trumpet)
Curtis Hasselbronk (Trombone)
Joey Shellers (Trombone)
Joe Fiedler (Trombone)
Satoko Fujii (piano)
Stomu Takeishi (Bass)
Aaron Alexander (Drums)
 
eac log
Exact Audio Copy V0.99 prebeta 4 from 23. January 2008
Отчёт EAC об извлечении, выполненном 7. сентября 2008, 20:41
Satoko Fujii Orchestra / The Future Of The Past
Дисковод: Optiarc DVD RW AD-7170A Adapter: 0 ID: 1
Режим чтения : Достоверность
Использование точного потока : Да
Отключение кэша аудио : Да
Использование указателей C2 : Нет
Коррекция смещения при чтении : 48
Способность читать области Lead-in и Lead-out : Нет
Заполнение пропущенных сэмплов тишиной : Да
Удаление блоков с тишиной в начале и конце : Нет
При вычислениях CRC использовались нулевые сэмплы : Нет
Интерфейс : Встроенный Win32-интерфейс для Win NT/2000
Выходной формат : Пользовательский кодировщик
Выбранный битрейт : 768 kBit/s
Качество : Высокий
Добавление ID3-тэга : Нет
Утилита сжатия : D:\Program Files\Exact Audio Copy\FLAC\FLAC.EXE
Дополнительные параметры : -6 -V -T "ARTIST=%a" -T "TITLE=%t" -T "ALBUM=%g" -T "DATE=%y" -T "TRACKNUMBER=%n" -T "GENRE=%m" -T "COMMENT=%e" %s -o %d
TOC извлечённого CD
Трек | Старт | Длительность | Начальный сектор | Конечный сектор
---------------------------------------------------------------------
1 | 0:00.00 | 17:06.45 | 0 | 76994
2 | 17:06.45 | 5:19.43 | 76995 | 100962
3 | 22:26.13 | 13:03.73 | 100963 | 159760
4 | 35:30.11 | 25:00.70 | 159761 | 272330
Характеристики диапазона извлечения и сообщения об ошибках
Выбранный диапазон
Имя файла D:\EAC\Satoko Fujii Orchestra - The Future Of The Past.wav
Пиковый уровень 100.0 %
Качество диапазона 99.9 %
CRC копии 9EF21ECB
Копирование... OK
Ошибок не произошло
AccurateRip: сводка
Трек 1 нет в базе данных
Трек 2 нет в базе данных
Трек 3 нет в базе данных
Трек 4 нет в базе данных
Ни одного трека нет в базе AccurateRip
Конец отчёта
Приватный:
Нет (DHT включён)
Размер:
380.99 Мб (399,495,746 байт) » файлов: 3
Участники:
0 раздают, 0 качают (0 участников всего)
Внешние участники:
2 раздают, 1 качают (3 участников всего) [ Обновить ]
No seeders - write a personal message to user M0p94ok. Нет сидеров - пишите личное сообщение пользователю M0p94ok.
03:20
53
Нет комментариев. Ваш будет первым!