Поиск

(Avant-Garde Jazz / Jazz-Rock / Contemporary Jazz / Modern Creative) Cuong Vu - Come Play With Mе / Bound - 2001, APE (image+.cue), lossless

(Avant-Garde Jazz / Jazz-Rock / Contemporary Jazz / Modern Creative) Cuong Vu - Come Play With Mе / Bound - 2001, APE (image+.cue), lossless
Треклист:
Cuong Vu - Come Play With Mе / Bound
Жанр: Avant-Garde Jazz / Jazz-Rock / Contemporary Jazz / Modern Creative
Год выпуска диска: 2001 / 2000
Производитель диска: USA
Аудио кодек: APE
Тип рипа: image+.cue
Битрейт аудио: lossless
Продолжительность: 54:46 / 47:59
Трэклист:
Come Play With Mе:
1. Dreams, Come Play With Me (14:02)
2. Vina's Lullaby (12:39)
3. Amniotic (11:20)
4. Safekeeping (8:06)
5. Again and Again and Again (8:37)
Line-up:
Cuong Vu - trumpet
Stomu Takeishi - bass
John Hollenbeck - drums
Bound:
1. "Two" (4:27)
2. "Our Bridge" (5:35)
3. "Still Ragged" (7:12)
4. "Bound" (8:24)
5. "The Drift" (9:16)
6. "Acid Kiss" (7:19)
7. "The Burn" (5:31)
Line-up:
Cuong Vu (vocals, trumpet);
Jamie Saft (piano, Fender Rhodes, keyboards);
Stomu Takeishi (electric bass);
Jim Black (drums, percussion);
Holly Palmer.
Доп. информация: Два диска замечательного вьетнамского трубача. Великолепный джаз, в основном неторопливый, с тягучей трубой, иногда довольно таки авангардный. Come Play With Mе я уже выкладывал. Ушел в анналы истории. Но попросили выложить заново.
Раздавать начну вечером 8-го. Сегодня интернет закончится.
 
Отчёт EAC об извлечении
Exact Audio Copy V0.99 prebeta 4 from 23. January 2008
Отчёт EAC об извлечении, выполненном 7. сентября 2008, 22:09
Cuong Vu / Come Play With Me
Дисковод: _NEC CD-RW NR-9300A Adapter: 3 ID: 0
Режим чтения : Достоверность
Использование точного потока : Да
Отключение кэша аудио : Да
Использование указателей C2 : Нет
Коррекция смещения при чтении : 685
Способность читать области Lead-in и Lead-out : Нет
Заполнение пропущенных сэмплов тишиной : Да
Удаление блоков с тишиной в начале и конце : Нет
При вычислениях CRC использовались нулевые сэмплы : Нет
Интерфейс : Встроенный Win32-интерфейс для Win NT/2000
Выходной формат : Внутренние WAV-операции
Формат сэмплов : 44.100 Гц; 16 бит; стерео
TOC извлечённого CD
Трек | Старт | Длительность | Начальный сектор | Конечный сектор
---------------------------------------------------------------------
1 | 0:00.00 | 14:02.57 | 0 | 63206
2 | 14:02.57 | 12:39.30 | 63207 | 120161
3 | 26:42.12 | 11:20.51 | 120162 | 171212
4 | 38:02.63 | 8:06.36 | 171213 | 207698
5 | 46:09.24 | 8:37.35 | 207699 | 246508
Характеристики диапазона извлечения и сообщения об ошибках
Выбранный диапазон
Имя файла G:\m\1\Cuong Vu - Come Play With Me.wav
Пиковый уровень 96.6 %
Качество диапазона 99.9 %
CRC копии 746BD0A6
Копирование... OK
Ошибок не произошло
Конец отчёта
Exact Audio Copy V0.99 prebeta 4 from 23. January 2008
Отчёт EAC об извлечении, выполненном 7. сентября 2008, 22:21
Cuong Vu / Bound
Дисковод: _NEC CD-RW NR-9300A Adapter: 3 ID: 0
Режим чтения : Достоверность
Использование точного потока : Да
Отключение кэша аудио : Да
Использование указателей C2 : Нет
Коррекция смещения при чтении : 685
Способность читать области Lead-in и Lead-out : Нет
Заполнение пропущенных сэмплов тишиной : Да
Удаление блоков с тишиной в начале и конце : Нет
При вычислениях CRC использовались нулевые сэмплы : Нет
Интерфейс : Встроенный Win32-интерфейс для Win NT/2000
Выходной формат : Внутренние WAV-операции
Формат сэмплов : 44.100 Гц; 16 бит; стерео
TOC извлечённого CD
Трек | Старт | Длительность | Начальный сектор | Конечный сектор
---------------------------------------------------------------------
1 | 0:00.00 | 4:29.44 | 0 | 20218
2 | 4:29.44 | 5:37.33 | 20219 | 45526
3 | 10:07.02 | 7:14.28 | 45527 | 78104
4 | 17:21.30 | 8:26.65 | 78105 | 116119
5 | 25:48.20 | 9:18.50 | 116120 | 158019
6 | 35:06.70 | 7:21.70 | 158020 | 191164
7 | 42:28.65 | 5:31.05 | 191165 | 215994
Характеристики диапазона извлечения и сообщения об ошибках
Выбранный диапазон
Имя файла G:\m\1\Cuong Vu - Bound\Cuong Vu - Bound.wav
Пиковый уровень 98.8 %
Качество диапазона 100.0 %
CRC копии 4846690A
Копирование... OK
Ошибок не произошло
Конец отчёта
Приватный:
Нет (DHT включён)
Размер:
590.97 Мб (619,677,153 байт) » файлов: 6
Участники:
0 раздают, 0 качают (0 участников всего)
Внешние участники:
3 раздают, 1 качают (4 участников всего) [ Обновить ]
No seeders - write a personal message to user M0p94ok. Нет сидеров - пишите личное сообщение пользователю M0p94ok.
03:21
58
Нет комментариев. Ваш будет первым!