Поиск

(Jazz / ECM) Marilyn Mazur's Future Song - Small Labyrinths (ECM 1559) - 1997, FLAC (image+.cue), lossless

(Jazz / ECM) Marilyn Mazur's Future Song - Small Labyrinths (ECM 1559) - 1997, FLAC (image+.cue), lossless
Треклист:
Marilyn Mazur's Future Song - Small Labyrinths (ECM 1559)
Жанр: Jazz / ECM
Год выпуска диска: 1997
Производитель диска: Germany
Аудио кодек: FLAC
Тип рипа: image+.cue
Битрейт аудио: lossless
Продолжительность: 48:35

Aina Kemanis voice
Hans Ulrik saxophones
Nils Petter Molvær trumpet
Eivind Aarset guitar
Elvira Plenar piano, keyboards
Klavs Hovman basses
Audun Kleive drums
Marilyn Mazur percussion
A World Of Gates
Drum Tunnel
The Electric Cave
The Dreamcatcher
Visions In The Wood
Back To Dreamfog Mountain
Creature Talk
See There
Valley Of Fragments
Enchanted Place
Castle Of Air
The Holey
Recorded August 1994
ECM 1559
 
EAC Report
Exact Audio Copy V0.99 prebeta 4 from 23. January 2008
EAC extraction logfile from 25. May 2008, 14:24
Marilyn Mazur's Future Song / Small Labyrinths
Used drive : TSSTcorpCD/DVDW SH-S182M Adapter: 2 ID: 0
Read mode : Secure
Utilize accurate stream : Yes
Defeat audio cache : Yes
Make use of C2 pointers : No
Read offset correction : 6
Overread into Lead-In and Lead-Out : No
Fill up missing offset samples with silence : Yes
Delete leading and trailing silent blocks : No
Null samples used in CRC calculations : No
Used interface : Installed external ASPI interface
Used output format : User Defined Encoder
Selected bitrate : 1024 kBit/s
Quality : High
Add ID3 tag : No
Command line compressor : C:\Program Files\Exact Audio Copy\FLAC\FLAC.EXE
Additional command line options : -6 -V -T "ARTIST=%a" -T "TITLE=%t" -T "ALBUM=%g" -T "DATE=%y" -T "TRACKNUMBER=%n" -T "GENRE=%m" -T "COMMENT=%e" %s -o %d
TOC of the extracted CD
Track | Start | Length | Start sector | End sector
---------------------------------------------------------
1 | 0:00.00 | 2:14.72 | 0 | 10121
2 | 2:14.72 | 2:24.15 | 10122 | 20936
3 | 4:39.12 | 1:44.25 | 20937 | 28761
4 | 6:23.37 | 5:48.00 | 28762 | 54861
5 | 12:11.37 | 5:30.63 | 54862 | 79674
6 | 17:42.25 | 6:05.17 | 79675 | 107066
7 | 23:47.42 | 1:12.33 | 107067 | 112499
8 | 25:00.00 | 7:21.57 | 112500 | 145631
9 | 32:21.57 | 1:21.68 | 145632 | 151774
10 | 33:43.50 | 3:15.37 | 151775 | 166436
11 | 36:59.12 | 4:22.00 | 166437 | 186086
12 | 41:21.12 | 7:13.63 | 186087 | 218624
Range status and errors
Selected range
Filename F:\z\Marilyn Mazur's Future Song - Small Labyrinths.wav
Peak level 100.0 %
Range quality 100.0 %
Copy CRC 9EEA8F6B
Copy OK
No errors occurred
AccurateRip summary
Track 1 not present in database
Track 2 not present in database
Track 3 not present in database
Track 4 not present in database
Track 5 not present in database
Track 6 not present in database
Track 7 not present in database
Track 8 not present in database
Track 9 not present in database
Track 10 not present in database
Track 11 not present in database
Track 12 not present in database
None of the tracks are present in the AccurateRip database
End of status report
Приватный:
Нет (DHT включён)
Размер:
212.99 Мб (223,334,966 байт) » файлов: 5
Участники:
0 раздают, 0 качают (0 участников всего)
Внешние участники:
5 раздают, 1 качают (6 участников всего) [ Обновить ]
No seeders - write a personal message to user M0p94ok. Нет сидеров - пишите личное сообщение пользователю M0p94ok.
03:21
57
Нет комментариев. Ваш будет первым!