Поиск

(avantgarde, experimental, free improvisation) Mats Gustafsson - Parrot Fish Eye - 1995, FLAC (image+.cue), lossless

(avantgarde, experimental, free improvisation) Mats Gustafsson - Parrot Fish Eye - 1995, FLAC (image+.cue), lossless
Треклист:
Mats Gustafsson - Parrot Fish Eye
Жанр: avantgarde, experimental, free improvisation
Год выпуска диска: 1995
Производитель диска: USA (Okka)
Аудио кодек: FLAC
Тип рипа: image+.cue
Битрейт аудио: lossless
Продолжительность: 56.38
Трэклист:
1. Parrot Fish Eye
2. I'll Give You This!
3. Knotted Canvas
4. Elbow Material
5. Where's The Air?
6. Where's What?
7. Tied Door
8. Shut Up!
9. Even The Rain
10. So What?
11. Dolphin Nap Music
12. Where's The End?
13. Again (with a lot of guitar?)
Доп. информация: tracks 1 - 8 : Mats Gustafsson and Michael Zerang Duo
tracks 9-13 : Mats Gustafsson, Gene Coleman, Jim'O'Rourke Trio
Mats Gustafsson - fluteophone, soprano & baritone sax
Jim O'Rourke - guitar, accordion, percussion
Gene Coleman - bass clarinet
Michael Zerang - percussion
 
eac log
Exact Audio Copy V0.99 prebeta 4 from 23. January 2008
Отчёт EAC об извлечении, выполненном 10. сентября 2008, 0:34
Mats Gustafsson / Parrot Fish Eye
Дисковод: Optiarc DVD RW AD-7170A Adapter: 0 ID: 1
Режим чтения : Достоверность
Использование точного потока : Да
Отключение кэша аудио : Да
Использование указателей C2 : Нет
Коррекция смещения при чтении : 48
Способность читать области Lead-in и Lead-out : Нет
Заполнение пропущенных сэмплов тишиной : Да
Удаление блоков с тишиной в начале и конце : Нет
При вычислениях CRC использовались нулевые сэмплы : Нет
Интерфейс : Встроенный Win32-интерфейс для Win NT/2000
Выходной формат : Пользовательский кодировщик
Выбранный битрейт : 768 kBit/s
Качество : Высокий
Добавление ID3-тэга : Нет
Утилита сжатия : D:\Program Files\Exact Audio Copy\FLAC\FLAC.EXE
Дополнительные параметры : -6 -V -T "ARTIST=%a" -T "TITLE=%t" -T "ALBUM=%g" -T "DATE=%y" -T "TRACKNUMBER=%n" -T "GENRE=%m" -T "COMMENT=%e" %s -o %d
TOC извлечённого CD
Трек | Старт | Длительность | Начальный сектор | Конечный сектор
---------------------------------------------------------------------
1 | 0:00.32 | 3:41.45 | 32 | 16651
2 | 3:42.02 | 2:35.55 | 16652 | 28331
3 | 6:17.57 | 1:59.63 | 28332 | 37319
4 | 8:17.45 | 4:52.47 | 37320 | 59266
5 | 13:10.17 | 4:45.28 | 59267 | 80669
6 | 17:55.45 | 7:12.12 | 80670 | 113081
7 | 25:07.57 | 5:33.00 | 113082 | 138056
8 | 30:40.57 | 2:14.58 | 138057 | 148164
9 | 32:55.40 | 6:49.00 | 148165 | 178839
10 | 39:44.40 | 5:05.00 | 178840 | 201714
11 | 44:49.40 | 2:23.20 | 201715 | 212459
12 | 47:12.60 | 2:35.65 | 212460 | 224149
13 | 49:48.50 | 6:50.37 | 224150 | 254936
Характеристики диапазона извлечения и сообщения об ошибках
Выбранный диапазон
Имя файла D:\EAC\Mats Gustafsson - Parrot Fish Eye.wav
Пиковый уровень 100.0 %
Качество диапазона 100.0 %
CRC копии E6B3AD0A
Копирование... OK
Ошибок не произошло
AccurateRip: сводка
Трек 1 нет в базе данных
Трек 2 нет в базе данных
Трек 3 нет в базе данных
Трек 4 нет в базе данных
Трек 5 нет в базе данных
Трек 6 нет в базе данных
Трек 7 нет в базе данных
Трек 8 нет в базе данных
Трек 9 нет в базе данных
Трек 10 нет в базе данных
Трек 11 нет в базе данных
Трек 12 нет в базе данных
Трек 13 нет в базе данных
Ни одного трека нет в базе AccurateRip
Конец отчёта
Приватный:
Нет (DHT включён)
Размер:
228.07 Мб (239,143,947 байт) » файлов: 3
Участники:
0 раздают, 0 качают (0 участников всего)
Внешние участники:
1 раздают, 0 качают (1 участников всего) [ Обновить ]
No seeders - write a personal message to user M0p94ok. Нет сидеров - пишите личное сообщение пользователю M0p94ok.
03:22
57
Нет комментариев. Ваш будет первым!