Поиск

(Jazz/Avant-Garde) Cruel Frederick - We Are the Music We Play - 1991, WAVPack (image+.cue), lossless

(Jazz/Avant-Garde) Cruel Frederick - We Are the Music We Play - 1991, WAVPack (image+.cue), lossless
Треклист:
Cruel Frederick - We Are the Music We Play
Жанр: Jazz/Avant-Garde
Год выпуска диска: 1991
Производитель диска: SST/USA
Аудио кодек: WAVPack
Тип рипа: image+.cue
Битрейт аудио: lossless
Продолжительность: 53:45
Трэклист:
1 Little Rootie Tootie 03:38
2 We Are the Music We Play 04:04
3 The Fool & The Jewel 03:34
4 Reflections 04:36
5 Blind Man in a Sleigh 03:03
6 Dee Dee 05:04
7 Those Dulcet Tones 05:24
8 Ms. Pines 06:15
9 Mingus at Moments 05:57
10 Well, You Needn't 02:27
11 Extending the Ting 09:43
 
ЕАС
Exact Audio Copy V0.99 prebeta 4 from 23. January 2008
Отчёт EAC об извлечении, выполненном 11. сентября 2008, 15:19
Cruel Frederick / We Are the Music We Play
Дисковод: Optiarc DVD RW AD-7200A Adapter: 1 ID: 0
Режим чтения : Достоверность
Использование точного потока : Да
Отключение кэша аудио : Да
Использование указателей C2 : Нет
Коррекция смещения при чтении : 48
Способность читать области Lead-in и Lead-out : Нет
Заполнение пропущенных сэмплов тишиной : Да
Удаление блоков с тишиной в начале и конце : Нет
При вычислениях CRC использовались нулевые сэмплы : Нет
Интерфейс : Встроенный Win32-интерфейс для Win NT/2000
Выходной формат : Внутренние WAV-операции
Формат сэмплов : 44.100 Гц; 16 бит; стерео
TOC извлечённого CD
Трек | Старт | Длительность | Начальный сектор | Конечный сектор
---------------------------------------------------------------------
1 | 0:00.37 | 3:39.00 | 37 | 16461
2 | 3:39.37 | 4:04.73 | 16462 | 34834
3 | 7:44.35 | 3:34.47 | 34835 | 50931
4 | 11:19.07 | 4:36.38 | 50932 | 71669
5 | 15:55.45 | 3:03.52 | 71670 | 85446
6 | 18:59.22 | 5:04.13 | 85447 | 108259
7 | 24:03.35 | 5:24.55 | 108260 | 132614
8 | 29:28.15 | 6:15.07 | 132615 | 160746
9 | 35:43.22 | 5:57.73 | 160747 | 187594
10 | 41:41.20 | 2:27.40 | 187595 | 198659
11 | 44:08.60 | 9:44.62 | 198660 | 242521
Характеристики диапазона извлечения и сообщения об ошибках
Выбранный диапазон
Имя файла C:\Cruel Frederick - We Are the Music We Play\Cruel Frederick - We Are the Music We Play.wav
Пиковый уровень 100.0 %
Качество диапазона 99.9 %
CRC копии 1E6727BA
Копирование... OK
Ошибок не произошло
AccurateRip: сводка
Трек 1 нет в базе данных
Трек 2 нет в базе данных
Трек 3 нет в базе данных
Трек 4 нет в базе данных
Трек 5 нет в базе данных
Трек 6 нет в базе данных
Трек 7 нет в базе данных
Трек 8 нет в базе данных
Трек 9 нет в базе данных
Трек 10 нет в базе данных
Трек 11 нет в базе данных
Ни одного трека нет в базе AccurateRip
Конец отчёта
Персоналии:
Akiko Donna Tamai
Guy Bennett Bass, Artwork, Cover Design
Hermann Buhler Sax (Alto)
Mike Ezzo Drums
Lynn Johnston Clarinet, Saxophone
Walter Zooi Trumpet
Ron Coleman
Vinny Golia
Cruel Frederick Producer
Jim Lloyd Engineer, Mastering
Vitus Matare Producer
Brett Smith Engineer
 
Biography
by William York
Southern California free jazz outfit Cruel Frederick existed during the late '80s and early '90s, during which time they recorded two albums for the renowned SST label. The group paid homage to such jazz icons as Ornette Coleman, Thelonious Monk, and especially Albert Ayler through their music as well as their song titles. Cruel Frederick's first album, Birth of the Cruel (1988), featured a lineup of Lynn Johnston on saxophones and clarinets, Jacob Cohn on alto saxophone, Guy Bennett on bass and trombone, and Jason Kahn on drums. For the follow-up, 1991's We Are the Music We Play, only Johnston and Bennett remained on board, with Mike Ezzo taking over on drums
Сканы 300 dpi.
Приватный:
Нет (DHT включён)
Размер:
267.43 Мб (280,422,917 байт) » файлов: 5
Участники:
0 раздают, 0 качают (0 участников всего)
Внешние участники:
1 раздают, 0 качают (1 участников всего) [ Обновить ]
No seeders - write a personal message to user M0p94ok. Нет сидеров - пишите личное сообщение пользователю M0p94ok.
03:23
90
Нет комментариев. Ваш будет первым!