Поиск

(jazz) David Murray Octet - Ming (Black Saint) - 1980, APE (image+.cue), lossless

(jazz) David Murray Octet - Ming (Black Saint) - 1980, APE (image+.cue), lossless
Треклист:
David Murray Octet - Ming (Black Saint)
Жанр: jazz
Год выпуска диска: 1980
Производитель диска: usa
Аудио кодек: APE
Тип рипа: image+.cue
Битрейт аудио: lossless
Продолжительность: 39:00
Трэклист:
1 The Fast Life (Murray) 8:54
2 The Hill (Murray) 10:39
3 Ming (Murray) 4:28
4 Jasvan (Murray) 8:51
5 Dewey's Circle (Murray) 6:36
Доп. информация:
David Murray - tenor, bass clarinet
Henry Threadgill - alto
Olu Dara - trumpet, cornetist
Butch Morris - cornet
George Lewis - trombone, pianist
Anthony Davis - piano, bassist
Wilbur Morris - bass
Steve McCall - drums
Диск, насколько я понимаю, посвящен жене D.Murray.
Для тех, кто не знает, ее зовут Ming, и это ее фото на обложке.
Она сама занимается фотографией и часто помогает в оформлении дисков мужа.
 
скрытый текст
Exact Audio Copy V0.99 prebeta 1 from 25. May 2007
Отчёт EAC об извлечении, выполненном 11. сентября 2008, 20:49
David Murray / Ming
Дисковод: TSSTcorpDVD+-RW TS-L632D Adapter: 3 ID: 0
Режим чтения : Достоверность
Использование точного потока : Да
Отключение кэша аудио : Да
Использование указателей C2 : Нет
Коррекция смещения при чтении : 6
Способность читать области Lead-in и Lead-out : Нет
Заполнение пропущенных сэмплов тишиной : Да
Удаление блоков с тишиной в начале и конце : Нет
Интерфейс : Встроенный Win32-интерфейс для Win NT/2000
Выходной формат : Внутренние WAV-операции
Формат сэмплов : 44.100 Гц; 16 бит; стерео
TOC извлечённого CD
Трек | Старт | Длительность | Начальный сектор | Конечный сектор
---------------------------------------------------------------------
1 | 0:00.00 | 8:54.28 | 0 | 40077
2 | 8:54.28 | 10:39.51 | 40078 | 88053
3 | 19:34.04 | 4:28.11 | 88054 | 108164
4 | 24:02.15 | 8:51.63 | 108165 | 148052
5 | 32:54.03 | 6:36.05 | 148053 | 177757
Характеристики диапазона извлечения и сообщения об ошибках
Выбранный диапазон
Имя файла C:\Documents and Settings\Ultra Electronic\Мои документы\Azureus Downloads\David Murray - Ming\Unknown Artist - Unknown Title.wav
Пиковый уровень 100.0 %
Качество диапазона 100.0 %
CRC теста 21DC4168
CRC копии 21DC4168
Копирование... OK
Ошибок не произошло
Конец отчёта
Приватный:
Нет (DHT включён)
Размер:
232.26 Мб (243,547,228 байт) » файлов: 4
Участники:
0 раздают, 0 качают (0 участников всего)
Внешние участники:
2 раздают, 1 качают (3 участников всего) [ Обновить ]
No seeders - write a personal message to user M0p94ok. Нет сидеров - пишите личное сообщение пользователю M0p94ok.
03:23
48
Нет комментариев. Ваш будет первым!