Поиск

(Jazz/Avant-Garde/Fusion) David Torn - Tripping Over God[CMP CD 1007] - 1995, FLAC (image+.cue), lossless

(Jazz/Avant-Garde/Fusion) David Torn - Tripping Over God[CMP CD 1007] - 1995, FLAC (image+.cue), lossless
Треклист:
David Torn - Tripping Over God[CMP CD 1007]
Жанр: Jazz/Avant-Garde/Fusion
Год выпуска диска: 1995
Производитель диска: CMP/Germany
Аудио кодек: FLAC
Тип рипа: image+.cue
Битрейт аудио: lossless
Продолжительность: 62:47
Трэклист:
1 Pasha 09:41
2 Seven Door #3 05:44
3 The Entire Wish Spent Timing 04:23
4 Trip Over God 06:45
5 Dr. 8, The Bird You Sang 03:09
6 Acosay Phodei Mojo 02:15
7 Bust My Ass for Thinking 04:34
8 Shofar 02:40
9 Rollin' and Tumblin' 06:39
10 How Could I 04:08
11 What Was Once... 06:15
12 Thought of Many Georges 03:25
13 And Well I Found No Bottom 03:03
 
отчёт ЕАС
Exact Audio Copy V0.99 prebeta 4 from 23. January 2008
Отчёт EAC об извлечении, выполненном 11. сентября 2008, 21:36
David Torn / Tripping : Over : God
Дисковод: LITE-ON DVDRW SOHW-1213S Adapter: 1 ID: 1
Режим чтения : Достоверность
Использование точного потока : Да
Отключение кэша аудио : Да
Использование указателей C2 : Нет
Коррекция смещения при чтении : 12
Способность читать области Lead-in и Lead-out : Нет
Заполнение пропущенных сэмплов тишиной : Да
Удаление блоков с тишиной в начале и конце : Нет
При вычислениях CRC использовались нулевые сэмплы : Нет
Интерфейс : Встроенный Win32-интерфейс для Win NT/2000
Выходной формат : Пользовательский кодировщик
Выбранный битрейт : 1024 kBit/s
Качество : Высокий
Добавление ID3-тэга : Нет
Утилита сжатия : C:\Program Files\Exact Audio Copy\Flac\FLAC.EXE
Дополнительные параметры : -6 -V -T "ARTIST=%a" -T "TITLE=%t" -T "ALBUM=%g" -T "DATE=%y" -T "TRACKNUMBER=%n" -T "GENRE=%m" -T "COMMENT=%e" %s -o %d
TOC извлечённого CD
Трек | Старт | Длительность | Начальный сектор | Конечный сектор
---------------------------------------------------------------------
1 | 0:00.00 | 9:40.62 | 0 | 43561
2 | 9:40.62 | 5:43.60 | 43562 | 69346
3 | 15:24.47 | 4:23.30 | 69347 | 89101
4 | 19:48.02 | 6:46.35 | 89102 | 119586
5 | 26:34.37 | 3:09.60 | 119587 | 133821
6 | 29:44.22 | 2:14.28 | 133822 | 143899
7 | 31:58.50 | 4:36.57 | 143900 | 164656
8 | 36:35.32 | 2:41.03 | 164657 | 176734
9 | 39:16.35 | 6:39.00 | 176735 | 206659
10 | 45:55.35 | 4:08.65 | 206660 | 225324
11 | 50:04.25 | 6:15.10 | 225325 | 253459
12 | 56:19.35 | 3:24.72 | 253460 | 268831
13 | 59:44.32 | 3:02.53 | 268832 | 282534
Характеристики диапазона извлечения и сообщения об ошибках
Выбранный диапазон
Имя файла C:\David Torn - Tripping Over God\David Torn - Tripping Over God.wav
Пиковый уровень 99.6 %
Качество диапазона 100.0 %
CRC копии 0ECF5811
Копирование... OK
Ошибок не произошло
AccurateRip: сводка
Трек 1 точное извлечение (доверие 5) [F2C8CD27]
Трек 2 точное извлечение (доверие 5) [BCF82E5C]
Трек 3 точное извлечение (доверие 5) [569E81BE]
Трек 4 точное извлечение (доверие 5) [0FEF086D]
Трек 5 точное извлечение (доверие 5) [64AA650C]
Трек 6 точное извлечение (доверие 5) [2CD0EE2B]
Трек 7 точное извлечение (доверие 5) [222756DA]
Трек 8 точное извлечение (доверие 5) [9EB4D018]
Трек 9 точное извлечение (доверие 5) [099E8550]
Трек 10 точное извлечение (доверие 5) [17EBCF9F]
Трек 11 точное извлечение (доверие 5) [0198021A]
Трек 12 точное извлечение (доверие 5) [D5FE5197]
Трек 13 точное извлечение (доверие 5) [13E451AC]
Все треки извлечены точно
Конец отчёта
на всех инструментах играет David Torn:
 
Review by Glenn Astarita
Review by Glenn Astarita
On this 1995 outing, futuristic guitarist David Torn plants some of the seeds for his soon-to-be-well-known mastery of EFX and studio processing techniques. With this effort, the artist multi-tracks guitar parts, loops, voice, percussion, bass, and all programming, as many of these pieces feature Torn's subdued vocal mantras atop disfigured chord voicings and East Indian modalities. Here, Torn melds worldbeat-style motifs into a palate consisting of atmospheric treatments, blitzing electric lead soloing, ostinato percussion grooves, and Hendrix-like wah-wah guitar lines. The guitarist frequently soars into the stratosphere via bent notes and variegated effects, while also utilizing an acoustic guitar in spots. Nonetheless, this production actuates a fascinating glimpse into Torn's distinct artistry and should be deemed essential listening for those who share his forward-thinking sentiments.
Сканы 300 dpi.
Приватный:
Нет (DHT включён)
Размер:
274.03 Мб (287,341,872 байт) » файлов: 7
Участники:
0 раздают, 0 качают (0 участников всего)
Внешние участники:
3 раздают, 1 качают (4 участников всего) [ Обновить ]
No seeders - write a personal message to user M0p94ok. Нет сидеров - пишите личное сообщение пользователю M0p94ok.
03:24
114
Нет комментариев. Ваш будет первым!